<?xml version="1.0" standalone="no"?>
<!DOCTYPE svg PUBLIC "-//W3C//DTD SVG 1.1//EN" "http://www.w3.org/Graphics/SVG/1.1/DTD/svg11.dtd" >
<svg xmlns="http://www.w3.org/2000/svg" xmlns:xlink="http://www.w3.org/1999/xlink" version="1.1">
<metadata>
Created by FontForge 20190801 at Tue Oct 23 19:14:43 2018
 By www-data
Copyright (c)2014 Commercial Type.
</metadata>
<defs>
<font id="AtlasGroteskRegularWeb" horiz-adv-x="600" >
  <font-face 
    font-family="AtlasGroteskRegularWeb"
    font-weight="400"
    font-stretch="normal"
    units-per-em="1000"
    panose-1="0 0 0 0 0 0 0 0 0 0"
    ascent="800"
    descent="-200"
    x-height="527"
    cap-height="765"
    bbox="-197 -212 1217 1186"
    underline-thickness="50"
    underline-position="-100"
    unicode-range="U+000D-FB02"
  />
<missing-glyph horiz-adv-x="500" 
 />
    <glyph glyph-name="f_f" unicode="ff" horiz-adv-x="696" 
d="M205 0h-90v458h-96v69h96v111q0 81 43 113.5t117 32.5q15 0 29.5 -1.5t26.5 -3.5v-74q-8 2 -20 3t-29 1q-39 0 -58 -17t-19 -65v-100h248v118q0 81 43 113.5t117 32.5q15 0 29.5 -1.5t26.5 -3.5v-74q-8 2 -20 3t-29 1q-39 0 -58 -17t-19 -65v-107h126v-69h-126v-458h-90
v458h-248v-458z" />
    <glyph glyph-name="fi" unicode="fi" horiz-adv-x="633" 
d="M446 744h95v-97h-95v97zM448 527h91v-527h-91v527zM201 0h-90v458h-92v69h92v118q0 81 43 113.5t117 32.5q15 0 29.5 -1.5t26.5 -3.5v-74q-8 2 -20 3t-29 1q-39 0 -58 -17t-19 -65v-107h122v-69h-122v-458z" />
    <glyph glyph-name="fl" unicode="fl" horiz-adv-x="631" 
d="M448 788h90v-788h-90v788zM201 0h-90v458h-92v69h92v118q0 81 43 113.5t117 32.5q15 0 29.5 -1.5t26.5 -3.5v-74q-8 2 -20 3t-29 1q-39 0 -58 -17t-19 -65v-107h122v-69h-122v-458z" />
    <glyph glyph-name=".notdef" horiz-adv-x="500" 
 />
    <glyph glyph-name=".null" horiz-adv-x="0" 
 />
    <glyph glyph-name="nonmarkingreturn" unicode="&#xd;" horiz-adv-x="272" 
 />
    <glyph glyph-name="NULL" horiz-adv-x="0" 
 />
    <glyph glyph-name="NULL" horiz-adv-x="0" 
 />
    <glyph glyph-name="space" unicode=" " horiz-adv-x="272" 
 />
    <glyph glyph-name="exclam" unicode="!" horiz-adv-x="280" 
d="M89 788h102l-12 -551h-79zM81 0v118h118v-118h-118z" />
    <glyph glyph-name="quotedbl" unicode="&#x22;" horiz-adv-x="353" 
d="M208 765h100l-19 -221h-62zM45 765h100l-19 -221h-62z" />
    <glyph glyph-name="numbersign" unicode="#" horiz-adv-x="667" 
d="M385 373l21 142h-127l-21 -142h127zM170 297h-110v76h122l20 142h-112v76h123l26 174h76l-25 -174h126l26 174h77l-26 -174h114v-76h-125l-20 -142h115v-76h-127l-28 -198h-77l28 198h-127l-28 -198h-76z" />
    <glyph glyph-name="dollar" unicode="$" horiz-adv-x="627" 
d="M277 676q-60 -8 -92 -43t-32 -81q0 -57 32 -86t85 -38l7 -1v249zM349 70q73 8 104 43.5t31 87.5q0 48 -30 80.5t-99 45.5l-12 2v-259h6zM277 -116v109q-115 8 -171.5 68t-64.5 151h89q4 -26 14 -50t27.5 -43.5t43.5 -32.5t62 -17v273l-18 3q-93 17 -142.5 66.5
t-49.5 140.5q0 39 15.5 73t43 59.5t66 42t85.5 21.5v80h66v-80q102 -9 157 -64.5t60 -143.5h-88q-6 49 -35.5 87.5t-93.5 48.5v-261l29 -5q111 -20 156.5 -71t45.5 -130q0 -95 -58.5 -151.5t-172.5 -64.5v-109h-66z" />
    <glyph glyph-name="percent" unicode="%" horiz-adv-x="911" 
d="M690 781h84l-547 -821h-84zM234 381q-36 0 -66.5 11.5t-53.5 34t-36 56.5t-13 79t13.5 79t36.5 56.5t53.5 33.5t65.5 11t66 -11t54 -33.5t36.5 -56.5t13.5 -79t-13.5 -79t-36.5 -56.5t-54 -34t-66 -11.5zM233 445q41 0 65 29t24 88q0 60 -24 89t-65 29q-42 0 -65 -28.5
t-23 -89.5q0 -60 23 -88.5t65 -28.5zM676 -7q-36 0 -66.5 11.5t-53.5 34t-36 56.5t-13 79t13.5 79t36.5 56.5t53.5 33.5t65.5 11t66 -11t54 -33.5t36.5 -56.5t13.5 -79t-13.5 -79t-36.5 -56.5t-54 -34t-66 -11.5zM675 57q41 0 65 29t24 88q0 60 -24 89t-65 29
q-42 0 -65 -28.5t-23 -89.5q0 -60 23 -88.5t65 -28.5z" />
    <glyph glyph-name="ampersand" unicode="&#x26;" horiz-adv-x="703" 
d="M663 -2q-48 0 -84 19.5t-75 58.5q-36 -42 -87 -67t-121 -25q-63 0 -110.5 16t-80 44.5t-48.5 67.5t-16 84q0 34 9 62.5t29.5 54.5t52.5 51.5t79 52.5q-21 24 -37.5 45.5t-28.5 44t-18 47t-6 55.5q0 37 13 69t37.5 56t59 37.5t77.5 13.5q38 0 70.5 -11.5t56 -32.5
t37.5 -50t14 -63q0 -30 -11.5 -60t-32.5 -58t-50.5 -54.5t-64.5 -49.5l148 -174l22 -26q16 42 23 87.5t9 88.5h78q-3 -59 -16.5 -120.5t-40.5 -115.5q22 -24 38.5 -37.5t32 -21t31 -9.5t36.5 -2v-78h-25zM250 359q-30 -20 -51.5 -37.5t-36 -36t-21.5 -39.5t-7 -47
q0 -38 13.5 -65t36 -44t51.5 -25.5t61 -8.5q55 0 94 20t65 53l-34 40l-165 194zM207 611q0 -41 21 -77t54 -74q60 38 89.5 76.5t29.5 86.5q0 19 -6 36t-18 30.5t-29.5 21.5t-40.5 8q-48 0 -74 -30.5t-26 -77.5z" />
    <glyph glyph-name="quotesingle" unicode="'" horiz-adv-x="190" 
d="M45 765h100l-19 -221h-62z" />
    <glyph glyph-name="parenleft" unicode="(" horiz-adv-x="332" 
d="M228 -130q-21 42 -44.5 91t-43 105.5t-32.5 121.5t-13 141t13 141.5t32.5 122t43 105t44.5 90.5h68q-21 -46 -41 -94.5t-35 -104t-24 -120t-9 -140.5t9 -140t24 -119.5t35 -104.5t41 -95h-68z" />
    <glyph glyph-name="parenright" unicode=")" horiz-adv-x="332" 
d="M36 -130q21 46 41 95t35 104.5t24 119.5t9 140t-9 140.5t-24 120t-35 104t-41 94.5h68q21 -42 44.5 -90.5t43 -105t32.5 -122t13 -141.5t-13 -141t-32.5 -121.5t-43 -105.5t-44.5 -91h-68z" />
    <glyph glyph-name="asterisk" unicode="*" horiz-adv-x="455" 
d="M227 560l-77 -142l-71 53l110 114v2l-151 32l29 83l138 -72l2 2l-23 156h87l-23 -156l2 -2l137 72l30 -83l-151 -32v-2l110 -114l-71 -53l-76 142h-2z" />
    <glyph glyph-name="plus" unicode="+" horiz-adv-x="633" 
d="M356 127h-81v192h-189v77h189v191h81v-191h190v-77h-190v-192z" />
    <glyph glyph-name="comma" unicode="," horiz-adv-x="229" 
d="M84 123h112l-81 -240h-65z" />
    <glyph glyph-name="hyphen" unicode="-" horiz-adv-x="398" 
d="M60 368h278v-81h-278v81z" />
    <glyph glyph-name="period" unicode="." horiz-adv-x="238" 
d="M58 122h122v-122h-122v122z" />
    <glyph glyph-name="slash" unicode="/" horiz-adv-x="572" 
d="M460 788h81l-454 -918h-81z" />
    <glyph glyph-name="zero" unicode="0" horiz-adv-x="670" 
d="M69 368q0 97 19 169t53.5 120t83.5 71.5t109 23.5q61 0 110 -23.5t84 -71.5t54 -120t19 -169q0 -96 -19 -168t-53.5 -120t-84 -72t-110.5 -24q-123 0 -194 95.5t-71 288.5zM334 58q78 0 124 78t46 230q0 155 -45 233t-125 78q-78 0 -123 -76t-45 -235q0 -155 44 -231.5
t124 -76.5z" />
    <glyph glyph-name="one" unicode="1" horiz-adv-x="423" 
d="M205 546h-148v64h22q73 0 109 36q17 17 24.5 40t8.5 58h75v-744h-91v546z" />
    <glyph glyph-name="two" unicode="2" horiz-adv-x="614" 
d="M72 514q0 56 18.5 100.5t50.5 75t76 46.5t94 16q61 0 104 -17.5t71 -46t41 -65t13 -73.5q0 -38 -8.5 -69.5t-28 -63t-50.5 -66t-77 -78.5l-201 -192v-1h370v-80h-492v69l254 252q31 32 56.5 59.5t43.5 53.5t28 52.5t10 58.5q0 57 -35.5 94.5t-98.5 37.5q-29 0 -55.5 -9
t-46.5 -28.5t-31.5 -50.5t-11.5 -75h-94z" />
    <glyph glyph-name="three" unicode="3" horiz-adv-x="627" 
d="M280 335v83h39q28 0 52.5 10t42.5 27.5t28 41.5t10 51q0 59 -38 93.5t-98 34.5q-69 0 -108 -35.5t-42 -111.5h-90q0 45 15.5 85.5t45.5 71t75 48.5t104 18q53 0 95 -15t71 -41.5t44.5 -63t15.5 -79.5q0 -57 -34.5 -101t-88.5 -67v-2q27 -7 53 -21.5t46 -37t32.5 -54
t12.5 -73.5q0 -43 -17 -81.5t-49 -67.5t-79 -46t-107 -17q-63 0 -109 18t-76 49t-45.5 71t-17.5 85h91q10 -75 56 -111t109 -36q32 0 60 9.5t49 27.5t33 43t12 56q0 66 -40.5 102t-113.5 36h-39z" />
    <glyph glyph-name="four" unicode="4" horiz-adv-x="626" 
d="M389 257v377h-2q-5 -10 -11 -21q-5 -11 -14 -25t-20 -31l-206 -300h253zM476 180v-180h-87v180h-347v72l336 489h98v-483h97v-78h-97z" />
    <glyph glyph-name="five" unicode="5" horiz-adv-x="622" 
d="M460 237q0 42 -12 74.5t-33 54.5t-49.5 33.5t-61.5 11.5q-46 0 -81 -16.5t-56 -48.5h-78l32 395h394v-78h-318l-19 -236h2q20 23 56.5 42t87.5 19q43 0 84.5 -14t74 -44.5t52 -77.5t19.5 -113q0 -58 -18 -105t-51 -80t-80 -51t-106 -18q-62 0 -106 18.5t-72 48
t-41.5 66.5t-16.5 75h91q5 -70 45 -101t105 -31q28 0 56 10t50.5 31.5t36 55t13.5 79.5z" />
    <glyph glyph-name="six" unicode="6" horiz-adv-x="641" 
d="M471 581q-8 46 -40 73.5t-89 27.5q-50 0 -83.5 -24t-55 -66t-31.5 -98.5t-12 -120.5h4q26 47 75 75t112 28q42 0 82.5 -13.5t72.5 -42.5t52 -73.5t20 -107.5q0 -55 -17.5 -101.5t-50 -80.5t-79 -53t-104.5 -19q-50 0 -96.5 14.5t-82.5 52.5t-57.5 105t-21.5 171
q0 211 67 317.5t206 106.5q100 0 153.5 -45t61.5 -126h-86zM328 61q28 0 56 10t50.5 30.5t36 52.5t13.5 77q0 41 -12 72.5t-33 52.5t-49.5 32t-61.5 11q-34 0 -62.5 -10t-49.5 -31t-32.5 -52.5t-11.5 -74.5q0 -45 13.5 -77t35 -52.5t49.5 -30.5t58 -10z" />
    <glyph glyph-name="seven" unicode="7" horiz-adv-x="545" 
d="M403 660h-366v81h472v-59l-310 -682h-96z" />
    <glyph glyph-name="eight" unicode="8" horiz-adv-x="627" 
d="M79 550q0 42 16.5 78.5t47 64t74 43.5t96.5 16q54 0 97 -16t74 -43.5t47.5 -64t16.5 -78.5q0 -34 -10.5 -62.5t-27.5 -50t-38.5 -37t-44.5 -22.5v-2q24 -6 49 -19t46 -34.5t34 -53t13 -73.5q0 -45 -18 -83.5t-51.5 -67t-81 -45t-105.5 -16.5q-59 0 -106 16t-80 44.5
t-51 67.5t-18 84q0 42 13.5 73.5t34 53t45.5 34.5t48 19v2q-23 7 -44.5 22.5t-38.5 37.5t-27 50t-10 62zM313 680q-29 0 -54.5 -8t-44.5 -25t-30.5 -42.5t-11.5 -59.5t11.5 -59t31 -42t45 -25.5t53.5 -8.5q27 0 52.5 8.5t45 25.5t31.5 42t12 59t-11.5 59.5t-31 42.5t-45 25
t-53.5 8zM313 56q33 0 63 8t52.5 25.5t35.5 44t13 63.5t-13.5 63.5t-36 44t-52 26t-62.5 8.5q-32 0 -61 -8.5t-51.5 -26t-36 -44t-13.5 -63.5t13.5 -63.5t36 -44t51.5 -25.5t61 -8z" />
    <glyph glyph-name="nine" unicode="9" horiz-adv-x="641" 
d="M313 676q-28 0 -55.5 -9.5t-49 -29.5t-35 -51t-13.5 -74q0 -40 12 -70.5t32.5 -51t48.5 -31t60 -10.5q33 0 62 11t50.5 32t33.5 51t12 69q0 41 -13.5 71.5t-36 51t-50.5 31t-58 10.5zM169 167q9 -51 47 -80.5t89 -29.5q88 0 130.5 74t42.5 237h-2q-24 -42 -71 -68.5
t-113 -26.5q-38 0 -78 13.5t-73 41.5t-54 72t-21 104q0 54 19 99.5t52 78.5t78.5 51.5t99.5 18.5q60 0 108 -19t81 -60.5t51 -107t18 -158.5q0 -116 -17.5 -196.5t-51.5 -130.5t-84 -72.5t-115 -22.5q-43 0 -81 10.5t-67 33t-48.5 57t-26.5 81.5h87z" />
    <glyph glyph-name="colon" unicode=":" horiz-adv-x="260" 
d="M79 527h123v-123h-123v123zM79 0v123h123v-123h-123z" />
    <glyph glyph-name="semicolon" unicode=";" horiz-adv-x="272" 
d="M85 527h123v-123h-123v123zM56 -117l33 240h112l-81 -240h-64z" />
    <glyph glyph-name="less" unicode="&#x3c;" horiz-adv-x="633" 
d="M80 302v62l468 230v-87l-359 -174l359 -174v-87z" />
    <glyph glyph-name="equal" unicode="=" horiz-adv-x="633" 
d="M85 486h463v-76h-463v76zM85 229v76h463v-76h-463z" />
    <glyph glyph-name="greater" unicode="&#x3e;" horiz-adv-x="633" 
d="M553 354v-62l-468 -230v87l359 174l-359 174v87z" />
    <glyph glyph-name="question" unicode="?" horiz-adv-x="535" 
d="M410 590q0 57 -36.5 93t-98.5 36q-75 0 -116 -46t-39 -134h-85q-2 58 14.5 105.5t48 81.5t76.5 52.5t99 18.5q59 0 101.5 -17.5t70.5 -45.5t41 -64t13 -72q0 -39 -9.5 -69t-25 -53.5t-35 -42.5t-39.5 -36l-37 -32q-15 -14 -25.5 -22.5t-16.5 -17.5t-9 -20t-3 -29v-49h-82
v64q0 25 4 41.5t13 29.5t23.5 25.5t35.5 30.5l49 42q33 27 50.5 57.5t17.5 72.5zM198 0v118h118v-118h-118z" />
    <glyph glyph-name="at" unicode="@" horiz-adv-x="1009" 
d="M719 59q-57 0 -90.5 21t-40.5 67h-3q-25 -41 -63 -66t-92 -25q-37 0 -65.5 12.5t-48 34.5t-30.5 53t-12 68q-2 50 13 101t44 92.5t72.5 67.5t99.5 26q51 0 82 -23.5t42 -60.5h2l13 68h75l-53 -267q-11 -51 5.5 -79.5t62.5 -28.5q22 0 46.5 11t45 37t34 69t13.5 106
q0 71 -26.5 132t-73.5 106t-113 70.5t-144 25.5q-82 0 -153 -31.5t-123 -87t-82 -131t-30 -163.5q0 -89 26.5 -160t74.5 -121.5t114.5 -77.5t146.5 -27q82 0 148.5 24.5t110.5 59.5l42 -43q-50 -42 -126 -73t-182 -31q-95 0 -175 32.5t-138.5 91.5t-91 141.5t-32.5 183.5
q0 103 36.5 190t100 150.5t150 99.5t185.5 36q93 0 172.5 -28.5t137 -80t90.5 -124t33 -159.5q0 -81 -22.5 -136.5t-56.5 -89t-74.5 -48.5t-76.5 -15zM449 121q25 0 47.5 10t41 28t31.5 42.5t19 53.5l9 43q5 24 3.5 50t-11.5 47t-30 35t-52 14q-38 0 -66 -20.5t-46 -52
t-27 -71t-9 -76.5q0 -43 21.5 -73t68.5 -30z" />
    <glyph glyph-name="A" unicode="A" horiz-adv-x="736" 
d="M364 672q-1 -2 -3.5 -11t-7 -22.5t-9.5 -29.5t-11 -32l-95 -274h254l-96 274q-6 17 -11.5 34t-9.5 31q-5 16 -9 30h-2zM518 228h-306l-79 -228h-93l272 765h110l275 -765h-99z" />
    <glyph glyph-name="B" unicode="B" horiz-adv-x="723" 
d="M104 0v765h301q49 0 92 -11.5t75 -34.5t50.5 -58t18.5 -82q0 -70 -37 -113t-103 -58v-2q36 -6 66 -22.5t52 -41t34 -55.5t12 -65q0 -65 -22.5 -107.5t-61 -68t-90 -36t-109.5 -10.5h-278zM388 443q30 0 58.5 6t50 20.5t34.5 39t13 61.5q0 63 -40 91.5t-104 28.5h-203
v-247h191zM383 75q42 0 76 7.5t58.5 25.5t37.5 47.5t13 72.5q0 76 -51 107t-142 31h-178v-291h186z" />
    <glyph glyph-name="C" unicode="C" horiz-adv-x="769" 
d="M410 701q-59 0 -104.5 -23t-76 -65t-46.5 -101t-16 -131q0 -74 16 -133.5t47 -101t76 -63.5t102 -22q51 0 87 15.5t60 41t37 57t17 64.5h95q-5 -54 -27 -100.5t-60.5 -80.5t-91 -53.5t-117.5 -19.5q-75 0 -137.5 24.5t-107.5 73.5t-70 123.5t-25 174.5q0 93 25.5 166.5
t71 124.5t108 78t137.5 27q49 0 98.5 -13.5t91 -42.5t70 -74.5t34.5 -109.5h-98q-5 29 -19 58.5t-38 53t-58.5 38t-80.5 14.5z" />
    <glyph glyph-name="D" unicode="D" horiz-adv-x="776" 
d="M104 765h235q78 0 146 -20t117.5 -64.5t78 -115.5t28.5 -173q0 -101 -26.5 -175t-74.5 -122t-114 -71.5t-144 -23.5h-246v765zM339 80q61 0 111 16.5t86 53.5t56 96t20 143q0 80 -20 136.5t-55.5 92t-84.5 51.5t-107 16h-148v-605h142z" />
    <glyph glyph-name="E" unicode="E" horiz-adv-x="677" 
d="M104 765h489v-83h-396v-255h364v-81h-364v-263h401v-83h-494v765z" />
    <glyph glyph-name="F" unicode="F" horiz-adv-x="614" 
d="M197 0h-93v765h457v-83h-364v-276h333v-81h-333v-325z" />
    <glyph glyph-name="G" unicode="G" horiz-adv-x="828" 
d="M417 702q-62 0 -109 -23.5t-78.5 -66t-47.5 -103t-16 -133.5q0 -153 62 -234.5t179 -81.5q109 0 170 60t61 173v11h-221v82h312v-386h-81v110h-4q-14 -25 -35.5 -48t-51 -40t-68 -27.5t-84.5 -10.5q-72 0 -134 24t-107 72.5t-70.5 123t-25.5 175.5q0 94 26.5 167.5
t73.5 124.5t111 78t138 27q59 0 109 -14.5t87.5 -42t61.5 -67t31 -90.5h-97q-5 33 -21.5 59t-42 44t-58.5 27.5t-70 9.5z" />
    <glyph glyph-name="H" unicode="H" horiz-adv-x="795" 
d="M197 0h-93v765h93v-337h401v337h93v-765h-93v345h-401v-345z" />
    <glyph glyph-name="I" unicode="I" horiz-adv-x="302" 
d="M104 765h93v-765h-93v765z" />
    <glyph glyph-name="J" unicode="J" horiz-adv-x="424" 
d="M26 -3v79h21q60 0 96.5 8.5t57 27t27 48t6.5 71.5v534h93v-542q0 -62 -16.5 -105t-49.5 -70t-81.5 -39t-111.5 -12h-42z" />
    <glyph glyph-name="K" unicode="K" horiz-adv-x="714" 
d="M197 0h-93v765h93v-393l358 393h112l-294 -321l315 -444h-112l-267 374l-112 -123v-251z" />
    <glyph glyph-name="L" unicode="L" horiz-adv-x="603" 
d="M104 765h93v-682h380v-83h-473v765z" />
    <glyph glyph-name="M" unicode="M" horiz-adv-x="951" 
d="M104 765h141l194 -548q9 -26 15 -44t11 -31q4 -15 8 -25h2q3 10 8 25q4 13 10.5 31t15.5 44l197 548h140v-765h-95v657h-3l-10 -30l-12.5 -37.5t-18.5 -52.5l-193 -537h-88l-188 537q-11 30 -18.5 52.5l-12.5 37.5l-10 30h-3v-657h-90v765z" />
    <glyph glyph-name="N" unicode="N" horiz-adv-x="795" 
d="M104 765h119l340 -569q10 -16 17 -29.5t12 -23.5q5 -12 10 -22h3v644h88v-765h-119l-339 568q-11 19 -18.5 33t-12.5 23l-9 18h-2v-642h-89v765z" />
    <glyph glyph-name="O" unicode="O" horiz-adv-x="823" 
d="M68 380q0 103 28 177.5t75 123t109 72t130 23.5q70 0 132.5 -23.5t109.5 -72t75 -123t28 -177.5q0 -102 -27.5 -177t-75 -123.5t-110 -72t-132.5 -23.5q-71 0 -133 23.5t-108.5 72t-73.5 123.5t-27 177zM410 59q54 0 99.5 21t78 61.5t51 100.5t18.5 137q0 79 -18 139
t-50.5 101t-78 62t-100.5 21q-54 0 -98.5 -20t-77 -60.5t-50.5 -101t-18 -141.5q0 -78 17.5 -138t49.5 -100.5t77 -61t100 -20.5z" />
    <glyph glyph-name="P" unicode="P" horiz-adv-x="639" 
d="M197 292v-292h-93v765h230q55 0 103.5 -13.5t83.5 -42t55.5 -73t20.5 -106.5q0 -61 -20.5 -105.5t-56.5 -74t-85.5 -44t-108.5 -14.5h-129zM326 367q84 0 129.5 40.5t45.5 122.5q0 86 -45.5 123t-126.5 37h-132v-323h129z" />
    <glyph glyph-name="Q" unicode="Q" horiz-adv-x="823" 
d="M68 380q0 103 28 177.5t75 123t109 72t130 23.5q70 0 132.5 -23.5t109.5 -72t75 -123t28 -177.5q0 -115 -35.5 -197t-103.5 -126v-5q59 1 99.5 -24t72.5 -75l-76 -56q-39 58 -77 78t-87 20q-20 0 -34.5 -1.5l-29 -3t-32 -3t-42.5 -1.5q-71 0 -133 23t-108.5 71.5
t-73.5 123t-27 176.5zM410 59q54 0 99.5 19t78 58t51 99.5t18.5 143.5q0 79 -18 139t-50.5 101t-78 62t-100.5 21q-54 0 -98.5 -20t-77 -60.5t-50.5 -101t-18 -141.5q0 -78 17.5 -138t49.5 -100.5t77 -61t100 -20.5z" />
    <glyph glyph-name="R" unicode="R" horiz-adv-x="692" 
d="M373 401q34 0 62.5 8.5t49.5 26.5t33 46t12 67q0 71 -43.5 105.5t-109.5 34.5h-180v-288h176zM367 324h-170v-324h-93v765h277q83 0 148 -34q46 -26 72.5 -70.5t26.5 -110.5q0 -54 -16 -91t-40 -61.5t-53 -38t-55 -20.5v-2l169 -337h-108z" />
    <glyph glyph-name="S" unicode="S" horiz-adv-x="714" 
d="M522 560q-3 28 -13.5 54t-29.5 45.5t-47.5 31t-68.5 11.5q-39 0 -69 -10.5t-50 -28.5t-30.5 -42t-10.5 -51q0 -53 30 -83.5t98 -43.5l108 -19q56 -10 94.5 -28.5t62 -45t34 -60.5t10.5 -75q0 -105 -70.5 -167.5t-207.5 -62.5q-66 0 -118 17t-88.5 47.5t-56.5 72.5t-23 93
h97q4 -31 17 -59t36.5 -49.5t57.5 -34t80 -12.5q51 0 85.5 11.5t56 31.5t30.5 47t9 57q0 50 -29.5 83t-100.5 45l-107 19q-56 10 -95 30t-63 47t-34.5 60t-10.5 71q0 46 18.5 85.5t52 68t81.5 44.5t107 16q61 0 107 -15.5t77.5 -44t48.5 -68t20 -88.5h-95z" />
    <glyph glyph-name="T" unicode="T" horiz-adv-x="653" 
d="M638 684h-265v-684h-93v684h-265v81h623v-81z" />
    <glyph glyph-name="U" unicode="U" horiz-adv-x="764" 
d="M92 765h93v-440q0 -26 0.5 -54t4.5 -54t12 -49.5t22 -41.5q27 -34 67 -49.5t93 -15.5t93.5 15.5t66.5 49.5q14 18 21.5 41.5t10.5 49.5t3.5 54t0.5 54v440h92v-510q0 -72 -21 -123t-59 -84t-91.5 -48t-118.5 -15q-66 0 -119.5 15t-91.5 47.5t-58.5 83.5t-20.5 124v510z
" />
    <glyph glyph-name="V" unicode="V" horiz-adv-x="735" 
d="M40 765h99l197 -563q10 -29 16 -51.5l10 -37.5q4 -18 7 -30h2q3 12 7 30q7 30 27 87l196 565h94l-272 -765h-108z" />
    <glyph glyph-name="W" unicode="W" horiz-adv-x="1073" 
d="M256 0l-219 765h95l150 -542q15 -59 21 -90q4 -18 6 -32h2q1 14 5 32q6 33 21 89l147 543h108l148 -542q8 -29 13.5 -51.5t8.5 -38.5q4 -18 6 -32h2q1 14 5 32q3 16 8 38t13 51l149 543h91l-219 -765h-104l-150 533q-8 29 -13.5 51.5t-8.5 38.5q-4 18 -5 33h-2
q-2 -15 -6 -33q-6 -33 -21 -89l-148 -534h-103z" />
    <glyph glyph-name="X" unicode="X" horiz-adv-x="738" 
d="M313 396l-243 369h111l185 -290h2l195 290h100l-244 -364l268 -401h-113l-208 321h-2l-213 -321h-100z" />
    <glyph glyph-name="Y" unicode="Y" horiz-adv-x="653" 
d="M281 327l-270 438h108l207 -353h2l215 353h99l-269 -432v-333h-92v327z" />
    <glyph glyph-name="Z" unicode="Z" horiz-adv-x="654" 
d="M63 765h536v-71l-434 -612h442v-82h-560v71l435 612h-419v82z" />
    <glyph glyph-name="bracketleft" unicode="[" horiz-adv-x="353" 
d="M110 788h218v-67h-135v-784h135v-67h-218v918z" />
    <glyph glyph-name="backslash" unicode="\" horiz-adv-x="572" 
d="M31 788h81l454 -918h-81z" />
    <glyph glyph-name="bracketright" unicode="]" horiz-adv-x="353" 
d="M243 -130h-218v66h135v785h-135v67h218v-918z" />
    <glyph glyph-name="asciicircum" unicode="^" horiz-adv-x="408" 
d="M396 506h-82l-110 191h-1l-114 -191h-77l157 282h74z" />
    <glyph glyph-name="underscore" unicode="_" horiz-adv-x="396" 
d="M-2 -121h400v-69h-400v69z" />
    <glyph glyph-name="grave" unicode="`" horiz-adv-x="369" 
d="M252 626h-66l-88 162h101z" />
    <glyph glyph-name="a" unicode="a" horiz-adv-x="553" 
d="M230 64q25 0 51.5 9t48.5 29.5t36 54t14 82.5v12q-86 -4 -136.5 -12t-76.5 -27q-29 -22 -29 -65q0 -41 24.5 -62t67.5 -21zM74 383q2 70 53 113.5t146 43.5q99 0 147 -45t48 -151v-215q0 -32 9.5 -45.5t38.5 -14.5v-73h-11q-63 0 -88.5 23t-32.5 70h-2
q-21 -47 -65.5 -72.5t-103.5 -25.5q-79 0 -123 40t-44 111q0 44 19 78.5t60 54.5q42 22 104 31t151 12v23q0 72 -27 102t-83 30q-29 0 -49.5 -7.5t-33.5 -20.5t-19.5 -29t-7.5 -33h-86z" />
    <glyph glyph-name="b" unicode="b" horiz-adv-x="611" 
d="M94 788h90v-348h1q22 43 64 71.5t102 28.5q42 0 80.5 -14t67.5 -45.5t46.5 -83t17.5 -126.5q0 -72 -17 -125.5t-46.5 -88.5t-69 -52.5t-84.5 -17.5q-31 0 -57 8t-46.5 21.5t-36 31t-25.5 36.5h-2v-84h-85v788zM332 58q71 0 105.5 54.5t34.5 158.5q0 42 -7 78t-23 62.5
t-43.5 41.5t-67.5 15q-36 0 -63.5 -13.5t-47 -37t-29.5 -54t-10 -63.5v-56q0 -39 9.5 -73t28.5 -59t47 -39.5t66 -14.5z" />
    <glyph glyph-name="c" unicode="c" horiz-adv-x="536" 
d="M404 368q-2 20 -10.5 38.5t-23.5 33t-36.5 23t-49.5 8.5q-36 0 -63 -15t-45 -42t-27.5 -65t-9.5 -84t7.5 -84t24.5 -65.5t44 -42.5t67 -15q37 0 61.5 12t39 30t21 37.5t7.5 34.5h84q-5 -46 -23 -80.5t-46 -57.5t-65 -34.5t-80 -11.5q-57 0 -100.5 19t-73.5 54.5t-45 86
t-15 113.5q0 60 16 111.5t46.5 88.5t74 58t99.5 21q39 0 75.5 -9.5t65 -30t47 -53.5t21.5 -79h-88z" />
    <glyph glyph-name="d" unicode="d" horiz-adv-x="611" 
d="M429 284q0 42 -10.5 76t-29.5 58t-45.5 37t-57.5 13q-76 0 -111.5 -55.5t-35.5 -148.5q0 -45 7 -82.5t23.5 -65t43.5 -43t66 -15.5q35 0 62.5 13t47 36t30 54t10.5 67v56zM517 0h-86v87h-3q-21 -39 -63 -69.5t-103 -30.5q-42 0 -81 14t-68.5 46.5t-47.5 84.5t-18 128
q0 68 17 120t47 87.5t71.5 54t91.5 18.5q60 0 97.5 -28t53.5 -65h2v341h90v-788z" />
    <glyph glyph-name="e" unicode="e" horiz-adv-x="550" 
d="M410 316q-1 33 -8 61.5t-22.5 49.5t-40 33t-58.5 12q-63 0 -98 -45t-43 -117h270v6zM495 138q-14 -69 -69.5 -110t-140.5 -41q-60 0 -105 20.5t-74.5 57.5t-44 87t-14.5 109q0 58 15.5 109t45.5 89t73.5 59.5t100.5 21.5q59 0 101 -21t68.5 -56.5t38.5 -81.5t12 -96v-46
h-363q4 -82 39.5 -132.5t109.5 -50.5q33 0 54.5 8.5t35 21t20.5 26.5t10 26h87z" />
    <glyph glyph-name="f" unicode="f" horiz-adv-x="358" 
d="M205 0h-90v458h-96v69h96v118q0 81 43 113.5t117 32.5q15 0 29.5 -1.5t26.5 -3.5v-74q-8 2 -20 3t-29 1q-39 0 -58 -17t-19 -65v-107h126v-69h-126v-458z" />
    <glyph glyph-name="g" unicode="g" horiz-adv-x="609" 
d="M429 292q0 39 -10.5 72t-30 56t-47.5 36t-62 13q-36 0 -62 -14t-43.5 -40t-26 -62.5t-8.5 -81.5q0 -44 7 -80t23.5 -61.5t44 -40t69.5 -14.5q32 0 58.5 13t46 35.5t30.5 52t11 63.5v53zM275 -199q-38 0 -74.5 7.5t-66 24.5t-50 45t-24.5 69h87q8 -34 36.5 -54t93.5 -20
q75 0 112.5 33t37.5 120v78h-1q-20 -39 -64.5 -68t-103.5 -29q-41 0 -79.5 14t-67.5 45t-46.5 81.5t-17.5 123.5q0 65 16.5 115.5t46 84.5t70 51.5t89.5 17.5q32 0 57.5 -8t45 -21.5t33.5 -31t22 -35.5h2v83h86v-514q0 -56 -17.5 -96t-49 -65.5t-75.5 -38t-98 -12.5z" />
    <glyph glyph-name="h" unicode="h" horiz-adv-x="608" 
d="M429 326q0 29 -2.5 57t-16.5 47t-35.5 27t-47.5 8q-37 0 -64 -11t-44.5 -31t-26 -47.5t-8.5 -59.5v-316h-90v788h90v-348h2q9 19 23.5 37t35.5 32t47.5 22.5t58.5 8.5q38 0 69 -9.5t53 -30t34 -53.5t12 -80v-367h-90v326z" />
    <glyph glyph-name="i" unicode="i" horiz-adv-x="279" 
d="M92 744h95v-97h-95v97zM94 527h91v-527h-91v527z" />
    <glyph glyph-name="j" unicode="j" horiz-adv-x="279" 
d="M92 744h95v-97h-95v97zM33 -199q-15 0 -29 2t-25 5v76q19 -6 46 -6q34 0 51.5 16.5t17.5 58.5v574h91v-581q0 -39 -12 -67t-32.5 -45t-48 -25t-59.5 -8z" />
    <glyph glyph-name="k" unicode="k" horiz-adv-x="558" 
d="M184 0h-90v788h90v-515l220 254h105l-176 -198l198 -329h-105l-154 260l-88 -99v-161z" />
    <glyph glyph-name="l" unicode="l" horiz-adv-x="277" 
d="M94 788h90v-788h-90v788z" />
    <glyph glyph-name="m" unicode="m" horiz-adv-x="939" 
d="M94 527h85v-89h2q9 20 24.5 38.5t37.5 32.5t48.5 22.5t58.5 8.5q60 0 102.5 -27t56.5 -82h2q7 21 23 40.5t38 34.5t50 24.5t61 9.5q37 0 68 -9.5t53 -30t34 -53.5t12 -80v-367h-90v326q0 29 -2.5 57t-16.5 48q-14 19 -35 26.5t-47 7.5q-37 0 -63.5 -11t-44 -31t-26 -47.5
t-8.5 -59.5v-316h-90v326q0 29 -2.5 56.5t-16.5 47.5q-14 19 -35 27t-47 8q-37 0 -63.5 -11t-44 -31t-26 -47t-8.5 -58v-318h-90v527z" />
    <glyph glyph-name="n" unicode="n" horiz-adv-x="608" 
d="M429 325q0 29 -2.5 57.5t-16.5 47.5t-35.5 27t-47.5 8q-37 0 -64 -11t-44.5 -31t-26 -47.5t-8.5 -59.5v-316h-90v527h85v-89h2q9 20 25 38.5t38 32.5t48.5 22.5t58.5 8.5q38 0 69 -9.5t53 -30t34 -53.5t12 -80v-367h-90v325z" />
    <glyph glyph-name="o" unicode="o" horiz-adv-x="567" 
d="M282 -13q-58 0 -102 20t-73.5 56.5t-44.5 87.5t-15 113q0 61 16.5 112t47 87.5t74.5 56.5t99 20q59 0 103 -20t73.5 -56.5t44 -87.5t14.5 -112q0 -62 -16 -113t-47 -87.5t-75 -56.5t-99 -20zM283 471q-72 0 -107.5 -55t-35.5 -152t34 -152t111 -55q74 0 107.5 55
t33.5 152t-33.5 152t-109.5 55z" />
    <glyph glyph-name="p" unicode="p" horiz-adv-x="611" 
d="M181 244q0 -39 9.5 -73t28.5 -59t47 -39.5t66 -14.5q71 0 105.5 54.5t34.5 158.5q0 42 -7 78t-23 62.5t-43.5 41.5t-67.5 15q-35 0 -62.5 -13.5t-47 -37t-30 -54t-10.5 -63.5v-56zM94 527h87v-88h2q23 42 65.5 71.5t102.5 29.5q42 0 80.5 -14t67.5 -45.5t46.5 -83
t17.5 -126.5q0 -72 -17.5 -125.5t-47 -88.5t-69 -52.5t-84.5 -17.5q-29 0 -54.5 7.5t-46.5 20t-36 28.5t-22 34h-2v-265h-90v715z" />
    <glyph glyph-name="q" unicode="q" horiz-adv-x="611" 
d="M517 -188h-90v268h-3q-9 -18 -24.5 -34.5t-35.5 -29.5t-46 -21t-56 -8q-42 0 -81 14t-68.5 46t-47.5 84t-18 129q0 68 17 120t47 87.5t71.5 54t91.5 18.5q60 0 98.5 -28t54.5 -65h2v80h88v-715zM279 58q35 0 62.5 13t47 36t30 54t10.5 67v56q0 42 -10.5 76t-29.5 58
t-45.5 37t-57.5 13q-74 0 -110.5 -55.5t-36.5 -148.5q0 -45 7 -82.5t23.5 -65t43.5 -43t66 -15.5z" />
    <glyph glyph-name="r" unicode="r" horiz-adv-x="391" 
d="M94 527h85v-99h2q9 21 25.5 40.5t38 34.5t48 24.5t55.5 9.5h9v-94h-17q-71 0 -113.5 -39.5t-42.5 -116.5v-287h-90v527z" />
    <glyph glyph-name="s" unicode="s" horiz-adv-x="503" 
d="M354 395q-4 35 -31 56t-74 21t-75 -24t-28 -61q0 -32 19.5 -48.5t59.5 -23.5l81 -12q82 -13 116 -49t34 -104q0 -40 -15.5 -70.5t-42.5 -51t-65 -31t-83 -10.5q-41 0 -77.5 9.5t-64 29t-44.5 50.5t-20 73h88q1 -15 7 -31.5t19.5 -30t36 -22.5t57.5 -9q54 0 85.5 23.5
t31.5 65.5q0 16 -3 28t-11.5 21.5t-25 16t-43.5 11.5l-81 12q-71 11 -107.5 44t-36.5 102q0 35 13 64.5t37.5 50.5t60 33t80.5 12q86 0 133.5 -38t54.5 -107h-86z" />
    <glyph glyph-name="t" unicode="t" horiz-adv-x="363" 
d="M205 680v-153h130v-69h-130v-311q0 -42 18.5 -60t61.5 -18q10 0 20.5 0.5t18.5 1.5q10 1 19 3v-76q-11 -2 -24 -3q-23 -3 -59 -3q-78 0 -111 36t-33 104v326h-96v66h16q27 0 43.5 4t26.5 17t13.5 36t3.5 61v38h82z" />
    <glyph glyph-name="u" unicode="u" horiz-adv-x="608" 
d="M181 203q0 -29 2.5 -58.5t16.5 -48.5q26 -35 81 -35q74 0 109 46.5t35 134.5v285h90v-527h-86v90h-2q-9 -20 -24.5 -39t-36.5 -33t-47.5 -22.5t-57.5 -8.5q-76 0 -122.5 40t-46.5 133v367h89v-324z" />
    <glyph glyph-name="v" unicode="v" horiz-adv-x="510" 
d="M23 527h92l114 -339q5 -17 10 -32t9 -26q4 -13 7 -25h2q3 12 7 25q4 11 8.5 26t10.5 32l117 339h86l-183 -527h-95z" />
    <glyph glyph-name="w" unicode="w" horiz-adv-x="831" 
d="M27 527h92l102 -355q3 -13 6.5 -24.5t5.5 -21.5q3 -11 5 -21h2q2 10 6 21q3 10 6.5 21.5t7.5 23.5l112 356h92l111 -356q4 -12 7 -23.5t6 -21.5q3 -11 6 -21h2q2 10 5 21q2 10 5 21.5t7 23.5l104 356h87l-163 -527h-95l-96 310q-6 18 -11.5 37.5t-10.5 36.5q-5 19 -11 38
h-1q-6 -19 -11 -38q-5 -17 -11 -36.5t-11 -37.5l-97 -310h-95z" />
    <glyph glyph-name="x" unicode="x" horiz-adv-x="507" 
d="M199 272l-167 255h106l115 -184h2l118 184h98l-166 -250l183 -277h-107l-131 206h-3l-130 -206h-98z" />
    <glyph glyph-name="y" unicode="y" horiz-adv-x="520" 
d="M38 527h90l110 -330q6 -19 11 -34t8 -26q4 -12 7 -22h3q3 10 7 22q3 11 7.5 26t11.5 35l108 329h90l-192 -560q-16 -45 -31.5 -77t-37 -51.5t-50.5 -28.5t-72 -9q-15 0 -29 2t-25 4v74q13 -3 26 -4t20 -1q25 0 42.5 5t30 16.5t21.5 29.5t18 45l10 28z" />
    <glyph glyph-name="z" unicode="z" horiz-adv-x="517" 
d="M66 527h397v-78l-309 -375h316v-74h-418v79l307 375h-293v73z" />
    <glyph glyph-name="braceleft" unicode="{" horiz-adv-x="353" 
d="M27 292v74h24q44 0 60.5 17t16.5 59v201q0 82 47.5 115.5t152.5 33.5v-62q-40 0 -64 -6t-36.5 -19t-16.5 -34.5t-4 -52.5v-165q0 -20 -2.5 -40t-10.5 -37t-23 -29t-39 -16v-4q24 -4 39 -16t23 -29t10.5 -37t2.5 -40v-165q0 -31 4 -52.5t16.5 -34.5t36.5 -19t64 -6v-62
q-53 0 -90.5 8t-62 25.5t-36 46t-11.5 69.5v201q0 42 -16.5 59t-60.5 17h-24z" />
    <glyph glyph-name="bar" unicode="|" horiz-adv-x="289" 
d="M108 788h73v-918h-73v918z" />
    <glyph glyph-name="braceright" unicode="}" horiz-adv-x="353" 
d="M326 292h-24q-44 0 -60.5 -17t-16.5 -59v-201q0 -41 -11.5 -69.5t-36 -46t-62.5 -25.5t-90 -8v62q40 0 64 6t36.5 19t16.5 34.5t4 52.5v165q0 20 2.5 40t10.5 37t23 29t39 16v4q-24 4 -39 16t-23 29t-10.5 37t-2.5 40v165q0 31 -4 52.5t-16.5 34.5t-36.5 19t-64 6v62
q105 0 152.5 -33.5t47.5 -115.5v-201q0 -42 16.5 -59t60.5 -17h24v-74z" />
    <glyph glyph-name="asciitilde" unicode="~" horiz-adv-x="403" 
d="M20 292q0 26 7 50.5t21 43t34.5 30t46.5 11.5q25 0 46.5 -9.5t40 -20.5t34.5 -20.5t29 -9.5q17 0 28.5 14.5t13.5 47.5h62q0 -26 -7 -50.5t-21 -43.5t-34.5 -30t-46.5 -11q-25 0 -46 9t-39.5 20.5t-34.5 20.5t-31 9q-16 0 -27.5 -14t-13.5 -47h-62z" />
    <glyph glyph-name="uni00A0" unicode="&#xa0;" horiz-adv-x="272" 
 />
    <glyph glyph-name="exclamdown" unicode="&#xa1;" horiz-adv-x="280" 
d="M191.006 -118.952h-101.994l11.999 550.967h78.9951zM199.005 669v-117.993h-117.993v117.993h117.993z" />
    <glyph glyph-name="cent" unicode="&#xa2;" horiz-adv-x="536" 
d="M495 172q-9 -84 -59 -129t-125 -53v-106h-62v106q-99 11 -150.5 82.5t-51.5 188.5q0 55 13.5 103t39.5 84.5t63.5 60t85.5 29.5v97h62v-96q35 -3 66.5 -14t56 -32t40 -52t18.5 -73h-88q-4 35 -26.5 65t-66.5 38v-413q28 5 47 18.5t30.5 30t16.5 34t6 31.5h84zM249 469
q-55 -14 -83.5 -68.5t-28.5 -135.5q0 -82 25.5 -137.5t86.5 -68.5v410z" />
    <glyph glyph-name="sterling" unicode="&#xa3;" horiz-adv-x="627" 
d="M567 0h-492v69l35 29q28 24 44.5 45t22.5 45t3 54.5t-15 73.5h-101v71h80l-11 35q-25 84 -14.5 146.5t43.5 103t81.5 60.5t99.5 20q103 0 164 -57t61 -166h-92q0 27 -6 53.5t-21 47.5t-40 34t-62 13q-36 0 -66.5 -12.5t-49 -41t-21.5 -76t16 -116.5l12 -44h222v-71h-203
q8 -36 10.5 -66.5t-3 -57t-19.5 -50t-38 -46.5l-15 -14v-2h375v-80z" />
    <glyph glyph-name="currency" unicode="&#xa4;" horiz-adv-x="631" 
d="M203 347q0 -52 30.5 -86t80.5 -34q51 0 81.5 34t30.5 86t-30.5 86.5t-81.5 34.5q-50 0 -80.5 -34.5t-30.5 -86.5zM135 347q0 27 7 51.5t19 44.5l-79 79l57 57l78 -79q44 27 97 27q29 0 54 -7.5t46 -21.5l82 84l55 -55l-84 -83q27 -44 27 -97q0 -28 -7 -52.5t-20 -44.5
l81 -80l-57 -57l-80 81q-43 -26 -97 -26t-97 26l-81 -82l-55 55l82 81q-28 44 -28 99z" />
    <glyph glyph-name="yen" unicode="&#xa5;" horiz-adv-x="601" 
d="M257 180h-200v69h200v93h-202v69h172l-205 330h106l172 -295h2l180 295h97l-207 -330h170v-69h-197v-93h199v-69h-199v-180h-88v180z" />
    <glyph glyph-name="brokenbar" unicode="&#xa6;" horiz-adv-x="289" 
d="M181 387h-73v401h73v-401zM108 -130v438h73v-438h-73z" />
    <glyph glyph-name="section" unicode="&#xa7;" horiz-adv-x="596" 
d="M147 366q0 -35 18.5 -56.5t47.5 -35.5l126 -63q13 -7 24.5 -13t22.5 -13q28 10 45 31t17 58q0 29 -16 50t-54 40l-116 58q-12 6 -23 12t-21 12q-71 -20 -71 -80zM58 352q0 53 31 87t73 51v2q-20 20 -28.5 45t-8.5 58q0 34 13.5 63t38 50t59 32.5t76.5 11.5
q88 0 132.5 -44.5t49.5 -118.5h-88q-2 19 -7.5 36.5t-16.5 30t-28.5 20t-43.5 7.5q-51 0 -73.5 -25t-22.5 -58q0 -38 18 -57t46 -33l124 -61q39 -20 65 -39t41.5 -39t22.5 -42.5t7 -49.5q0 -55 -28.5 -87t-67.5 -50v-2q35 -35 35 -97q0 -72 -50 -114.5t-147 -42.5
q-94 0 -143.5 49t-53.5 130h90q6 -52 29.5 -80t79.5 -28q59 0 82.5 23t23.5 58q0 18 -4 30.5t-13 22t-23 18t-33 18.5l-120 60q-32 16 -57.5 32t-43 35.5t-27 43t-9.5 54.5z" />
    <glyph glyph-name="dieresis" unicode="&#xa8;" horiz-adv-x="369" 
d="M236 745h92v-99h-92v99zM40 745h92v-99h-92v99z" />
    <glyph glyph-name="copyright" unicode="&#xa9;" horiz-adv-x="899" 
d="M55 380q0 84 30 156.5t82.5 126t124.5 84t157 30.5t157 -30.5t125 -84t83 -126t30 -156.5t-30 -156.5t-83 -125.5t-125 -83.5t-157 -30.5t-157 30.5t-124.5 83.5t-82.5 125.5t-30 156.5zM449 41q71 0 131.5 26t104.5 71.5t69 107.5t25 134t-25 134t-69 108t-104.5 72
t-131.5 26t-131 -26t-104 -72t-69 -108t-25 -134t25 -134t69 -107.5t104 -71.5t131 -26zM623 314q-8 -69 -54.5 -105t-116.5 -36q-92 0 -139.5 56t-47.5 152q0 46 13 84.5t37 67t59 44.5t80 16q31 0 60.5 -7.5t52.5 -23.5t37.5 -41t17.5 -60h-75q-3 30 -25.5 54t-67.5 24
q-56 0 -84.5 -43t-28.5 -112t25 -112.5t87 -43.5q29 0 48 9t30.5 22.5t16 28t5.5 26.5h70z" />
    <glyph glyph-name="ordfeminine" unicode="&#xaa;" horiz-adv-x="465" 
d="M195 374q19 0 39.5 7t36.5 23t26.5 41.5t10.5 62.5v10q-65 -3 -103 -9t-57 -20q-23 -17 -23 -50q0 -32 19 -48.5t51 -16.5zM64 623q2 58 44.5 93t118.5 35q84 0 122.5 -37t38.5 -123v-165q0 -24 7.5 -35t30.5 -11v-64h-12q-51 0 -73.5 17.5t-28.5 55.5h-1
q-17 -35 -52 -56t-83 -21q-63 0 -98.5 32t-35.5 90q0 35 16 62t48 44q33 17 82.5 24.5t119.5 9.5v19q0 54 -20.5 76.5t-62.5 22.5q-44 0 -62.5 -21.5t-20.5 -47.5h-78z" />
    <glyph glyph-name="guillemotleft" unicode="&#xab;" horiz-adv-x="544" 
d="M464 464l-104 -206l105 -201h-84l-114 204l113 203h84zM258 464l-104 -206l106 -201h-85l-114 204l113 203h84z" />
    <glyph glyph-name="logicalnot" unicode="&#xac;" horiz-adv-x="630" 
d="M467 127v191h-382v79h463v-270h-81z" />
    <glyph glyph-name="registered" unicode="&#xae;" horiz-adv-x="513" 
d="M40 557q0 46 16.5 86t45 69.5t68 46.5t86.5 17t86.5 -17t68.5 -46.5t45.5 -69.5t16.5 -86t-16.5 -86t-45.5 -69t-68.5 -46t-86.5 -17t-86.5 17t-68 46t-45 69t-16.5 86zM256 377q37 0 68.5 13.5t55 37.5t36.5 57t13 72t-13 72t-36.5 57t-55 38t-68.5 14t-68.5 -14
t-54.5 -38t-36 -57t-13 -72t13 -72t36 -57t54.5 -37.5t68.5 -13.5zM259 578q17 0 27.5 8t10.5 26q0 31 -37 31h-38v-65h37zM222 452h-46v225h92q29 0 53 -15t24 -50q0 -32 -16 -45.5t-32 -17.5l51 -97h-52l-46 90h-28v-90z" />
    <glyph glyph-name="macron" unicode="&#xaf;" horiz-adv-x="369" 
d="M38 719h292v-73h-292v73z" />
    <glyph glyph-name="degree" unicode="&#xb0;" horiz-adv-x="445" 
d="M59 594q0 35 12 65t34 52t52 34.5t65 12.5q36 0 66 -12.5t51.5 -34.5t34 -52t12.5 -65t-12.5 -65t-34 -51.5t-51.5 -34t-66 -12.5q-35 0 -65 12.5t-52 34t-34 51.5t-12 65zM222 485q46 0 74 30.5t28 78.5t-28 79t-74 31q-45 0 -73 -31t-28 -79t28 -78.5t73 -30.5z" />
    <glyph glyph-name="plusminus" unicode="&#xb1;" horiz-adv-x="633" 
d="M356 157h-81v192h-189v77h189v191h81v-191h190v-77h-190v-192zM86 77h460v-77h-460v77z" />
    <glyph glyph-name="twosuperior" unicode="&#xb2;" horiz-adv-x="403" 
d="M34 675q1 69 44.5 107t115.5 38q40 0 68.5 -10t47 -26.5t27 -38t8.5 -45.5q0 -23 -6 -42t-18.5 -37t-32 -37t-46.5 -43l-105 -94v-1h216v-62h-323v50l155 144q40 35 60.5 61t20.5 57q0 29 -19.5 47t-54.5 18q-16 0 -30.5 -4.5t-26 -14.5t-18 -26.5t-6.5 -40.5h-77z" />
    <glyph glyph-name="threesuperior" unicode="&#xb3;" horiz-adv-x="413" 
d="M165 573v58h39q32 0 54 18.5t22 47.5q0 30 -22 47t-54 17q-77 0 -80 -72h-76q0 25 9.5 48.5t29 42t49 29.5t70.5 11q72 0 111 -33t39 -82q0 -34 -21 -59.5t-56 -37.5v-2q37 -8 63 -33.5t26 -72.5q0 -25 -10.5 -47.5t-31.5 -40t-51.5 -27.5t-70.5 -10q-43 0 -73.5 11
t-50 29.5t-29.5 42t-11 49.5h77q5 -37 30 -55t60 -18q36 0 61 19.5t25 50.5q0 33 -22.5 51t-63.5 18h-42z" />
    <glyph glyph-name="acute" unicode="&#xb4;" horiz-adv-x="369" 
d="M170 788h101l-87 -162h-67z" />
    <glyph glyph-name="paragraph" unicode="&#xb6;" horiz-adv-x="613" 
d="M509 765v-765h-79v765h79zM270 401q-44 1 -80 13t-62.5 34.5t-41 56.5t-14.5 79q0 48 15.5 82t43 56t64.5 32.5t80 10.5h74v-765h-79v401z" />
    <glyph glyph-name="periodcentered" unicode="&#xb7;" horiz-adv-x="238" 
d="M58 375h122v-122h-122v122z" />
    <glyph glyph-name="cedilla" unicode="&#xb8;" horiz-adv-x="536" 
d="M293 22l-43 -88h2q5 5 14 8t22 3q33 0 52 -20.5t19 -55.5q0 -31 -22.5 -56t-70.5 -25q-46 0 -64.5 20t-20.5 46h57q5 -22 30 -22q17 0 24.5 9.5t7.5 26.5q0 16 -7.5 26t-24.5 10t-27 -12h-54l62 130h44z" />
    <glyph glyph-name="onesuperior" unicode="&#xb9;" horiz-adv-x="283" 
d="M119 685h-89v50h11q43 0 66 20q21 19 22 60h64v-431h-74v301z" />
    <glyph glyph-name="ordmasculine" unicode="&#xba;" horiz-adv-x="470" 
d="M234 309q-94 0 -143 60.5t-49 160.5q0 49 13.5 90t38 70t60.5 45t81 16q48 0 84 -16t60 -45t36.5 -69.5t12.5 -90.5t-13.5 -90.5t-38.5 -69.5t-61 -45t-81 -16zM234 691q-55 0 -81.5 -43.5t-26.5 -117.5q0 -75 25.5 -117.5t84.5 -42.5q57 0 82.5 43t25.5 117
q0 75 -25.5 118t-84.5 43z" />
    <glyph glyph-name="guillemotright" unicode="&#xbb;" horiz-adv-x="544" 
d="M80 57l105 206l-106 201h85l113 -203l-112 -204h-85zM286 57l104 206l-105 201h84l114 -203l-113 -204h-84z" />
    <glyph glyph-name="onequarter" unicode="&#xbc;" horiz-adv-x="824" 
d="M119 635h-89v50h11q43 0 66 20q21 19 22 60h64v-431h-74v301zM656 158v199h-3q-3 -6 -7 -13q-4 -6 -9 -14t-12 -18l-115 -154h146zM726 99v-99h-73v99h-219v55l205 276h87v-271h58v-60h-58zM616 781h78l-547 -821h-78z" />
    <glyph glyph-name="onehalf" unicode="&#xbd;" horiz-adv-x="878" 
d="M119 635h-89v50h11q43 0 66 20q21 19 22 60h64v-431h-74v301zM509 291q1 69 44.5 107t115.5 38q40 0 68.5 -10t47 -26.5t27 -38t8.5 -45.5q0 -23 -6 -42t-18.5 -37t-32 -37t-46.5 -43l-105 -94v-1h216v-62h-323v50l155 144q40 35 60.5 61t20.5 57q0 29 -19.5 47t-54.5 18
q-16 0 -30.5 -4.5t-26 -14.5t-18 -26.5t-6.5 -40.5h-77zM616 781h78l-547 -821h-78z" />
    <glyph glyph-name="threequarters" unicode="&#xbe;" horiz-adv-x="909" 
d="M165 523v58h39q32 0 54 18.5t22 47.5q0 30 -22 47t-54 17q-77 0 -80 -72h-76q0 25 9.5 48.5t29 42t49 29.5t70.5 11q72 0 111 -33t39 -82q0 -34 -21 -59.5t-56 -37.5v-2q37 -8 63 -33.5t26 -72.5q0 -25 -10.5 -47.5t-31.5 -40t-51.5 -27.5t-70.5 -10q-43 0 -73.5 11
t-50 29.5t-29.5 42t-11 49.5h77q5 -37 30 -55t60 -18q36 0 61 19.5t25 50.5q0 33 -22.5 51t-63.5 18h-42zM741 158v199h-3q-3 -6 -7 -13q-4 -6 -9 -14t-12 -18l-115 -154h146zM811 99v-99h-73v99h-219v55l205 276h87v-271h58v-60h-58zM720 781h78l-547 -821h-78z" />
    <glyph glyph-name="questiondown" unicode="&#xbf;" horiz-adv-x="535" 
d="M124.025 79.0361q0 -56.9971 36.4971 -92.9941q36.498 -35.998 98.4941 -35.998q74.9951 0 115.993 45.9971q40.9971 45.9971 38.998 133.992h84.9941q2 -57.9971 -14.499 -105.494t-47.9971 -81.4951q-31.498 -33.9971 -76.4951 -52.4961t-98.9941 -18.499
q-58.9961 0 -101.494 17.499q-42.4971 17.499 -70.4951 45.4971t-40.998 63.9961q-12.999 35.998 -12.999 71.9951q0 38.998 9.5 68.9961q9.49902 29.998 24.998 53.4971q15.499 23.498 34.998 42.4971t39.4971 35.998l36.998 31.998q14.999 13.999 25.498 22.498
q10.5 8.5 16.499 17.499q6 9 9 19.999t3 28.998v48.9971h81.9951v-63.9961q0 -24.998 -4 -41.4971t-12.999 -29.498q-9 -13 -23.499 -25.499t-35.498 -30.498l-48.9971 -41.9971q-32.998 -26.999 -50.4961 -57.4971q-17.499 -30.498 -17.499 -72.4951zM336.012 669v-117.993
h-117.992v117.993h117.992z" />
    <glyph glyph-name="Agrave" unicode="&#xc0;" horiz-adv-x="736" 
d="M364 672q-1 -2 -3.5 -11t-7 -22.5t-9.5 -29.5t-11 -32l-95 -274h254l-96 274q-6 17 -11.5 34t-9.5 31q-5 16 -9 30h-2zM518 228h-306l-79 -228h-93l272 765h110l275 -765h-99zM403 827h-71l-94 133h105z" />
    <glyph glyph-name="Aacute" unicode="&#xc1;" horiz-adv-x="736" 
d="M364 672q-1 -2 -3.5 -11t-7 -22.5t-9.5 -29.5t-11 -32l-95 -274h254l-96 274q-6 17 -11.5 34t-9.5 31q-5 16 -9 30h-2zM518 228h-306l-79 -228h-93l272 765h110l275 -765h-99zM392 960h105l-94 -133h-71z" />
    <glyph glyph-name="Acircumflex" unicode="&#xc2;" horiz-adv-x="736" 
d="M364 672q-1 -2 -3.5 -11t-7 -22.5t-9.5 -29.5t-11 -32l-95 -274h254l-96 274q-6 17 -11.5 34t-9.5 31q-5 16 -9 30h-2zM518 228h-306l-79 -228h-93l272 765h110l275 -765h-99zM526 827h-83l-75 76h-1l-75 -76h-74l107 133h94z" />
    <glyph glyph-name="Atilde" unicode="&#xc3;" horiz-adv-x="736" 
d="M364 672q-1 -2 -3.5 -11t-7 -22.5t-9.5 -29.5t-11 -32l-95 -274h254l-96 274q-6 17 -11.5 34t-9.5 31q-5 16 -9 30h-2zM518 228h-306l-79 -228h-93l272 765h110l275 -765h-99zM191 827q0 26 6.5 50.5t19.5 43t33 30t46 11.5q25 0 46 -10t39 -21.5t33.5 -21.5t28.5 -10
q39 0 47 65h56q0 -26 -6.5 -50.5t-19.5 -43.5t-33 -30t-46 -11q-25 0 -45.5 9.5t-38.5 21.5t-33.5 21.5t-30.5 9.5q-38 0 -46 -64h-56z" />
    <glyph glyph-name="Adieresis" unicode="&#xc4;" horiz-adv-x="736" 
d="M364 672q-1 -2 -3.5 -11t-7 -22.5t-9.5 -29.5t-11 -32l-95 -274h254l-96 274q-6 17 -11.5 34t-9.5 31q-5 16 -9 30h-2zM518 228h-306l-79 -228h-93l272 765h110l275 -765h-99zM427 921h92v-99h-92v99zM211 921h92v-99h-92v99z" />
    <glyph glyph-name="Aring" unicode="&#xc5;" horiz-adv-x="736" 
d="M364 672q-1 -2 -3.5 -11t-7 -22.5t-9.5 -29.5t-11 -32l-95 -274h254l-96 274q-6 17 -11.5 34t-9.5 31q-5 16 -9 30h-2zM518 228h-306l-79 -228h-93l272 765h110l275 -765h-99zM367 809q-52 0 -80.5 29.5t-28.5 77.5t30.5 77.5t79.5 29.5q53 0 81 -29.5t28 -77.5
t-30 -77.5t-80 -29.5zM367 977q-23 0 -37.5 -17t-14.5 -44t14 -44t39 -17q23 0 37.5 17t14.5 44t-14 44t-39 17z" />
    <glyph glyph-name="AE" unicode="&#xc6;" horiz-adv-x="1081" 
d="M518 682h-80l-172 -379h252v379zM129 0h-96l352 765h612v-83h-386v-255h354v-81h-354v-263h391v-83h-484v228h-286z" />
    <glyph glyph-name="Ccedilla" unicode="&#xc7;" horiz-adv-x="769" 
d="M405 -212q-46 0 -64.5 20t-20.5 46h57q5 -22 30 -22q17 0 24.5 9.5t7.5 26.5q0 16 -7.5 26t-24.5 10t-27 -12h-54l45 95q-67 6 -123 33t-96 76t-62 120t-22 165q0 93 25.5 166.5t71 124.5t108 78t137.5 27q49 0 98.5 -13.5t91 -42.5t70 -74.5t34.5 -109.5h-98
q-5 29 -19 58.5t-38 53t-58.5 38t-80.5 14.5q-59 0 -104.5 -23t-76 -65t-46.5 -101t-16 -131q0 -74 16 -133.5t47 -101t76 -63.5t102 -22q51 0 87 15.5t60 41t37 57t17 64.5h95q-5 -54 -27 -100.5t-59.5 -80.5t-89 -53.5t-114.5 -19.5l-25 -51h2q5 5 14 8t22 3
q33 0 52 -20.5t19 -55.5q0 -31 -22.5 -56t-70.5 -25z" />
    <glyph glyph-name="Egrave" unicode="&#xc8;" horiz-adv-x="677" 
d="M104 765h489v-83h-396v-255h364v-81h-364v-263h401v-83h-494v765zM386 827h-71l-94 133h105z" />
    <glyph glyph-name="Eacute" unicode="&#xc9;" horiz-adv-x="677" 
d="M104 765h489v-83h-396v-255h364v-81h-364v-263h401v-83h-494v765zM377 960h105l-94 -133h-71z" />
    <glyph glyph-name="Ecircumflex" unicode="&#xca;" horiz-adv-x="677" 
d="M104 765h489v-83h-396v-255h364v-81h-364v-263h401v-83h-494v765zM509 827h-83l-75 76h-1l-75 -76h-74l107 133h94z" />
    <glyph glyph-name="Edieresis" unicode="&#xcb;" horiz-adv-x="677" 
d="M104 765h489v-83h-396v-255h364v-81h-364v-263h401v-83h-494v765zM413 921h92v-99h-92v99zM197 921h92v-99h-92v99z" />
    <glyph glyph-name="Igrave" unicode="&#xcc;" horiz-adv-x="302" 
d="M104 765h93v-765h-93v765zM185 827h-71l-94 133h105z" />
    <glyph glyph-name="Iacute" unicode="&#xcd;" horiz-adv-x="302" 
d="M104 765h93v-765h-93v765zM174 960h105l-94 -133h-71z" />
    <glyph glyph-name="Icircumflex" unicode="&#xce;" horiz-adv-x="302" 
d="M104 765h93v-765h-93v765zM308 827h-83l-75 76h-1l-75 -76h-74l107 133h94z" />
    <glyph glyph-name="Idieresis" unicode="&#xcf;" horiz-adv-x="302" 
d="M104 765h93v-765h-93v765zM212 921h92v-99h-92v99zM-4 921h92v-99h-92v99z" />
    <glyph glyph-name="Eth" unicode="&#xd0;" horiz-adv-x="791" 
d="M119 0v348h-85v78h85v339h235q78 0 146 -20t117.5 -64.5t78 -115.5t28.5 -173q0 -101 -26.5 -175t-74.5 -122t-114 -71.5t-144 -23.5h-246zM354 80q61 0 111 16.5t86 53.5t56 96t20 143q0 80 -20 136.5t-55.5 92t-84.5 51.5t-107 16h-148v-259h217v-78h-217v-268h142z
" />
    <glyph glyph-name="Ntilde" unicode="&#xd1;" horiz-adv-x="795" 
d="M104 765h119l340 -569q10 -16 17 -29.5t12 -23.5q5 -12 10 -22h3v644h88v-765h-119l-339 568q-11 19 -18.5 33t-12.5 23l-9 18h-2v-642h-89v765zM220 827q0 26 6.5 50.5t19.5 43t33 30t46 11.5q25 0 46 -10t39 -21.5t33.5 -21.5t28.5 -10q39 0 47 65h56q0 -26 -6.5 -50.5
t-19.5 -43.5t-33 -30t-46 -11q-25 0 -45.5 9.5t-38.5 21.5t-33.5 21.5t-30.5 9.5q-38 0 -46 -64h-56z" />
    <glyph glyph-name="Ograve" unicode="&#xd2;" horiz-adv-x="823" 
d="M68 380q0 103 28 177.5t75 123t109 72t130 23.5q70 0 132.5 -23.5t109.5 -72t75 -123t28 -177.5q0 -102 -27.5 -177t-75 -123.5t-110 -72t-132.5 -23.5q-71 0 -133 23.5t-108.5 72t-73.5 123.5t-27 177zM410 59q54 0 99.5 21t78 61.5t51 100.5t18.5 137q0 79 -18 139
t-50.5 101t-78 62t-100.5 21q-54 0 -98.5 -20t-77 -60.5t-50.5 -101t-18 -141.5q0 -78 17.5 -138t49.5 -100.5t77 -61t100 -20.5zM444 827h-71l-94 133h105z" />
    <glyph glyph-name="Oacute" unicode="&#xd3;" horiz-adv-x="823" 
d="M68 380q0 103 28 177.5t75 123t109 72t130 23.5q70 0 132.5 -23.5t109.5 -72t75 -123t28 -177.5q0 -102 -27.5 -177t-75 -123.5t-110 -72t-132.5 -23.5q-71 0 -133 23.5t-108.5 72t-73.5 123.5t-27 177zM410 59q54 0 99.5 21t78 61.5t51 100.5t18.5 137q0 79 -18 139
t-50.5 101t-78 62t-100.5 21q-54 0 -98.5 -20t-77 -60.5t-50.5 -101t-18 -141.5q0 -78 17.5 -138t49.5 -100.5t77 -61t100 -20.5zM430 960h105l-94 -133h-71z" />
    <glyph glyph-name="Ocircumflex" unicode="&#xd4;" horiz-adv-x="823" 
d="M68 380q0 103 28 177.5t75 123t109 72t130 23.5q70 0 132.5 -23.5t109.5 -72t75 -123t28 -177.5q0 -102 -27.5 -177t-75 -123.5t-110 -72t-132.5 -23.5q-71 0 -133 23.5t-108.5 72t-73.5 123.5t-27 177zM410 59q54 0 99.5 21t78 61.5t51 100.5t18.5 137q0 79 -18 139
t-50.5 101t-78 62t-100.5 21q-54 0 -98.5 -20t-77 -60.5t-50.5 -101t-18 -141.5q0 -78 17.5 -138t49.5 -100.5t77 -61t100 -20.5zM565 827h-83l-75 76h-1l-75 -76h-74l107 133h94z" />
    <glyph glyph-name="Otilde" unicode="&#xd5;" horiz-adv-x="823" 
d="M68 380q0 103 28 177.5t75 123t109 72t130 23.5q70 0 132.5 -23.5t109.5 -72t75 -123t28 -177.5q0 -102 -27.5 -177t-75 -123.5t-110 -72t-132.5 -23.5q-71 0 -133 23.5t-108.5 72t-73.5 123.5t-27 177zM410 59q54 0 99.5 21t78 61.5t51 100.5t18.5 137q0 79 -18 139
t-50.5 101t-78 62t-100.5 21q-54 0 -98.5 -20t-77 -60.5t-50.5 -101t-18 -141.5q0 -78 17.5 -138t49.5 -100.5t77 -61t100 -20.5zM234 827q0 26 6.5 50.5t19.5 43t33 30t46 11.5q25 0 46 -10t39 -21.5t33.5 -21.5t28.5 -10q39 0 47 65h56q0 -26 -6.5 -50.5t-19.5 -43.5
t-33 -30t-46 -11q-25 0 -45.5 9.5t-38.5 21.5t-33.5 21.5t-30.5 9.5q-38 0 -46 -64h-56z" />
    <glyph glyph-name="Odieresis" unicode="&#xd6;" horiz-adv-x="823" 
d="M68 380q0 103 28 177.5t75 123t109 72t130 23.5q70 0 132.5 -23.5t109.5 -72t75 -123t28 -177.5q0 -102 -27.5 -177t-75 -123.5t-110 -72t-132.5 -23.5q-71 0 -133 23.5t-108.5 72t-73.5 123.5t-27 177zM410 59q54 0 99.5 21t78 61.5t51 100.5t18.5 137q0 79 -18 139
t-50.5 101t-78 62t-100.5 21q-54 0 -98.5 -20t-77 -60.5t-50.5 -101t-18 -141.5q0 -78 17.5 -138t49.5 -100.5t77 -61t100 -20.5zM471 921h92v-99h-92v99zM255 921h92v-99h-92v99z" />
    <glyph glyph-name="multiply" unicode="&#xd7;" horiz-adv-x="631" 
d="M90 177l171 169l-170 168l57 57l169 -170l169 172l55 -55l-172 -170l171 -169l-57 -57l-169 171l-169 -171z" />
    <glyph glyph-name="Oslash" unicode="&#xd8;" horiz-adv-x="823" 
d="M410 702q-54 0 -98.5 -20t-77 -60.5t-50.5 -101t-18 -141.5q0 -118 35 -193l360 467q-59 49 -151 49zM410 59q54 0 99.5 21t78 61.5t51 100.5t18.5 137q0 72 -13 126.5t-37 94.5l-366 -475q31 -33 73.5 -49.5t95.5 -16.5zM755 380q0 -102 -27.5 -177t-75 -123.5t-110 -72
t-132.5 -23.5q-63 0 -119 18.5t-101 56.5l-65 -84h-87l105 136q-35 48 -55 114.5t-20 154.5q0 103 28 177.5t75 123t109 72t130 23.5q56 0 106.5 -14.5t93.5 -44.5l59 76h87l-94 -122q43 -49 68 -121t25 -170z" />
    <glyph glyph-name="Ugrave" unicode="&#xd9;" horiz-adv-x="764" 
d="M92 765h93v-440q0 -26 0.5 -54t4.5 -54t12 -49.5t22 -41.5q27 -34 67 -49.5t93 -15.5t93.5 15.5t66.5 49.5q14 18 21.5 41.5t10.5 49.5t3.5 54t0.5 54v440h92v-510q0 -72 -21 -123t-59 -84t-91.5 -48t-118.5 -15q-66 0 -119.5 15t-91.5 47.5t-58.5 83.5t-20.5 124v510z
M417 827h-71l-94 133h105z" />
    <glyph glyph-name="Uacute" unicode="&#xda;" horiz-adv-x="764" 
d="M92 765h93v-440q0 -26 0.5 -54t4.5 -54t12 -49.5t22 -41.5q27 -34 67 -49.5t93 -15.5t93.5 15.5t66.5 49.5q14 18 21.5 41.5t10.5 49.5t3.5 54t0.5 54v440h92v-510q0 -72 -21 -123t-59 -84t-91.5 -48t-118.5 -15q-66 0 -119.5 15t-91.5 47.5t-58.5 83.5t-20.5 124v510z
M406 960h105l-94 -133h-71z" />
    <glyph glyph-name="Ucircumflex" unicode="&#xdb;" horiz-adv-x="764" 
d="M92 765h93v-440q0 -26 0.5 -54t4.5 -54t12 -49.5t22 -41.5q27 -34 67 -49.5t93 -15.5t93.5 15.5t66.5 49.5q14 18 21.5 41.5t10.5 49.5t3.5 54t0.5 54v440h92v-510q0 -72 -21 -123t-59 -84t-91.5 -48t-118.5 -15q-66 0 -119.5 15t-91.5 47.5t-58.5 83.5t-20.5 124v510z
M540 827h-83l-75 76h-1l-75 -76h-74l107 133h94z" />
    <glyph glyph-name="Udieresis" unicode="&#xdc;" horiz-adv-x="764" 
d="M92 765h93v-440q0 -26 0.5 -54t4.5 -54t12 -49.5t22 -41.5q27 -34 67 -49.5t93 -15.5t93.5 15.5t66.5 49.5q14 18 21.5 41.5t10.5 49.5t3.5 54t0.5 54v440h92v-510q0 -72 -21 -123t-59 -84t-91.5 -48t-118.5 -15q-66 0 -119.5 15t-91.5 47.5t-58.5 83.5t-20.5 124v510z
M441 921h92v-99h-92v99zM225 921h92v-99h-92v99z" />
    <glyph glyph-name="Yacute" unicode="&#xdd;" horiz-adv-x="653" 
d="M281 327l-270 438h108l207 -353h2l215 353h99l-269 -432v-333h-92v327zM350 960h105l-94 -133h-71z" />
    <glyph glyph-name="Thorn" unicode="&#xde;" horiz-adv-x="639" 
d="M197 172v-172h-93v765h93v-160h147q53 0 99.5 -12.5t80.5 -39t53.5 -67t19.5 -96.5t-19.5 -97t-54.5 -68t-82.5 -40t-104.5 -13h-139zM342 247q78 2 118.5 36.5t40.5 106.5q0 77 -42 108.5t-120 31.5h-142v-283h145z" />
    <glyph glyph-name="germandbls" unicode="&#xdf;" horiz-adv-x="607" 
d="M94 565q0 58 16.5 99.5t45.5 68.5t67.5 39.5t82.5 12.5q48 0 87 -12.5t67.5 -37t44 -60.5t15.5 -82q0 -63 -29 -107t-83 -63v-2q32 -6 59.5 -20.5t48 -38.5t32 -58t11.5 -79q0 -109 -67.5 -167t-182.5 -58h-37v77h39q34 0 63 8.5t50 26.5t32.5 46t11.5 67
q0 69 -40.5 110.5t-116.5 41.5h-22v77h20q56 0 88 34.5t32 97.5t-34.5 94t-88.5 31q-25 0 -47 -7.5t-38.5 -25.5t-26.5 -47t-10 -71v-560h-90v565z" />
    <glyph glyph-name="agrave" unicode="&#xe0;" horiz-adv-x="553" 
d="M230 64q25 0 51.5 9t48.5 29.5t36 54t14 82.5v12q-86 -4 -136.5 -12t-76.5 -27q-29 -22 -29 -65q0 -41 24.5 -62t67.5 -21zM74 383q2 70 53 113.5t146 43.5q99 0 147 -45t48 -151v-215q0 -32 9.5 -45.5t38.5 -14.5v-73h-11q-63 0 -88.5 23t-32.5 70h-2
q-21 -47 -65.5 -72.5t-103.5 -25.5q-79 0 -123 40t-44 111q0 44 19 78.5t60 54.5q42 22 104 31t151 12v23q0 72 -27 102t-83 30q-29 0 -49.5 -7.5t-33.5 -20.5t-19.5 -29t-7.5 -33h-86zM303 626h-66l-88 162h101z" />
    <glyph glyph-name="aacute" unicode="&#xe1;" horiz-adv-x="553" 
d="M230 64q25 0 51.5 9t48.5 29.5t36 54t14 82.5v12q-86 -4 -136.5 -12t-76.5 -27q-29 -22 -29 -65q0 -41 24.5 -62t67.5 -21zM74 383q2 70 53 113.5t146 43.5q99 0 147 -45t48 -151v-215q0 -32 9.5 -45.5t38.5 -14.5v-73h-11q-63 0 -88.5 23t-32.5 70h-2
q-21 -47 -65.5 -72.5t-103.5 -25.5q-79 0 -123 40t-44 111q0 44 19 78.5t60 54.5q42 22 104 31t151 12v23q0 72 -27 102t-83 30q-29 0 -49.5 -7.5t-33.5 -20.5t-19.5 -29t-7.5 -33h-86zM292 788h101l-87 -162h-67z" />
    <glyph glyph-name="acircumflex" unicode="&#xe2;" horiz-adv-x="553" 
d="M230 64q25 0 51.5 9t48.5 29.5t36 54t14 82.5v12q-86 -4 -136.5 -12t-76.5 -27q-29 -22 -29 -65q0 -41 24.5 -62t67.5 -21zM74 383q2 70 53 113.5t146 43.5q99 0 147 -45t48 -151v-215q0 -32 9.5 -45.5t38.5 -14.5v-73h-11q-63 0 -88.5 23t-32.5 70h-2
q-21 -47 -65.5 -72.5t-103.5 -25.5q-79 0 -123 40t-44 111q0 44 19 78.5t60 54.5q42 22 104 31t151 12v23q0 72 -27 102t-83 30q-29 0 -49.5 -7.5t-33.5 -20.5t-19.5 -29t-7.5 -33h-86zM430 626h-80l-78 101h-1l-78 -101h-71l107 162h94z" />
    <glyph glyph-name="atilde" unicode="&#xe3;" horiz-adv-x="553" 
d="M230 64q25 0 51.5 9t48.5 29.5t36 54t14 82.5v12q-86 -4 -136.5 -12t-76.5 -27q-29 -22 -29 -65q0 -41 24.5 -62t67.5 -21zM74 383q2 70 53 113.5t146 43.5q99 0 147 -45t48 -151v-215q0 -32 9.5 -45.5t38.5 -14.5v-73h-11q-63 0 -88.5 23t-32.5 70h-2
q-21 -47 -65.5 -72.5t-103.5 -25.5q-79 0 -123 40t-44 111q0 44 19 78.5t60 54.5q42 22 104 31t151 12v23q0 72 -27 102t-83 30q-29 0 -49.5 -7.5t-33.5 -20.5t-19.5 -29t-7.5 -33h-86zM99 624q0 26 6.5 50.5t19.5 43t33 30t46 11.5q25 0 46 -10t39 -21.5t33.5 -21.5
t28.5 -10q39 0 47 65h56q0 -26 -6.5 -50.5t-19.5 -43.5t-33 -30t-46 -11q-25 0 -45.5 9.5t-38.5 21.5t-33.5 21.5t-30.5 9.5q-38 0 -46 -64h-56z" />
    <glyph glyph-name="adieresis" unicode="&#xe4;" horiz-adv-x="553" 
d="M230 64q25 0 51.5 9t48.5 29.5t36 54t14 82.5v12q-86 -4 -136.5 -12t-76.5 -27q-29 -22 -29 -65q0 -41 24.5 -62t67.5 -21zM74 383q2 70 53 113.5t146 43.5q99 0 147 -45t48 -151v-215q0 -32 9.5 -45.5t38.5 -14.5v-73h-11q-63 0 -88.5 23t-32.5 70h-2
q-21 -47 -65.5 -72.5t-103.5 -25.5q-79 0 -123 40t-44 111q0 44 19 78.5t60 54.5q42 22 104 31t151 12v23q0 72 -27 102t-83 30q-29 0 -49.5 -7.5t-33.5 -20.5t-19.5 -29t-7.5 -33h-86zM328 745h92v-99h-92v99zM132 745h92v-99h-92v99z" />
    <glyph glyph-name="aring" unicode="&#xe5;" horiz-adv-x="553" 
d="M230 64q25 0 51.5 9t48.5 29.5t36 54t14 82.5v12q-86 -4 -136.5 -12t-76.5 -27q-29 -22 -29 -65q0 -41 24.5 -62t67.5 -21zM74 383q2 70 53 113.5t146 43.5q99 0 147 -45t48 -151v-215q0 -32 9.5 -45.5t38.5 -14.5v-73h-11q-63 0 -88.5 23t-32.5 70h-2
q-21 -47 -65.5 -72.5t-103.5 -25.5q-79 0 -123 40t-44 111q0 44 19 78.5t60 54.5q42 22 104 31t151 12v23q0 72 -27 102t-83 30q-29 0 -49.5 -7.5t-33.5 -20.5t-19.5 -29t-7.5 -33h-86zM281 624q-52 0 -80.5 29.5t-28.5 77.5t30.5 77.5t79.5 29.5q53 0 81 -29.5t28 -77.5
t-30 -77.5t-80 -29.5zM281 792q-23 0 -37.5 -17t-14.5 -44t14 -44t39 -17q23 0 37.5 17t14.5 44t-14 44t-39 17z" />
    <glyph glyph-name="ae" unicode="&#xe6;" horiz-adv-x="875" 
d="M735 316q-1 33 -8 61.5t-22.5 50t-40 33.5t-58.5 12q-33 0 -58 -13t-42.5 -35t-28 -51.5t-13.5 -63.5h271v6zM230 64q26 0 53 10t49 31.5t36 54.5t14 79v8q-86 -1 -137.5 -8.5t-77.5 -26.5q-29 -22 -29 -65q0 -41 24.5 -62t67.5 -21zM820 138q-14 -69 -69.5 -110
t-140.5 -41q-80 0 -129 34.5t-68 83.5h-3q-13 -23 -31 -44t-42 -36.5t-55 -24.5t-69 -9q-79 0 -123 40t-44 111q0 44 19 78.5t60 54.5q42 22 105 29.5t152 7.5v29q0 68 -28 100t-84 32q-29 0 -49.5 -7.5t-33.5 -20.5t-19.5 -29t-7.5 -33h-86q2 70 52.5 113.5t152.5 43.5
q68 0 104 -24t55 -65h3q23 40 64.5 64.5t104.5 24.5q59 0 100.5 -21.5t67.5 -57t37.5 -81.5t11.5 -95v-46h-364q5 -87 40.5 -135t109.5 -48q33 0 54.5 8.5t35 21t20.5 26.5t10 26h87z" />
    <glyph glyph-name="ccedilla" unicode="&#xe7;" horiz-adv-x="536" 
d="M282 -212q-46 0 -64.5 20t-20.5 46h57q5 -22 30 -22q17 0 24.5 9.5t7.5 26.5q0 16 -7.5 26t-24.5 10t-27 -12h-54l47 98q-100 10 -151.5 82t-51.5 189q0 60 16 111.5t46.5 88.5t74 58t99.5 21q39 0 75.5 -9.5t65 -30t47 -53.5t21.5 -79h-88q-2 20 -10.5 38.5t-23.5 33
t-36.5 23t-49.5 8.5q-36 0 -63 -15t-45 -42t-27.5 -65t-9.5 -84t7.5 -84t24.5 -65.5t44 -42.5t67 -15q37 0 61.5 12t39 30t21 37.5t7.5 34.5h84q-10 -89 -65.5 -135t-137.5 -49l-26 -54h2q5 5 14 8t22 3q33 0 52 -20.5t19 -55.5q0 -31 -22.5 -56t-70.5 -25z" />
    <glyph glyph-name="egrave" unicode="&#xe8;" horiz-adv-x="550" 
d="M410 316q-1 33 -8 61.5t-22.5 49.5t-40 33t-58.5 12q-63 0 -98 -45t-43 -117h270v6zM495 138q-14 -69 -69.5 -110t-140.5 -41q-60 0 -105 20.5t-74.5 57.5t-44 87t-14.5 109q0 58 15.5 109t45.5 89t73.5 59.5t100.5 21.5q59 0 101 -21t68.5 -56.5t38.5 -81.5t12 -96v-46
h-363q4 -82 39.5 -132.5t109.5 -50.5q33 0 54.5 8.5t35 21t20.5 26.5t10 26h87zM319 626h-66l-88 162h101z" />
    <glyph glyph-name="eacute" unicode="&#xe9;" horiz-adv-x="550" 
d="M410 316q-1 33 -8 61.5t-22.5 49.5t-40 33t-58.5 12q-63 0 -98 -45t-43 -117h270v6zM495 138q-14 -69 -69.5 -110t-140.5 -41q-60 0 -105 20.5t-74.5 57.5t-44 87t-14.5 109q0 58 15.5 109t45.5 89t73.5 59.5t100.5 21.5q59 0 101 -21t68.5 -56.5t38.5 -81.5t12 -96v-46
h-363q4 -82 39.5 -132.5t109.5 -50.5q33 0 54.5 8.5t35 21t20.5 26.5t10 26h87zM302 788h101l-87 -162h-67z" />
    <glyph glyph-name="ecircumflex" unicode="&#xea;" horiz-adv-x="550" 
d="M410 316q-1 33 -8 61.5t-22.5 49.5t-40 33t-58.5 12q-63 0 -98 -45t-43 -117h270v6zM495 138q-14 -69 -69.5 -110t-140.5 -41q-60 0 -105 20.5t-74.5 57.5t-44 87t-14.5 109q0 58 15.5 109t45.5 89t73.5 59.5t100.5 21.5q59 0 101 -21t68.5 -56.5t38.5 -81.5t12 -96v-46
h-363q4 -82 39.5 -132.5t109.5 -50.5q33 0 54.5 8.5t35 21t20.5 26.5t10 26h87zM442 626h-80l-78 101h-1l-78 -101h-71l107 162h94z" />
    <glyph glyph-name="edieresis" unicode="&#xeb;" horiz-adv-x="550" 
d="M410 316q-1 33 -8 61.5t-22.5 49.5t-40 33t-58.5 12q-63 0 -98 -45t-43 -117h270v6zM495 138q-14 -69 -69.5 -110t-140.5 -41q-60 0 -105 20.5t-74.5 57.5t-44 87t-14.5 109q0 58 15.5 109t45.5 89t73.5 59.5t100.5 21.5q59 0 101 -21t68.5 -56.5t38.5 -81.5t12 -96v-46
h-363q4 -82 39.5 -132.5t109.5 -50.5q33 0 54.5 8.5t35 21t20.5 26.5t10 26h87zM336 745h92v-99h-92v99zM140 745h92v-99h-92v99z" />
    <glyph glyph-name="igrave" unicode="&#xec;" horiz-adv-x="279" 
d="M94 527h91v-527h-91v527zM174 626h-66l-88 162h101z" />
    <glyph glyph-name="iacute" unicode="&#xed;" horiz-adv-x="279" 
d="M94 527h91v-527h-91v527zM157 788h101l-87 -162h-67z" />
    <glyph glyph-name="icircumflex" unicode="&#xee;" horiz-adv-x="279" 
d="M94 527h91v-527h-91v527zM278.108 626h-72.002l-70.2021 101h-0.900391l-70.2012 -101h-63.9023l96.3027 162h84.6025z" />
    <glyph glyph-name="idieresis" unicode="&#xef;" horiz-adv-x="279" 
d="M94 527h91v-527h-91v527zM186.406 745h82.8018v-99h-82.8018v99zM10.001 745h82.8018v-99h-82.8018v99z" />
    <glyph glyph-name="eth" unicode="&#xf0;" horiz-adv-x="569" 
d="M282 -13q-57 0 -101 20t-74 56.5t-45 87.5t-15 113q0 61 16.5 111.5t46 87t70 56.5t89.5 20q38 0 66 -11.5t48 -33.5h2q-19 40 -46 76.5t-61 71.5l-143 -51l-18 53l114 41q-23 20 -48.5 39.5t-51.5 38.5l76 29q27 -17 54 -35.5t53 -41.5l113 40l18 -53l-85 -31
q33 -35 62 -76.5t50.5 -90t34 -105t12.5 -120.5q0 -143 -61.5 -217.5t-175.5 -74.5zM286 471q-75 0 -110.5 -55t-35.5 -152t34 -152t111 -55q74 0 107.5 55t33.5 152q0 105 -33 156t-107 51z" />
    <glyph glyph-name="ntilde" unicode="&#xf1;" horiz-adv-x="608" 
d="M429 325q0 29 -2.5 57.5t-16.5 47.5t-35.5 27t-47.5 8q-37 0 -64 -11t-44.5 -31t-26 -47.5t-8.5 -59.5v-316h-90v527h85v-89h2q9 20 25 38.5t38 32.5t48.5 22.5t58.5 8.5q38 0 69 -9.5t53 -30t34 -53.5t12 -80v-367h-90v325zM129 622q0 26 6.5 50.5t19.5 43t33 30
t46 11.5q25 0 46 -10t39 -21.5t33.5 -21.5t28.5 -10q39 0 47 65h56q0 -26 -6.5 -50.5t-19.5 -43.5t-33 -30t-46 -11q-25 0 -45.5 9.5t-38.5 21.5t-33.5 21.5t-30.5 9.5q-38 0 -46 -64h-56z" />
    <glyph glyph-name="ograve" unicode="&#xf2;" horiz-adv-x="567" 
d="M282 -13q-58 0 -102 20t-73.5 56.5t-44.5 87.5t-15 113q0 61 16.5 112t47 87.5t74.5 56.5t99 20q59 0 103 -20t73.5 -56.5t44 -87.5t14.5 -112q0 -62 -16 -113t-47 -87.5t-75 -56.5t-99 -20zM283 471q-72 0 -107.5 -55t-35.5 -152t34 -152t111 -55q74 0 107.5 55
t33.5 152t-33.5 152t-109.5 55zM318 626h-66l-88 162h101z" />
    <glyph glyph-name="oacute" unicode="&#xf3;" horiz-adv-x="567" 
d="M282 -13q-58 0 -102 20t-73.5 56.5t-44.5 87.5t-15 113q0 61 16.5 112t47 87.5t74.5 56.5t99 20q59 0 103 -20t73.5 -56.5t44 -87.5t14.5 -112q0 -62 -16 -113t-47 -87.5t-75 -56.5t-99 -20zM283 471q-72 0 -107.5 -55t-35.5 -152t34 -152t111 -55q74 0 107.5 55
t33.5 152t-33.5 152t-109.5 55zM301 788h101l-87 -162h-67z" />
    <glyph glyph-name="ocircumflex" unicode="&#xf4;" horiz-adv-x="567" 
d="M282 -13q-58 0 -102 20t-73.5 56.5t-44.5 87.5t-15 113q0 61 16.5 112t47 87.5t74.5 56.5t99 20q59 0 103 -20t73.5 -56.5t44 -87.5t14.5 -112q0 -62 -16 -113t-47 -87.5t-75 -56.5t-99 -20zM283 471q-72 0 -107.5 -55t-35.5 -152t34 -152t111 -55q74 0 107.5 55
t33.5 152t-33.5 152t-109.5 55zM441 626h-80l-78 101h-1l-78 -101h-71l107 162h94z" />
    <glyph glyph-name="otilde" unicode="&#xf5;" horiz-adv-x="567" 
d="M282 -13q-58 0 -102 20t-73.5 56.5t-44.5 87.5t-15 113q0 61 16.5 112t47 87.5t74.5 56.5t99 20q59 0 103 -20t73.5 -56.5t44 -87.5t14.5 -112q0 -62 -16 -113t-47 -87.5t-75 -56.5t-99 -20zM283 471q-72 0 -107.5 -55t-35.5 -152t34 -152t111 -55q74 0 107.5 55
t33.5 152t-33.5 152t-109.5 55zM106 624q0 26 6.5 50.5t19.5 43t33 30t46 11.5q25 0 46 -10t39 -21.5t33.5 -21.5t28.5 -10q39 0 47 65h56q0 -26 -6.5 -50.5t-19.5 -43.5t-33 -30t-46 -11q-25 0 -45.5 9.5t-38.5 21.5t-33.5 21.5t-30.5 9.5q-38 0 -46 -64h-56z" />
    <glyph glyph-name="odieresis" unicode="&#xf6;" horiz-adv-x="567" 
d="M282 -13q-58 0 -102 20t-73.5 56.5t-44.5 87.5t-15 113q0 61 16.5 112t47 87.5t74.5 56.5t99 20q59 0 103 -20t73.5 -56.5t44 -87.5t14.5 -112q0 -62 -16 -113t-47 -87.5t-75 -56.5t-99 -20zM283 471q-72 0 -107.5 -55t-35.5 -152t34 -152t111 -55q74 0 107.5 55
t33.5 152t-33.5 152t-109.5 55zM335 745h92v-99h-92v99zM139 745h92v-99h-92v99z" />
    <glyph glyph-name="divide" unicode="&#xf7;" horiz-adv-x="633" 
d="M268 595h95v-97h-95v97zM86 396h460v-77h-460v77zM268 120v97h95v-97h-95z" />
    <glyph glyph-name="oslash" unicode="&#xf8;" horiz-adv-x="567" 
d="M283 471q-72 0 -107.5 -55t-35.5 -152q0 -36 3 -66t11 -53l227 293q-33 33 -98 33zM285 57q74 0 107.5 55t33.5 152q0 72 -13 117l-227 -292q35 -32 99 -32zM519 264q0 -62 -16 -113t-47 -87.5t-75 -56.5t-99 -20q-86 0 -141 43l-45 -57h-75l78 100q-26 36 -39 84.5
t-13 106.5q0 61 16.5 112t47 87.5t74.5 56.5t99 20q44 0 79.5 -11.5t62.5 -32.5l42 54h76l-76 -97q26 -36 38.5 -84t12.5 -105z" />
    <glyph glyph-name="ugrave" unicode="&#xf9;" horiz-adv-x="608" 
d="M181 203q0 -29 2.5 -58.5t16.5 -48.5q26 -35 81 -35q74 0 109 46.5t35 134.5v285h90v-527h-86v90h-2q-9 -20 -24.5 -39t-36.5 -33t-47.5 -22.5t-57.5 -8.5q-76 0 -122.5 40t-46.5 133v367h89v-324zM338 626h-66l-88 162h101z" />
    <glyph glyph-name="uacute" unicode="&#xfa;" horiz-adv-x="608" 
d="M181 203q0 -29 2.5 -58.5t16.5 -48.5q26 -35 81 -35q74 0 109 46.5t35 134.5v285h90v-527h-86v90h-2q-9 -20 -24.5 -39t-36.5 -33t-47.5 -22.5t-57.5 -8.5q-76 0 -122.5 40t-46.5 133v367h89v-324zM321 788h101l-87 -162h-67z" />
    <glyph glyph-name="ucircumflex" unicode="&#xfb;" horiz-adv-x="608" 
d="M181 203q0 -29 2.5 -58.5t16.5 -48.5q26 -35 81 -35q74 0 109 46.5t35 134.5v285h90v-527h-86v90h-2q-9 -20 -24.5 -39t-36.5 -33t-47.5 -22.5t-57.5 -8.5q-76 0 -122.5 40t-46.5 133v367h89v-324zM461 626h-80l-78 101h-1l-78 -101h-71l107 162h94z" />
    <glyph glyph-name="udieresis" unicode="&#xfc;" horiz-adv-x="608" 
d="M181 203q0 -29 2.5 -58.5t16.5 -48.5q26 -35 81 -35q74 0 109 46.5t35 134.5v285h90v-527h-86v90h-2q-9 -20 -24.5 -39t-36.5 -33t-47.5 -22.5t-57.5 -8.5q-76 0 -122.5 40t-46.5 133v367h89v-324zM355 745h92v-99h-92v99zM159 745h92v-99h-92v99z" />
    <glyph glyph-name="yacute" unicode="&#xfd;" horiz-adv-x="520" 
d="M38 527h90l110 -330q6 -19 11 -34t8 -26q4 -12 7 -22h3q3 10 7 22q3 11 7.5 26t11.5 35l108 329h90l-192 -560q-16 -45 -31.5 -77t-37 -51.5t-50.5 -28.5t-72 -9q-15 0 -29 2t-25 4v74q13 -3 26 -4t20 -1q25 0 42.5 5t30 16.5t21.5 29.5t18 45l10 28zM282 788h101
l-87 -162h-67z" />
    <glyph glyph-name="thorn" unicode="&#xfe;" horiz-adv-x="611" 
d="M181 244q0 -39 9.5 -73t28.5 -59t47 -39.5t66 -14.5q71 0 105.5 54.5t34.5 158.5q0 42 -7 78t-23 62.5t-43.5 41.5t-67.5 15q-36 0 -63.5 -13.5t-47 -37t-29.5 -54t-10 -63.5v-56zM94 788h90v-348h1q22 43 64 71.5t102 28.5q42 0 80.5 -14t67.5 -45.5t46.5 -83
t17.5 -126.5q0 -72 -17 -125.5t-46.5 -88.5t-69 -52.5t-84.5 -17.5q-29 0 -55 7.5t-47 20t-36 28.5t-22 34h-2v-265h-90v976z" />
    <glyph glyph-name="ydieresis" unicode="&#xff;" horiz-adv-x="520" 
d="M38 527h90l110 -330q6 -19 11 -34t8 -26q4 -12 7 -22h3q3 10 7 22q3 11 7.5 26t11.5 35l108 329h90l-192 -560q-16 -45 -31.5 -77t-37 -51.5t-50.5 -28.5t-72 -9q-15 0 -29 2t-25 4v74q13 -3 26 -4t20 -1q25 0 42.5 5t30 16.5t21.5 29.5t18 45l10 28zM316 745h92v-99h-92
v99zM120 745h92v-99h-92v99z" />
    <glyph glyph-name="Amacron" unicode="&#x100;" horiz-adv-x="736" 
d="M364 672q-1 -2 -3.5 -11t-7 -22.5t-9.5 -29.5t-11 -32l-95 -274h254l-96 274q-6 17 -11.5 34t-9.5 31q-5 16 -9 30h-2zM518 228h-306l-79 -228h-93l272 765h110l275 -765h-99zM222 925h292v-73h-292v73z" />
    <glyph glyph-name="amacron" unicode="&#x101;" horiz-adv-x="553" 
d="M230 64q25 0 51.5 9t48.5 29.5t36 54t14 82.5v12q-86 -4 -136.5 -12t-76.5 -27q-29 -22 -29 -65q0 -41 24.5 -62t67.5 -21zM74 383q2 70 53 113.5t146 43.5q99 0 147 -45t48 -151v-215q0 -32 9.5 -45.5t38.5 -14.5v-73h-11q-63 0 -88.5 23t-32.5 70h-2
q-21 -47 -65.5 -72.5t-103.5 -25.5q-79 0 -123 40t-44 111q0 44 19 78.5t60 54.5q42 22 104 31t151 12v23q0 72 -27 102t-83 30q-29 0 -49.5 -7.5t-33.5 -20.5t-19.5 -29t-7.5 -33h-86zM130 719h292v-73h-292v73z" />
    <glyph glyph-name="Abreve" unicode="&#x102;" horiz-adv-x="736" 
d="M364 672q-1 -2 -3.5 -11t-7 -22.5t-9.5 -29.5t-11 -32l-95 -274h254l-96 274q-6 17 -11.5 34t-9.5 31q-5 16 -9 30h-2zM518 228h-306l-79 -228h-93l272 765h110l275 -765h-99zM288 970q5 -38 27.5 -57.5t55.5 -19.5t55.5 19t27.5 58h64q-3 -37 -15.5 -63.5t-32.5 -43.5
t-46 -25t-56 -8q-29 0 -55 8t-46 25t-32.5 43.5t-15.5 63.5h69z" />
    <glyph glyph-name="abreve" unicode="&#x103;" horiz-adv-x="553" 
d="M230 64q25 0 51.5 9t48.5 29.5t36 54t14 82.5v12q-86 -4 -136.5 -12t-76.5 -27q-29 -22 -29 -65q0 -41 24.5 -62t67.5 -21zM74 383q2 70 53 113.5t146 43.5q99 0 147 -45t48 -151v-215q0 -32 9.5 -45.5t38.5 -14.5v-73h-11q-63 0 -88.5 23t-32.5 70h-2
q-21 -47 -65.5 -72.5t-103.5 -25.5q-79 0 -123 40t-44 111q0 44 19 78.5t60 54.5q42 22 104 31t151 12v23q0 72 -27 102t-83 30q-29 0 -49.5 -7.5t-33.5 -20.5t-19.5 -29t-7.5 -33h-86zM276 629q-31 0 -58.5 9t-47.5 28.5t-32 49.5t-12 72h69q0 -48 23.5 -72t60.5 -24
t60.5 24t23.5 72h64q0 -42 -12 -72t-32 -49.5t-48 -28.5t-59 -9z" />
    <glyph glyph-name="Aogonek" unicode="&#x104;" horiz-adv-x="736" 
d="M669 -188q-60 0 -94 24t-34 69q0 29 18 52t41 37l-82 234h-306l-79 -228h-93l272 765h110l273 -759q-35 -22 -53.5 -42.5t-18.5 -45.5q0 -23 15 -33t49 -11v-62h-18zM238 303h253l-95 274q-6 17 -11.5 34t-9.5 31q-5 16 -9 30h-2q-5 -15 -10 -31q-5 -14 -10 -30.5
t-11 -33.5z" />
    <glyph glyph-name="aogonek" unicode="&#x105;" horiz-adv-x="553" 
d="M74 383q2 70 53 113.5t146 43.5q99 0 147 -45t48 -151v-215q0 -32 9.5 -45.5t38.5 -14.5v-68q-32 -19 -52 -40t-20 -44t15 -32.5t49 -10.5v-62h-18q-60 0 -94 23.5t-34 68.5q0 35 25 59.5t59 38.5v2q-29 9 -43 29.5t-19 55.5h-2q-21 -47 -65.5 -72.5t-103.5 -25.5
q-79 0 -123 40t-44 111q0 44 19 78.5t60 54.5q42 22 104 31t151 12v23q0 72 -27 102t-83 30q-29 0 -49.5 -7.5t-33.5 -20.5t-19.5 -29t-7.5 -33h-86zM230 64q25 0 51.5 9t48.5 29.5t36 54t14 82.5v12q-86 -4 -136.5 -12t-76.5 -27q-29 -22 -29 -65q0 -41 24.5 -62t67.5 -21z
" />
    <glyph glyph-name="Cacute" unicode="&#x106;" horiz-adv-x="769" 
d="M410 701q-59 0 -104.5 -23t-76 -65t-46.5 -101t-16 -131q0 -74 16 -133.5t47 -101t76 -63.5t102 -22q51 0 87 15.5t60 41t37 57t17 64.5h95q-5 -54 -27 -100.5t-60.5 -80.5t-91 -53.5t-117.5 -19.5q-75 0 -137.5 24.5t-107.5 73.5t-70 123.5t-25 174.5q0 93 25.5 166.5
t71 124.5t108 78t137.5 27q49 0 98.5 -13.5t91 -42.5t70 -74.5t34.5 -109.5h-98q-5 29 -19 58.5t-38 53t-58.5 38t-80.5 14.5zM430 960h105l-94 -133h-71z" />
    <glyph glyph-name="cacute" unicode="&#x107;" horiz-adv-x="536" 
d="M404 368q-2 20 -10.5 38.5t-23.5 33t-36.5 23t-49.5 8.5q-36 0 -63 -15t-45 -42t-27.5 -65t-9.5 -84t7.5 -84t24.5 -65.5t44 -42.5t67 -15q37 0 61.5 12t39 30t21 37.5t7.5 34.5h84q-5 -46 -23 -80.5t-46 -57.5t-65 -34.5t-80 -11.5q-57 0 -100.5 19t-73.5 54.5t-45 86
t-15 113.5q0 60 16 111.5t46.5 88.5t74 58t99.5 21q39 0 75.5 -9.5t65 -30t47 -53.5t21.5 -79h-88zM305 788h101l-87 -162h-67z" />
    <glyph glyph-name="Ccircumflex" unicode="&#x108;" horiz-adv-x="769" 
d="M410 701q-59 0 -104.5 -23t-76 -65t-46.5 -101t-16 -131q0 -74 16 -133.5t47 -101t76 -63.5t102 -22q51 0 87 15.5t60 41t37 57t17 64.5h95q-5 -54 -27 -100.5t-60.5 -80.5t-91 -53.5t-117.5 -19.5q-75 0 -137.5 24.5t-107.5 73.5t-70 123.5t-25 174.5q0 93 25.5 166.5
t71 124.5t108 78t137.5 27q49 0 98.5 -13.5t91 -42.5t70 -74.5t34.5 -109.5h-98q-5 29 -19 58.5t-38 53t-58.5 38t-80.5 14.5zM564 827h-83l-75 76h-1l-75 -76h-74l107 133h94z" />
    <glyph glyph-name="ccircumflex" unicode="&#x109;" horiz-adv-x="536" 
d="M404 368q-2 20 -10.5 38.5t-23.5 33t-36.5 23t-49.5 8.5q-36 0 -63 -15t-45 -42t-27.5 -65t-9.5 -84t7.5 -84t24.5 -65.5t44 -42.5t67 -15q37 0 61.5 12t39 30t21 37.5t7.5 34.5h84q-5 -46 -23 -80.5t-46 -57.5t-65 -34.5t-80 -11.5q-57 0 -100.5 19t-73.5 54.5t-45 86
t-15 113.5q0 60 16 111.5t46.5 88.5t74 58t99.5 21q39 0 75.5 -9.5t65 -30t47 -53.5t21.5 -79h-88zM445 626h-80l-78 101h-1l-78 -101h-71l107 162h94z" />
    <glyph glyph-name="Cdotaccent" unicode="&#x10a;" horiz-adv-x="769" 
d="M410 701q-59 0 -104.5 -23t-76 -65t-46.5 -101t-16 -131q0 -74 16 -133.5t47 -101t76 -63.5t102 -22q51 0 87 15.5t60 41t37 57t17 64.5h95q-5 -54 -27 -100.5t-60.5 -80.5t-91 -53.5t-117.5 -19.5q-75 0 -137.5 24.5t-107.5 73.5t-70 123.5t-25 174.5q0 93 25.5 166.5
t71 124.5t108 78t137.5 27q49 0 98.5 -13.5t91 -42.5t70 -74.5t34.5 -109.5h-98q-5 29 -19 58.5t-38 53t-58.5 38t-80.5 14.5zM359 936h95v-99h-95v99z" />
    <glyph glyph-name="cdotaccent" unicode="&#x10b;" horiz-adv-x="536" 
d="M404 368q-2 20 -10.5 38.5t-23.5 33t-36.5 23t-49.5 8.5q-36 0 -63 -15t-45 -42t-27.5 -65t-9.5 -84t7.5 -84t24.5 -65.5t44 -42.5t67 -15q37 0 61.5 12t39 30t21 37.5t7.5 34.5h84q-5 -46 -23 -80.5t-46 -57.5t-65 -34.5t-80 -11.5q-57 0 -100.5 19t-73.5 54.5t-45 86
t-15 113.5q0 60 16 111.5t46.5 88.5t74 58t99.5 21q39 0 75.5 -9.5t65 -30t47 -53.5t21.5 -79h-88zM240 745h95v-99h-95v99z" />
    <glyph glyph-name="Ccaron" unicode="&#x10c;" horiz-adv-x="769" 
d="M410 701q-59 0 -104.5 -23t-76 -65t-46.5 -101t-16 -131q0 -74 16 -133.5t47 -101t76 -63.5t102 -22q51 0 87 15.5t60 41t37 57t17 64.5h95q-5 -54 -27 -100.5t-60.5 -80.5t-91 -53.5t-117.5 -19.5q-75 0 -137.5 24.5t-107.5 73.5t-70 123.5t-25 174.5q0 93 25.5 166.5
t71 124.5t108 78t137.5 27q49 0 98.5 -13.5t91 -42.5t70 -74.5t34.5 -109.5h-98q-5 29 -19 58.5t-38 53t-58.5 38t-80.5 14.5zM246 960h83l75 -76h1l75 76h74l-107 -133h-94z" />
    <glyph glyph-name="ccaron" unicode="&#x10d;" horiz-adv-x="536" 
d="M404 368q-2 20 -10.5 38.5t-23.5 33t-36.5 23t-49.5 8.5q-36 0 -63 -15t-45 -42t-27.5 -65t-9.5 -84t7.5 -84t24.5 -65.5t44 -42.5t67 -15q37 0 61.5 12t39 30t21 37.5t7.5 34.5h84q-5 -46 -23 -80.5t-46 -57.5t-65 -34.5t-80 -11.5q-57 0 -100.5 19t-73.5 54.5t-45 86
t-15 113.5q0 60 16 111.5t46.5 88.5t74 58t99.5 21q39 0 75.5 -9.5t65 -30t47 -53.5t21.5 -79h-88zM127 788h80l78 -101h1l78 101h71l-107 -162h-94z" />
    <glyph glyph-name="Dcaron" unicode="&#x10e;" horiz-adv-x="776" 
d="M104 765h235q78 0 146 -20t117.5 -64.5t78 -115.5t28.5 -173q0 -101 -26.5 -175t-74.5 -122t-114 -71.5t-144 -23.5h-246v765zM339 80q61 0 111 16.5t86 53.5t56 96t20 143q0 80 -20 136.5t-55.5 92t-84.5 51.5t-107 16h-148v-605h142zM194 960h83l75 -76h1l75 76h74
l-107 -133h-94z" />
    <glyph glyph-name="dcaron" unicode="&#x10f;" horiz-adv-x="611" 
d="M429 284q0 42 -10.5 76t-29.5 58t-45.5 37t-57.5 13q-76 0 -111.5 -55.5t-35.5 -148.5q0 -45 7 -82.5t23.5 -65t43.5 -43t66 -15.5q35 0 62.5 13t47 36t30 54t10.5 67v56zM517 0h-86v87h-3q-21 -39 -63 -69.5t-103 -30.5q-42 0 -81 14t-68.5 46.5t-47.5 84.5t-18 128
q0 68 17 120t47 87.5t71.5 54t91.5 18.5q60 0 97.5 -28t53.5 -65h2v341h90v-788zM594 788h86l-47 -162h-56z" />
    <glyph glyph-name="Dcroat" unicode="&#x110;" horiz-adv-x="791" 
d="M119 0v348h-85v78h85v339h235q78 0 146 -20t117.5 -64.5t78 -115.5t28.5 -173q0 -101 -26.5 -175t-74.5 -122t-114 -71.5t-144 -23.5h-246zM354 80q61 0 111 16.5t86 53.5t56 96t20 143q0 80 -20 136.5t-55.5 92t-84.5 51.5t-107 16h-148v-259h217v-78h-217v-268h142z
" />
    <glyph glyph-name="dcroat" unicode="&#x111;" horiz-adv-x="611" 
d="M429 284q0 42 -10.5 76t-29.5 58t-45.5 37t-57.5 13q-76 0 -111.5 -55.5t-35.5 -148.5q0 -45 7 -82.5t23.5 -65t43.5 -43t66 -15.5q35 0 62.5 13t47 36t30 54t10.5 67v56zM428 87q-21 -39 -63 -69.5t-103 -30.5q-42 0 -81 14t-68.5 46.5t-47.5 84.5t-18 128q0 68 17 120
t47 87.5t71.5 54t91.5 18.5q60 0 97.5 -28t53.5 -65h2v177h-159v63h159v101h90v-101h76v-63h-76v-624h-86v87h-3z" />
    <glyph glyph-name="Emacron" unicode="&#x112;" horiz-adv-x="677" 
d="M104 765h489v-83h-396v-255h364v-81h-364v-263h401v-83h-494v765zM205 925h292v-73h-292v73z" />
    <glyph glyph-name="emacron" unicode="&#x113;" horiz-adv-x="550" 
d="M410 316q-1 33 -8 61.5t-22.5 49.5t-40 33t-58.5 12q-63 0 -98 -45t-43 -117h270v6zM495 138q-14 -69 -69.5 -110t-140.5 -41q-60 0 -105 20.5t-74.5 57.5t-44 87t-14.5 109q0 58 15.5 109t45.5 89t73.5 59.5t100.5 21.5q59 0 101 -21t68.5 -56.5t38.5 -81.5t12 -96v-46
h-363q4 -82 39.5 -132.5t109.5 -50.5q33 0 54.5 8.5t35 21t20.5 26.5t10 26h87zM138 719h292v-73h-292v73z" />
    <glyph glyph-name="Ebreve" unicode="&#x114;" horiz-adv-x="677" 
d="M104 765h489v-83h-396v-255h364v-81h-364v-263h401v-83h-494v765zM271 970q5 -38 27.5 -57.5t55.5 -19.5t55.5 19t27.5 58h64q-3 -37 -15.5 -63.5t-32.5 -43.5t-46 -25t-56 -8q-29 0 -55 8t-46 25t-32.5 43.5t-15.5 63.5h69z" />
    <glyph glyph-name="ebreve" unicode="&#x115;" horiz-adv-x="550" 
d="M410 316q-1 33 -8 61.5t-22.5 49.5t-40 33t-58.5 12q-63 0 -98 -45t-43 -117h270v6zM495 138q-14 -69 -69.5 -110t-140.5 -41q-60 0 -105 20.5t-74.5 57.5t-44 87t-14.5 109q0 58 15.5 109t45.5 89t73.5 59.5t100.5 21.5q59 0 101 -21t68.5 -56.5t38.5 -81.5t12 -96v-46
h-363q4 -82 39.5 -132.5t109.5 -50.5q33 0 54.5 8.5t35 21t20.5 26.5t10 26h87zM284 629q-31 0 -58.5 9t-47.5 28.5t-32 49.5t-12 72h69q0 -48 23.5 -72t60.5 -24t60.5 24t23.5 72h64q0 -42 -12 -72t-32 -49.5t-48 -28.5t-59 -9z" />
    <glyph glyph-name="Edotaccent" unicode="&#x116;" horiz-adv-x="677" 
d="M104 765h489v-83h-396v-255h364v-81h-364v-263h401v-83h-494v765zM304 936h95v-99h-95v99z" />
    <glyph glyph-name="edotaccent" unicode="&#x117;" horiz-adv-x="550" 
d="M410 316q-1 33 -8 61.5t-22.5 49.5t-40 33t-58.5 12q-63 0 -98 -45t-43 -117h270v6zM495 138q-14 -69 -69.5 -110t-140.5 -41q-60 0 -105 20.5t-74.5 57.5t-44 87t-14.5 109q0 58 15.5 109t45.5 89t73.5 59.5t100.5 21.5q59 0 101 -21t68.5 -56.5t38.5 -81.5t12 -96v-46
h-363q4 -82 39.5 -132.5t109.5 -50.5q33 0 54.5 8.5t35 21t20.5 26.5t10 26h87zM237 745h95v-99h-95v99z" />
    <glyph glyph-name="Eogonek" unicode="&#x118;" horiz-adv-x="677" 
d="M104 0v765h489v-83h-396v-255h364v-81h-364v-263h401v-83q-28 -18 -45.5 -37.5t-17.5 -44.5q0 -23 15 -33t49 -11v-62h-18q-60 0 -94 24t-34 69q0 18 7 33.5t17.5 27.5t23 20.5t22.5 13.5h-419z" />
    <glyph glyph-name="eogonek" unicode="&#x119;" horiz-adv-x="550" 
d="M495 138q-13 -61 -60 -102q-16 -14 -31 -28t-27 -28t-19 -29.5t-7 -32.5q0 -23 15 -33t49 -11v-62h-18q-60 0 -94 23t-34 65q0 28 19.5 52.5t46.5 38.5v2q-11 -2 -25 -4t-25 -2q-60 0 -105 20.5t-74.5 57.5t-44 87t-14.5 109q0 58 15.5 109t45.5 89t73.5 59.5t100.5 21.5
q59 0 101 -21t68.5 -56.5t38.5 -81.5t12 -96v-46h-364q5 -82 40 -132.5t110 -50.5q33 0 54.5 8.5t35 21t20.5 26.5t10 26h87zM410 310q0 34 -7 63.5t-22.5 51.5t-40 34.5t-59.5 12.5q-32 0 -56.5 -12t-42 -33.5t-28 -51t-14.5 -65.5h270z" />
    <glyph glyph-name="Ecaron" unicode="&#x11a;" horiz-adv-x="677" 
d="M104 765h489v-83h-396v-255h364v-81h-364v-263h401v-83h-494v765zM191 960h83l75 -76h1l75 76h74l-107 -133h-94z" />
    <glyph glyph-name="ecaron" unicode="&#x11b;" horiz-adv-x="550" 
d="M410 316q-1 33 -8 61.5t-22.5 49.5t-40 33t-58.5 12q-63 0 -98 -45t-43 -117h270v6zM495 138q-14 -69 -69.5 -110t-140.5 -41q-60 0 -105 20.5t-74.5 57.5t-44 87t-14.5 109q0 58 15.5 109t45.5 89t73.5 59.5t100.5 21.5q59 0 101 -21t68.5 -56.5t38.5 -81.5t12 -96v-46
h-363q4 -82 39.5 -132.5t109.5 -50.5q33 0 54.5 8.5t35 21t20.5 26.5t10 26h87zM124 788h80l78 -101h1l78 101h71l-107 -162h-94z" />
    <glyph glyph-name="Gcircumflex" unicode="&#x11c;" horiz-adv-x="828" 
d="M417 702q-62 0 -109 -23.5t-78.5 -66t-47.5 -103t-16 -133.5q0 -153 62 -234.5t179 -81.5q109 0 170 60t61 173v11h-221v82h312v-386h-81v110h-4q-14 -25 -35.5 -48t-51 -40t-68 -27.5t-84.5 -10.5q-72 0 -134 24t-107 72.5t-70.5 123t-25.5 175.5q0 94 26.5 167.5
t73.5 124.5t111 78t138 27q59 0 109 -14.5t87.5 -42t61.5 -67t31 -90.5h-97q-5 33 -21.5 59t-42 44t-58.5 27.5t-70 9.5zM574 827h-83l-75 76h-1l-75 -76h-74l107 133h94z" />
    <glyph glyph-name="gcircumflex" unicode="&#x11d;" horiz-adv-x="609" 
d="M429 292q0 39 -10.5 72t-30 56t-47.5 36t-62 13q-36 0 -62 -14t-43.5 -40t-26 -62.5t-8.5 -81.5q0 -44 7 -80t23.5 -61.5t44 -40t69.5 -14.5q32 0 58.5 13t46 35.5t30.5 52t11 63.5v53zM275 -199q-38 0 -74.5 7.5t-66 24.5t-50 45t-24.5 69h87q8 -34 36.5 -54t93.5 -20
q75 0 112.5 33t37.5 120v78h-1q-20 -39 -64.5 -68t-103.5 -29q-41 0 -79.5 14t-67.5 45t-46.5 81.5t-17.5 123.5q0 65 16.5 115.5t46 84.5t70 51.5t89.5 17.5q32 0 57.5 -8t45 -21.5t33.5 -31t22 -35.5h2v83h86v-514q0 -56 -17.5 -96t-49 -65.5t-75.5 -38t-98 -12.5z
M425 626h-80l-78 101h-1l-78 -101h-71l107 162h94z" />
    <glyph glyph-name="Gbreve" unicode="&#x11e;" horiz-adv-x="828" 
d="M417 702q-62 0 -109 -23.5t-78.5 -66t-47.5 -103t-16 -133.5q0 -153 62 -234.5t179 -81.5q109 0 170 60t61 173v11h-221v82h312v-386h-81v110h-4q-14 -25 -35.5 -48t-51 -40t-68 -27.5t-84.5 -10.5q-72 0 -134 24t-107 72.5t-70.5 123t-25.5 175.5q0 94 26.5 167.5
t73.5 124.5t111 78t138 27q59 0 109 -14.5t87.5 -42t61.5 -67t31 -90.5h-97q-5 33 -21.5 59t-42 44t-58.5 27.5t-70 9.5zM336 970q5 -38 27.5 -57.5t55.5 -19.5t55.5 19t27.5 58h64q-3 -37 -15.5 -63.5t-32.5 -43.5t-46 -25t-56 -8q-29 0 -55 8t-46 25t-32.5 43.5
t-15.5 63.5h69z" />
    <glyph glyph-name="gbreve" unicode="&#x11f;" horiz-adv-x="609" 
d="M429 292q0 39 -10.5 72t-30 56t-47.5 36t-62 13q-36 0 -62 -14t-43.5 -40t-26 -62.5t-8.5 -81.5q0 -44 7 -80t23.5 -61.5t44 -40t69.5 -14.5q32 0 58.5 13t46 35.5t30.5 52t11 63.5v53zM275 -199q-38 0 -74.5 7.5t-66 24.5t-50 45t-24.5 69h87q8 -34 36.5 -54t93.5 -20
q75 0 112.5 33t37.5 120v78h-1q-20 -39 -64.5 -68t-103.5 -29q-41 0 -79.5 14t-67.5 45t-46.5 81.5t-17.5 123.5q0 65 16.5 115.5t46 84.5t70 51.5t89.5 17.5q32 0 57.5 -8t45 -21.5t33.5 -31t22 -35.5h2v83h86v-514q0 -56 -17.5 -96t-49 -65.5t-75.5 -38t-98 -12.5z
M267 629q-31 0 -58.5 9t-47.5 28.5t-32 49.5t-12 72h69q0 -48 23.5 -72t60.5 -24t60.5 24t23.5 72h64q0 -42 -12 -72t-32 -49.5t-48 -28.5t-59 -9z" />
    <glyph glyph-name="Gdotaccent" unicode="&#x120;" horiz-adv-x="828" 
d="M417 702q-62 0 -109 -23.5t-78.5 -66t-47.5 -103t-16 -133.5q0 -153 62 -234.5t179 -81.5q109 0 170 60t61 173v11h-221v82h312v-386h-81v110h-4q-14 -25 -35.5 -48t-51 -40t-68 -27.5t-84.5 -10.5q-72 0 -134 24t-107 72.5t-70.5 123t-25.5 175.5q0 94 26.5 167.5
t73.5 124.5t111 78t138 27q59 0 109 -14.5t87.5 -42t61.5 -67t31 -90.5h-97q-5 33 -21.5 59t-42 44t-58.5 27.5t-70 9.5zM366 936h95v-99h-95v99z" />
    <glyph glyph-name="gdotaccent" unicode="&#x121;" horiz-adv-x="609" 
d="M429 292q0 39 -10.5 72t-30 56t-47.5 36t-62 13q-36 0 -62 -14t-43.5 -40t-26 -62.5t-8.5 -81.5q0 -44 7 -80t23.5 -61.5t44 -40t69.5 -14.5q32 0 58.5 13t46 35.5t30.5 52t11 63.5v53zM275 -199q-38 0 -74.5 7.5t-66 24.5t-50 45t-24.5 69h87q8 -34 36.5 -54t93.5 -20
q75 0 112.5 33t37.5 120v78h-1q-20 -39 -64.5 -68t-103.5 -29q-41 0 -79.5 14t-67.5 45t-46.5 81.5t-17.5 123.5q0 65 16.5 115.5t46 84.5t70 51.5t89.5 17.5q32 0 57.5 -8t45 -21.5t33.5 -31t22 -35.5h2v83h86v-514q0 -56 -17.5 -96t-49 -65.5t-75.5 -38t-98 -12.5z
M220 745h95v-99h-95v99z" />
    <glyph glyph-name="Gcommaaccent" unicode="&#x122;" horiz-adv-x="828" 
d="M417 702q-62 0 -109 -23.5t-78.5 -66t-47.5 -103t-16 -133.5q0 -153 62 -234.5t179 -81.5q109 0 170 60t61 173v11h-221v82h312v-386h-81v110h-4q-14 -25 -35.5 -48t-51 -40t-68 -27.5t-84.5 -10.5q-72 0 -134 24t-107 72.5t-70.5 123t-25.5 175.5q0 94 26.5 167.5
t73.5 124.5t111 78t138 27q59 0 109 -14.5t87.5 -42t61.5 -67t31 -90.5h-97q-5 33 -21.5 59t-42 44t-58.5 27.5t-70 9.5zM376 -69h97l-62 -137h-57z" />
    <glyph glyph-name="gcommaaccent" unicode="&#x123;" horiz-adv-x="609" 
d="M429 292q0 39 -10.5 72t-30 56t-47.5 36t-62 13q-36 0 -62 -14t-43.5 -40t-26 -62.5t-8.5 -81.5q0 -44 7 -80t23.5 -61.5t44 -40t69.5 -14.5q32 0 58.5 13t46 35.5t30.5 52t11 63.5v53zM275 -199q-38 0 -74.5 7.5t-66 24.5t-50 45t-24.5 69h87q8 -34 36.5 -54t93.5 -20
q75 0 112.5 33t37.5 120v78h-1q-20 -39 -64.5 -68t-103.5 -29q-41 0 -79.5 14t-67.5 45t-46.5 81.5t-17.5 123.5q0 65 16.5 115.5t46 84.5t70 51.5t89.5 17.5q32 0 57.5 -8t45 -21.5t33.5 -31t22 -35.5h2v83h86v-514q0 -56 -17.5 -96t-49 -65.5t-75.5 -38t-98 -12.5z
M309 634h-97l62 137h57z" />
    <glyph glyph-name="Hcircumflex" unicode="&#x124;" horiz-adv-x="795" 
d="M197 0h-93v765h93v-337h401v337h93v-765h-93v345h-401v-345zM555 827h-83l-75 76h-1l-75 -76h-74l107 133h94z" />
    <glyph glyph-name="hcircumflex" unicode="&#x125;" horiz-adv-x="608" 
d="M429 326q0 29 -2.5 57t-16.5 47t-35.5 27t-47.5 8q-37 0 -64 -11t-44.5 -31t-26 -47.5t-8.5 -59.5v-316h-90v788h90v-348h2q9 19 23.5 37t35.5 32t47.5 22.5t58.5 8.5q38 0 69 -9.5t53 -30t34 -53.5t12 -80v-367h-90v326zM464 827h-83l-75 76h-1l-75 -76h-74l107 133h94z
" />
    <glyph glyph-name="Hbar" unicode="&#x126;" horiz-adv-x="795" 
d="M598 570h-401v-142h401v142zM197 0h-93v570h-88v67h88v128h93v-128h401v128h93v-128h88v-67h-88v-570h-93v345h-401v-345z" />
    <glyph glyph-name="hbar" unicode="&#x127;" horiz-adv-x="608" 
d="M184 0h-90v624h-76v63h76v101h87v-101h162v-63h-162v-184h2q9 19 24.5 37t37 32t48 22.5t58.5 8.5q38 0 69 -9.5t53 -30t34 -53.5t12 -80v-367h-90v326q0 29 -2.5 57t-16.5 47t-35.5 27t-47.5 8q-37 0 -64 -11t-44.5 -31t-26 -47.5t-8.5 -59.5v-316z" />
    <glyph glyph-name="Itilde" unicode="&#x128;" horiz-adv-x="302" 
d="M104 765h93v-765h-93v765zM-27 827q0 26 6.5 50.5t19.5 43t33 30t46 11.5q25 0 46 -10t39 -21.5t33.5 -21.5t28.5 -10q39 0 47 65h56q0 -26 -6.5 -50.5t-19.5 -43.5t-33 -30t-46 -11q-25 0 -45.5 9.5t-38.5 21.5t-33.5 21.5t-30.5 9.5q-38 0 -46 -64h-56z" />
    <glyph glyph-name="itilde" unicode="&#x129;" horiz-adv-x="279" 
d="M94 527h91v-527h-91v527zM-12.0498 624q0 26 5.52441 50.5q5.52539 24.5 16.5742 43q11.0498 18.5 28.0498 30q16.999 11.5 39.0986 11.5q21.249 0 39.0986 -10t33.1494 -21.5t28.4736 -21.5q13.1748 -10 24.2246 -10q33.1494 0 39.9492 65h47.5986q0 -26 -5.52539 -50.5
q-5.52441 -24.5 -16.5742 -43.5t-28.0488 -30q-17 -11 -39.0996 -11q-21.249 0 -38.6738 9.5q-17.4238 9.5 -32.7236 21.5t-28.4746 21.5t-25.9238 9.5q-32.2988 0 -39.0986 -64h-47.5986z" />
    <glyph glyph-name="Imacron" unicode="&#x12a;" horiz-adv-x="302" 
d="M104 765h93v-765h-93v765zM4 925h292v-73h-292v73z" />
    <glyph glyph-name="imacron" unicode="&#x12b;" horiz-adv-x="279" 
d="M94 527h91v-527h-91v527zM23.3994 719h233.597v-73h-233.597v73z" />
    <glyph glyph-name="Ibreve" unicode="&#x12c;" horiz-adv-x="302" 
d="M104 765h93v-765h-93v765zM70 970q5 -38 27.5 -57.5t55.5 -19.5t55.5 19t27.5 58h64q-3 -37 -15.5 -63.5t-32.5 -43.5t-46 -25t-56 -8q-29 0 -55 8t-46 25t-32.5 43.5t-15.5 63.5h69z" />
    <glyph glyph-name="ibreve" unicode="&#x12d;" horiz-adv-x="279" 
d="M94 527h91v-527h-91v527zM139.604 629q-27.9004 0 -52.6514 9t-42.751 28.5q-18.001 19.5 -28.8008 49.5q-10.8008 30 -10.8008 72h62.1016q0 -48 21.1514 -72q21.1504 -24 54.4512 -24t54.4512 24t21.1504 72h57.6016q0 -42 -10.7998 -72q-10.8008 -30 -28.8008 -49.5
q-18.001 -19.5 -43.2012 -28.5q-25.2012 -9 -53.1016 -9z" />
    <glyph glyph-name="Iogonek" unicode="&#x12e;" horiz-adv-x="302" 
d="M170 -188q-60 0 -94 24t-34 69q0 31 19.5 54t42.5 37v769h93v-758q-35 -23 -54 -43t-19 -46q0 -23 15 -33t49 -11v-62h-18z" />
    <glyph glyph-name="iogonek" unicode="&#x12f;" horiz-adv-x="279" 
d="M92 744h95v-97h-95v97zM152 -188q-60 0 -94 24t-34 69q0 18 7.5 33t18 27t22.5 20.5t22 13.5v528h91v-516q-45 -29 -62 -48.5t-17 -44.5q0 -23 15 -33t49 -11v-62h-18z" />
    <glyph glyph-name="Idotaccent" unicode="&#x130;" horiz-adv-x="302" 
d="M104 765h93v-765h-93v765zM103 936h95v-99h-95v99z" />
    <glyph glyph-name="dotlessi" unicode="&#x131;" horiz-adv-x="279" 
d="M94 527h91v-527h-91v527z" />
    <glyph glyph-name="IJ" unicode="&#x132;" horiz-adv-x="676" 
d="M308 -3v79h11q55 0 88 8.5t50.5 27t23 48t5.5 71.5v534h93v-542q0 -62 -15 -105t-44.5 -70t-74.5 -39t-105 -12h-32zM104 765h93v-765h-93v765z" />
    <glyph glyph-name="ij" unicode="&#x133;" horiz-adv-x="558" 
d="M92 744h95v-97h-95v97zM94 527h91v-527h-91v527zM371 744h95v-97h-95v97zM312 -199q-15 0 -29 2t-25 5v76q19 -6 46 -6q34 0 51.5 16.5t17.5 58.5v574h91v-581q0 -39 -12 -67t-32.5 -45t-48 -25t-59.5 -8z" />
    <glyph glyph-name="Jcircumflex" unicode="&#x134;" horiz-adv-x="424" 
d="M26 -3v79h21q60 0 96.5 8.5t57 27t27 48t6.5 71.5v534h93v-542q0 -62 -16.5 -105t-49.5 -70t-81.5 -39t-111.5 -12h-42zM440 827h-83l-75 76h-1l-75 -76h-74l107 133h94z" />
    <glyph glyph-name="jcircumflex" unicode="&#x135;" horiz-adv-x="279" 
d="M-21 -116q19 -6 46 -6q34 0 51.5 16.5t17.5 58.5v574h91v-581q0 -39 -12 -67t-32.5 -45t-48 -25t-59.5 -8q-15 0 -29 2t-25 5v76zM278.108 626h-72.002l-70.2021 101h-0.900391l-70.2012 -101h-63.9023l96.3027 162h84.6025z" />
    <glyph glyph-name="Kcommaaccent" unicode="&#x136;" horiz-adv-x="714" 
d="M197 0h-93v765h93v-393l358 393h112l-294 -321l315 -444h-112l-267 374l-112 -123v-251zM325 -69h97l-62 -137h-57z" />
    <glyph glyph-name="kcommaaccent" unicode="&#x137;" horiz-adv-x="558" 
d="M184 0h-90v788h90v-515l220 254h105l-176 -198l198 -329h-105l-154 260l-88 -99v-161zM249 -69h97l-62 -137h-57z" />
    <glyph glyph-name="kgreenlandic" unicode="&#x138;" horiz-adv-x="558" 
d="M184 0h-90v527h90v-254l220 254h105l-176 -198l198 -329h-105l-154 260l-88 -99v-161z" />
    <glyph glyph-name="Lacute" unicode="&#x139;" horiz-adv-x="603" 
d="M104 765h93v-682h380v-83h-473v765zM178 960h105l-94 -133h-71z" />
    <glyph glyph-name="lacute" unicode="&#x13a;" horiz-adv-x="277" 
d="M94 788h90v-788h-90v788zM162 965h105l-94 -133h-71z" />
    <glyph glyph-name="Lcommaaccent" unicode="&#x13b;" horiz-adv-x="603" 
d="M104 765h93v-682h380v-83h-473v765zM295 -69h97l-62 -137h-57z" />
    <glyph glyph-name="lcommaaccent" unicode="&#x13c;" horiz-adv-x="277" 
d="M94 788h90v-788h-90v788zM89 -69h97l-62 -137h-57z" />
    <glyph glyph-name="Lcaron" unicode="&#x13d;" horiz-adv-x="603" 
d="M341 788h96l-57 -195h-66zM104 765h93v-682h380v-83h-473v765z" />
    <glyph glyph-name="lcaron" unicode="&#x13e;" horiz-adv-x="277" 
d="M94 788h90v-788h-90v788zM260 788h86l-47 -162h-56z" />
    <glyph glyph-name="Ldot" unicode="&#x13f;" horiz-adv-x="603" 
d="M104 765h93v-682h380v-83h-473v765zM394.146 453.552h115.998v-115.998h-115.998v115.998z" />
    <glyph glyph-name="ldot" unicode="&#x140;" horiz-adv-x="387" 
d="M94 788h90v-788h-90v788zM282.018 447.455h101.001v-101.001h-101.001v101.001z" />
    <glyph glyph-name="Lslash" unicode="&#x141;" horiz-adv-x="603" 
d="M104 290l-81 -32v83l81 32v392h93v-355l247 97v-83l-247 -97v-244h380v-83h-473v290z" />
    <glyph glyph-name="lslash" unicode="&#x142;" horiz-adv-x="285" 
d="M98 0v321l-83 -60v83l83 60v384h90v-319l85 61v-83l-85 -61v-386h-90z" />
    <glyph glyph-name="Nacute" unicode="&#x143;" horiz-adv-x="795" 
d="M104 765h119l340 -569q10 -16 17 -29.5t12 -23.5q5 -12 10 -22h3v644h88v-765h-119l-339 568q-11 19 -18.5 33t-12.5 23l-9 18h-2v-642h-89v765zM422 960h105l-94 -133h-71z" />
    <glyph glyph-name="nacute" unicode="&#x144;" horiz-adv-x="608" 
d="M429 325q0 29 -2.5 57.5t-16.5 47.5t-35.5 27t-47.5 8q-37 0 -64 -11t-44.5 -31t-26 -47.5t-8.5 -59.5v-316h-90v527h85v-89h2q9 20 25 38.5t38 32.5t48.5 22.5t58.5 8.5q38 0 69 -9.5t53 -30t34 -53.5t12 -80v-367h-90v325zM348 788h101l-87 -162h-67z" />
    <glyph glyph-name="Ncommaaccent" unicode="&#x145;" horiz-adv-x="795" 
d="M104 765h119l340 -569q10 -16 17 -29.5t12 -23.5q5 -12 10 -22h3v644h88v-765h-119l-339 568q-11 19 -18.5 33t-12.5 23l-9 18h-2v-642h-89v765zM353 -69h97l-62 -137h-57z" />
    <glyph glyph-name="ncommaaccent" unicode="&#x146;" horiz-adv-x="608" 
d="M429 325q0 29 -2.5 57.5t-16.5 47.5t-35.5 27t-47.5 8q-37 0 -64 -11t-44.5 -31t-26 -47.5t-8.5 -59.5v-316h-90v527h85v-89h2q9 20 25 38.5t38 32.5t48.5 22.5t58.5 8.5q38 0 69 -9.5t53 -30t34 -53.5t12 -80v-367h-90v325zM261 -69h97l-62 -137h-57z" />
    <glyph glyph-name="Ncaron" unicode="&#x147;" horiz-adv-x="795" 
d="M104 765h119l340 -569q10 -16 17 -29.5t12 -23.5q5 -12 10 -22h3v644h88v-765h-119l-339 568q-11 19 -18.5 33t-12.5 23l-9 18h-2v-642h-89v765zM238 960h83l75 -76h1l75 76h74l-107 -133h-94z" />
    <glyph glyph-name="ncaron" unicode="&#x148;" horiz-adv-x="608" 
d="M429 325q0 29 -2.5 57.5t-16.5 47.5t-35.5 27t-47.5 8q-37 0 -64 -11t-44.5 -31t-26 -47.5t-8.5 -59.5v-316h-90v527h85v-89h2q9 20 25 38.5t38 32.5t48.5 22.5t58.5 8.5q38 0 69 -9.5t53 -30t34 -53.5t12 -80v-367h-90v325zM146 788h80l78 -101h1l78 101h71l-107 -162
h-94z" />
    <glyph glyph-name="napostrophe" unicode="&#x149;" horiz-adv-x="608" 
d="M429 325q0 29 -2.5 57.5t-16.5 47.5t-35.5 27t-47.5 8q-37 0 -64 -11t-44.5 -31t-26 -47.5t-8.5 -59.5v-316h-90v527h85v-89h2q9 20 25 38.5t38 32.5t48.5 22.5t58.5 8.5q38 0 69 -9.5t53 -30t34 -53.5t12 -80v-367h-90v325zM57 788h97l-62 -137h-57z" />
    <glyph glyph-name="Eng" unicode="&#x14a;" horiz-adv-x="795" 
d="M420 -188v79h11q47 0 79 6t52 19t29.5 33t12.5 48l-366 571q-12 18 -20 32t-13 23q-6 11 -10 19h-2v-642h-89v765h116l340 -529q10 -16 18 -30t13 -25q6 -12 11 -23h3v607h88v-749q0 -109 -64 -156.5t-177 -47.5h-32z" />
    <glyph glyph-name="eng" unicode="&#x14b;" horiz-adv-x="608" 
d="M368 -199q-29 0 -48 6v76q9 -2 17.5 -3.5t22.5 -1.5q34 0 51.5 16.5t17.5 58.5v372q0 29 -2.5 57.5t-16.5 47.5t-35.5 27t-47.5 8q-37 0 -64 -11t-44.5 -31t-26 -47.5t-8.5 -59.5v-316h-90v527h85v-89h2q9 20 25 38.5t38 32.5t48.5 22.5t58.5 8.5q38 0 69 -9.5t53 -30
t34 -53.5t12 -80v-421q0 -39 -11.5 -67t-32 -45t-48 -25t-59.5 -8z" />
    <glyph glyph-name="Omacron" unicode="&#x14c;" horiz-adv-x="823" 
d="M68 380q0 103 28 177.5t75 123t109 72t130 23.5q70 0 132.5 -23.5t109.5 -72t75 -123t28 -177.5q0 -102 -27.5 -177t-75 -123.5t-110 -72t-132.5 -23.5q-71 0 -133 23.5t-108.5 72t-73.5 123.5t-27 177zM410 59q54 0 99.5 21t78 61.5t51 100.5t18.5 137q0 79 -18 139
t-50.5 101t-78 62t-100.5 21q-54 0 -98.5 -20t-77 -60.5t-50.5 -101t-18 -141.5q0 -78 17.5 -138t49.5 -100.5t77 -61t100 -20.5zM265 925h292v-73h-292v73z" />
    <glyph glyph-name="omacron" unicode="&#x14d;" horiz-adv-x="567" 
d="M282 -13q-58 0 -102 20t-73.5 56.5t-44.5 87.5t-15 113q0 61 16.5 112t47 87.5t74.5 56.5t99 20q59 0 103 -20t73.5 -56.5t44 -87.5t14.5 -112q0 -62 -16 -113t-47 -87.5t-75 -56.5t-99 -20zM283 471q-72 0 -107.5 -55t-35.5 -152t34 -152t111 -55q74 0 107.5 55
t33.5 152t-33.5 152t-109.5 55zM137 719h292v-73h-292v73z" />
    <glyph glyph-name="Obreve" unicode="&#x14e;" horiz-adv-x="823" 
d="M68 380q0 103 28 177.5t75 123t109 72t130 23.5q70 0 132.5 -23.5t109.5 -72t75 -123t28 -177.5q0 -102 -27.5 -177t-75 -123.5t-110 -72t-132.5 -23.5q-71 0 -133 23.5t-108.5 72t-73.5 123.5t-27 177zM410 59q54 0 99.5 21t78 61.5t51 100.5t18.5 137q0 79 -18 139
t-50.5 101t-78 62t-100.5 21q-54 0 -98.5 -20t-77 -60.5t-50.5 -101t-18 -141.5q0 -78 17.5 -138t49.5 -100.5t77 -61t100 -20.5zM331 970q5 -38 27.5 -57.5t55.5 -19.5t55.5 19t27.5 58h64q-3 -37 -15.5 -63.5t-32.5 -43.5t-46 -25t-56 -8q-29 0 -55 8t-46 25t-32.5 43.5
t-15.5 63.5h69z" />
    <glyph glyph-name="obreve" unicode="&#x14f;" horiz-adv-x="567" 
d="M282 -13q-58 0 -102 20t-73.5 56.5t-44.5 87.5t-15 113q0 61 16.5 112t47 87.5t74.5 56.5t99 20q59 0 103 -20t73.5 -56.5t44 -87.5t14.5 -112q0 -62 -16 -113t-47 -87.5t-75 -56.5t-99 -20zM283 471q-72 0 -107.5 -55t-35.5 -152t34 -152t111 -55q74 0 107.5 55
t33.5 152t-33.5 152t-109.5 55zM283 629q-31 0 -58.5 9t-47.5 28.5t-32 49.5t-12 72h69q0 -48 23.5 -72t60.5 -24t60.5 24t23.5 72h64q0 -42 -12 -72t-32 -49.5t-48 -28.5t-59 -9z" />
    <glyph glyph-name="Ohungarumlaut" unicode="&#x150;" horiz-adv-x="823" 
d="M68 380q0 103 28 177.5t75 123t109 72t130 23.5q70 0 132.5 -23.5t109.5 -72t75 -123t28 -177.5q0 -102 -27.5 -177t-75 -123.5t-110 -72t-132.5 -23.5q-71 0 -133 23.5t-108.5 72t-73.5 123.5t-27 177zM410 59q54 0 99.5 21t78 61.5t51 100.5t18.5 137q0 79 -18 139
t-50.5 101t-78 62t-100.5 21q-54 0 -98.5 -20t-77 -60.5t-50.5 -101t-18 -141.5q0 -78 17.5 -138t49.5 -100.5t77 -61t100 -20.5zM482 970h91l-67 -133h-57zM342 970h91l-67 -133h-57z" />
    <glyph glyph-name="ohungarumlaut" unicode="&#x151;" horiz-adv-x="567" 
d="M282 -13q-58 0 -102 20t-73.5 56.5t-44.5 87.5t-15 113q0 61 16.5 112t47 87.5t74.5 56.5t99 20q59 0 103 -20t73.5 -56.5t44 -87.5t14.5 -112q0 -62 -16 -113t-47 -87.5t-75 -56.5t-99 -20zM283 471q-72 0 -107.5 -55t-35.5 -152t34 -152t111 -55q74 0 107.5 55
t33.5 152t-33.5 152t-109.5 55zM375 788h91l-87 -162h-57zM235 788h91l-87 -162h-57z" />
    <glyph glyph-name="OE" unicode="&#x152;" horiz-adv-x="1209" 
d="M646 431q0 62 -15 112t-45 85.5t-74.5 54.5t-103.5 19q-54 0 -98.5 -20t-76.5 -60.5t-49.5 -101t-17.5 -141.5q0 -78 17.5 -138t49 -100.5t76 -61t99.5 -20.5q63 0 108 20t74 56.5t42.5 88t13.5 114.5v93zM645 99q-40 -62 -100 -88.5t-136 -26.5q-71 0 -133 23.5t-108 72
t-73 123.5t-27 177q0 103 27.5 177.5t74.5 123t109 72t130 23.5q77 0 138.5 -27t97.5 -88h1v104h479v-83h-386v-255h354v-81h-354v-263h391v-83h-484v99h-1z" />
    <glyph glyph-name="oe" unicode="&#x153;" horiz-adv-x="930" 
d="M790 316q-1 33 -8 61.5t-22.5 49.5t-40 33t-58.5 12q-63 0 -98 -45t-43 -117h270v6zM283 471q-72 0 -107.5 -55t-35.5 -152t34 -152t111 -55q74 0 107.5 55t33.5 152t-33.5 152t-109.5 55zM875 138q-14 -69 -69.5 -110t-140.5 -41q-78 0 -124 32.5t-69 89.5
q-25 -57 -71.5 -89.5t-118.5 -32.5q-58 0 -102 20t-73.5 56.5t-44.5 87.5t-15 113q0 61 16.5 112t47 87.5t74.5 56.5t99 20q76 0 122 -33t69 -90q24 57 69.5 90t117.5 33q59 0 101 -21t68.5 -56.5t38.5 -81.5t12 -96v-46h-363q4 -82 39.5 -132.5t109.5 -50.5q33 0 54.5 8.5
t35 21t20.5 26.5t10 26h87z" />
    <glyph glyph-name="Racute" unicode="&#x154;" horiz-adv-x="692" 
d="M373 401q34 0 62.5 8.5t49.5 26.5t33 46t12 67q0 71 -43.5 105.5t-109.5 34.5h-180v-288h176zM367 324h-170v-324h-93v765h277q83 0 148 -34q46 -26 72.5 -70.5t26.5 -110.5q0 -54 -16 -91t-40 -61.5t-53 -38t-55 -20.5v-2l169 -337h-108zM366 960h105l-94 -133h-71z" />
    <glyph glyph-name="racute" unicode="&#x155;" horiz-adv-x="391" 
d="M94 527h85v-99h2q9 21 25.5 40.5t38 34.5t48 24.5t55.5 9.5h9v-94h-17q-71 0 -113.5 -39.5t-42.5 -116.5v-287h-90v527zM243 788h101l-87 -162h-67z" />
    <glyph glyph-name="Rcommaaccent" unicode="&#x156;" horiz-adv-x="692" 
d="M373 401q34 0 62.5 8.5t49.5 26.5t33 46t12 67q0 71 -43.5 105.5t-109.5 34.5h-180v-288h176zM367 324h-170v-324h-93v765h277q83 0 148 -34q46 -26 72.5 -70.5t26.5 -110.5q0 -54 -16 -91t-40 -61.5t-53 -38t-55 -20.5v-2l169 -337h-108zM297 -69h97l-62 -137h-57z" />
    <glyph glyph-name="rcommaaccent" unicode="&#x157;" horiz-adv-x="391" 
d="M94 527h85v-99h2q9 21 25.5 40.5t38 34.5t48 24.5t55.5 9.5h9v-94h-17q-71 0 -113.5 -39.5t-42.5 -116.5v-287h-90v527zM90 -69h97l-62 -137h-57z" />
    <glyph glyph-name="Rcaron" unicode="&#x158;" horiz-adv-x="692" 
d="M373 401q34 0 62.5 8.5t49.5 26.5t33 46t12 67q0 71 -43.5 105.5t-109.5 34.5h-180v-288h176zM367 324h-170v-324h-93v765h277q83 0 148 -34q46 -26 72.5 -70.5t26.5 -110.5q0 -54 -16 -91t-40 -61.5t-53 -38t-55 -20.5v-2l169 -337h-108zM182 960h83l75 -76h1l75 76h74
l-107 -133h-94z" />
    <glyph glyph-name="rcaron" unicode="&#x159;" horiz-adv-x="391" 
d="M94 527h85v-99h2q9 21 25.5 40.5t38 34.5t48 24.5t55.5 9.5h9v-94h-17q-71 0 -113.5 -39.5t-42.5 -116.5v-287h-90v527zM65 788h80l78 -101h1l78 101h71l-107 -162h-94z" />
    <glyph glyph-name="Sacute" unicode="&#x15a;" horiz-adv-x="714" 
d="M522 560q-3 28 -13.5 54t-29.5 45.5t-47.5 31t-68.5 11.5q-39 0 -69 -10.5t-50 -28.5t-30.5 -42t-10.5 -51q0 -53 30 -83.5t98 -43.5l108 -19q56 -10 94.5 -28.5t62 -45t34 -60.5t10.5 -75q0 -105 -70.5 -167.5t-207.5 -62.5q-66 0 -118 17t-88.5 47.5t-56.5 72.5t-23 93
h97q4 -31 17 -59t36.5 -49.5t57.5 -34t80 -12.5q51 0 85.5 11.5t56 31.5t30.5 47t9 57q0 50 -29.5 83t-100.5 45l-107 19q-56 10 -95 30t-63 47t-34.5 60t-10.5 71q0 46 18.5 85.5t52 68t81.5 44.5t107 16q61 0 107 -15.5t77.5 -44t48.5 -68t20 -88.5h-95zM382 960h105
l-94 -133h-71z" />
    <glyph glyph-name="sacute" unicode="&#x15b;" horiz-adv-x="503" 
d="M354 395q-4 35 -31 56t-74 21t-75 -24t-28 -61q0 -32 19.5 -48.5t59.5 -23.5l81 -12q82 -13 116 -49t34 -104q0 -40 -15.5 -70.5t-42.5 -51t-65 -31t-83 -10.5q-41 0 -77.5 9.5t-64 29t-44.5 50.5t-20 73h88q1 -15 7 -31.5t19.5 -30t36 -22.5t57.5 -9q54 0 85.5 23.5
t31.5 65.5q0 16 -3 28t-11.5 21.5t-25 16t-43.5 11.5l-81 12q-71 11 -107.5 44t-36.5 102q0 35 13 64.5t37.5 50.5t60 33t80.5 12q86 0 133.5 -38t54.5 -107h-86zM268 788h101l-87 -162h-67z" />
    <glyph glyph-name="Scircumflex" unicode="&#x15c;" horiz-adv-x="714" 
d="M522 560q-3 28 -13.5 54t-29.5 45.5t-47.5 31t-68.5 11.5q-39 0 -69 -10.5t-50 -28.5t-30.5 -42t-10.5 -51q0 -53 30 -83.5t98 -43.5l108 -19q56 -10 94.5 -28.5t62 -45t34 -60.5t10.5 -75q0 -105 -70.5 -167.5t-207.5 -62.5q-66 0 -118 17t-88.5 47.5t-56.5 72.5t-23 93
h97q4 -31 17 -59t36.5 -49.5t57.5 -34t80 -12.5q51 0 85.5 11.5t56 31.5t30.5 47t9 57q0 50 -29.5 83t-100.5 45l-107 19q-56 10 -95 30t-63 47t-34.5 60t-10.5 71q0 46 18.5 85.5t52 68t81.5 44.5t107 16q61 0 107 -15.5t77.5 -44t48.5 -68t20 -88.5h-95zM516 827h-83
l-75 76h-1l-75 -76h-74l107 133h94z" />
    <glyph glyph-name="scircumflex" unicode="&#x15d;" horiz-adv-x="503" 
d="M354 395q-4 35 -31 56t-74 21t-75 -24t-28 -61q0 -32 19.5 -48.5t59.5 -23.5l81 -12q82 -13 116 -49t34 -104q0 -40 -15.5 -70.5t-42.5 -51t-65 -31t-83 -10.5q-41 0 -77.5 9.5t-64 29t-44.5 50.5t-20 73h88q1 -15 7 -31.5t19.5 -30t36 -22.5t57.5 -9q54 0 85.5 23.5
t31.5 65.5q0 16 -3 28t-11.5 21.5t-25 16t-43.5 11.5l-81 12q-71 11 -107.5 44t-36.5 102q0 35 13 64.5t37.5 50.5t60 33t80.5 12q86 0 133.5 -38t54.5 -107h-86zM408 626h-80l-78 101h-1l-78 -101h-71l107 162h94z" />
    <glyph glyph-name="Scedilla" unicode="&#x15e;" horiz-adv-x="714" 
d="M354 -212q-46 0 -64.5 20t-20.5 46h57q5 -22 30 -22q17 0 24.5 9.5t7.5 26.5q0 16 -7.5 26t-24.5 10t-27 -12h-54l45 95q-114 11 -176.5 72.5t-67.5 155.5h97q4 -31 17 -59t36.5 -49.5t57.5 -34t80 -12.5q51 0 85.5 11.5t56 31.5t30.5 47t9 57q0 50 -29.5 83t-100.5 45
l-107 19q-56 10 -95 30t-63 47t-34.5 60t-10.5 71q0 46 18.5 85.5t52 68t81.5 44.5t107 16q61 0 107 -15.5t77.5 -44t48.5 -68t20 -88.5h-95q-3 28 -13.5 54t-29.5 45.5t-47.5 31t-68.5 11.5q-39 0 -69 -10.5t-50 -28.5t-30.5 -42t-10.5 -51q0 -53 30 -83.5t98 -43.5
l108 -19q56 -10 94.5 -28.5t62 -45t34 -60.5t10.5 -75q0 -105 -70.5 -167.5t-206.5 -62.5l-25 -51h2q5 5 14 8t22 3q33 0 52 -20.5t19 -55.5q0 -31 -22.5 -56t-70.5 -25z" />
    <glyph glyph-name="scedilla" unicode="&#x15f;" horiz-adv-x="503" 
d="M246 -212q-46 0 -64.5 20t-20.5 46h57q5 -22 30 -22q17 0 24.5 9.5t7.5 26.5q0 16 -7.5 26t-24.5 10t-27 -12h-54l46 97q-35 4 -64.5 15.5t-52 31t-36.5 47.5t-16 66h88q1 -15 7 -31.5t19.5 -30t36 -22.5t57.5 -9q54 0 85.5 23.5t31.5 65.5q0 16 -3 28t-11.5 21.5t-25 16
t-43.5 11.5l-81 12q-71 11 -107.5 44t-36.5 102q0 35 13 64.5t37.5 50.5t60 33t80.5 12q86 0 133.5 -38t54.5 -107h-86q-4 35 -31 56t-74 21t-75 -24t-28 -61q0 -32 19.5 -48.5t59.5 -23.5l81 -12q82 -13 116 -49t34 -104q0 -40 -15 -70.5t-42 -51t-63.5 -31t-79.5 -10.5
l-26 -53h2q5 5 14 8t22 3q33 0 52 -20.5t19 -55.5q0 -31 -22.5 -56t-70.5 -25z" />
    <glyph glyph-name="Scaron" unicode="&#x160;" horiz-adv-x="714" 
d="M522 560q-3 28 -13.5 54t-29.5 45.5t-47.5 31t-68.5 11.5q-39 0 -69 -10.5t-50 -28.5t-30.5 -42t-10.5 -51q0 -53 30 -83.5t98 -43.5l108 -19q56 -10 94.5 -28.5t62 -45t34 -60.5t10.5 -75q0 -105 -70.5 -167.5t-207.5 -62.5q-66 0 -118 17t-88.5 47.5t-56.5 72.5t-23 93
h97q4 -31 17 -59t36.5 -49.5t57.5 -34t80 -12.5q51 0 85.5 11.5t56 31.5t30.5 47t9 57q0 50 -29.5 83t-100.5 45l-107 19q-56 10 -95 30t-63 47t-34.5 60t-10.5 71q0 46 18.5 85.5t52 68t81.5 44.5t107 16q61 0 107 -15.5t77.5 -44t48.5 -68t20 -88.5h-95zM203 960h83
l75 -76h1l75 76h74l-107 -133h-94z" />
    <glyph glyph-name="scaron" unicode="&#x161;" horiz-adv-x="503" 
d="M354 395q-4 35 -31 56t-74 21t-75 -24t-28 -61q0 -32 19.5 -48.5t59.5 -23.5l81 -12q82 -13 116 -49t34 -104q0 -40 -15.5 -70.5t-42.5 -51t-65 -31t-83 -10.5q-41 0 -77.5 9.5t-64 29t-44.5 50.5t-20 73h88q1 -15 7 -31.5t19.5 -30t36 -22.5t57.5 -9q54 0 85.5 23.5
t31.5 65.5q0 16 -3 28t-11.5 21.5t-25 16t-43.5 11.5l-81 12q-71 11 -107.5 44t-36.5 102q0 35 13 64.5t37.5 50.5t60 33t80.5 12q86 0 133.5 -38t54.5 -107h-86zM90 788h80l78 -101h1l78 101h71l-107 -162h-94z" />
    <glyph glyph-name="Tcommaaccent" unicode="&#x162;" horiz-adv-x="653" 
d="M638 684h-265v-684h-93v684h-265v81h623v-81zM281 -69h97l-62 -137h-57z" />
    <glyph glyph-name="tcommaaccent" unicode="&#x163;" horiz-adv-x="363" 
d="M205 680v-153h130v-69h-130v-311q0 -42 18.5 -60t61.5 -18q10 0 20.5 0.5t18.5 1.5q10 1 19 3v-76q-11 -2 -24 -3q-23 -3 -59 -3q-78 0 -111 36t-33 104v326h-96v66h16q27 0 43.5 4t26.5 17t13.5 36t3.5 61v38h82zM190 -69h97l-62 -137h-57z" />
    <glyph glyph-name="Tcaron" unicode="&#x164;" horiz-adv-x="653" 
d="M638 684h-265v-684h-93v684h-265v81h623v-81zM166 960h83l75 -76h1l75 76h74l-107 -133h-94z" />
    <glyph glyph-name="tcaron" unicode="&#x165;" horiz-adv-x="363" 
d="M205 680v-153h130v-69h-130v-311q0 -42 18.5 -60t61.5 -18q10 0 20.5 0.5t18.5 1.5q10 1 19 3v-76q-11 -2 -24 -3q-23 -3 -59 -3q-78 0 -111 36t-33 104v326h-96v66h16q27 0 43.5 4t26.5 17t13.5 36t3.5 61v38h82zM304 788h86l-47 -162h-56z" />
    <glyph glyph-name="Tbar" unicode="&#x166;" horiz-adv-x="653" 
d="M373 0h-93v426h-200v67h200v191h-265v81h623v-81h-265v-191h200v-67h-200v-426z" />
    <glyph glyph-name="tbar" unicode="&#x167;" horiz-adv-x="363" 
d="M343 -2q-11 -2 -24 -3q-23 -3 -59 -3q-78 0 -111 36t-33 104v119h-96v69h96v138h-96v66h16q27 0 43.5 4t26.5 17t13.5 36t3.5 61v38h82v-153h130v-69h-130v-138h130v-69h-130v-104q0 -42 18.5 -60t61.5 -18q10 0 20.5 0.5t18.5 1.5q10 1 19 3v-76z" />
    <glyph glyph-name="Utilde" unicode="&#x168;" horiz-adv-x="764" 
d="M92 765h93v-440q0 -26 0.5 -54t4.5 -54t12 -49.5t22 -41.5q27 -34 67 -49.5t93 -15.5t93.5 15.5t66.5 49.5q14 18 21.5 41.5t10.5 49.5t3.5 54t0.5 54v440h92v-510q0 -72 -21 -123t-59 -84t-91.5 -48t-118.5 -15q-66 0 -119.5 15t-91.5 47.5t-58.5 83.5t-20.5 124v510z
M205 827q0 26 6.5 50.5t19.5 43t33 30t46 11.5q25 0 46 -10t39 -21.5t33.5 -21.5t28.5 -10q39 0 47 65h56q0 -26 -6.5 -50.5t-19.5 -43.5t-33 -30t-46 -11q-25 0 -45.5 9.5t-38.5 21.5t-33.5 21.5t-30.5 9.5q-38 0 -46 -64h-56z" />
    <glyph glyph-name="utilde" unicode="&#x169;" horiz-adv-x="608" 
d="M181 203q0 -29 2.5 -58.5t16.5 -48.5q26 -35 81 -35q74 0 109 46.5t35 134.5v285h90v-527h-86v90h-2q-9 -20 -24.5 -39t-36.5 -33t-47.5 -22.5t-57.5 -8.5q-76 0 -122.5 40t-46.5 133v367h89v-324zM126 624q0 26 6.5 50.5t19.5 43t33 30t46 11.5q25 0 46 -10t39 -21.5
t33.5 -21.5t28.5 -10q39 0 47 65h56q0 -26 -6.5 -50.5t-19.5 -43.5t-33 -30t-46 -11q-25 0 -45.5 9.5t-38.5 21.5t-33.5 21.5t-30.5 9.5q-38 0 -46 -64h-56z" />
    <glyph glyph-name="Umacron" unicode="&#x16a;" horiz-adv-x="764" 
d="M92 765h93v-440q0 -26 0.5 -54t4.5 -54t12 -49.5t22 -41.5q27 -34 67 -49.5t93 -15.5t93.5 15.5t66.5 49.5q14 18 21.5 41.5t10.5 49.5t3.5 54t0.5 54v440h92v-510q0 -72 -21 -123t-59 -84t-91.5 -48t-118.5 -15q-66 0 -119.5 15t-91.5 47.5t-58.5 83.5t-20.5 124v510z
M236 925h292v-73h-292v73z" />
    <glyph glyph-name="umacron" unicode="&#x16b;" horiz-adv-x="608" 
d="M181 203q0 -29 2.5 -58.5t16.5 -48.5q26 -35 81 -35q74 0 109 46.5t35 134.5v285h90v-527h-86v90h-2q-9 -20 -24.5 -39t-36.5 -33t-47.5 -22.5t-57.5 -8.5q-76 0 -122.5 40t-46.5 133v367h89v-324zM157 719h292v-73h-292v73z" />
    <glyph glyph-name="Ubreve" unicode="&#x16c;" horiz-adv-x="764" 
d="M92 765h93v-440q0 -26 0.5 -54t4.5 -54t12 -49.5t22 -41.5q27 -34 67 -49.5t93 -15.5t93.5 15.5t66.5 49.5q14 18 21.5 41.5t10.5 49.5t3.5 54t0.5 54v440h92v-510q0 -72 -21 -123t-59 -84t-91.5 -48t-118.5 -15q-66 0 -119.5 15t-91.5 47.5t-58.5 83.5t-20.5 124v510z
M302 970q5 -38 27.5 -57.5t55.5 -19.5t55.5 19t27.5 58h64q-3 -37 -15.5 -63.5t-32.5 -43.5t-46 -25t-56 -8q-29 0 -55 8t-46 25t-32.5 43.5t-15.5 63.5h69z" />
    <glyph glyph-name="ubreve" unicode="&#x16d;" horiz-adv-x="608" 
d="M181 203q0 -29 2.5 -58.5t16.5 -48.5q26 -35 81 -35q74 0 109 46.5t35 134.5v285h90v-527h-86v90h-2q-9 -20 -24.5 -39t-36.5 -33t-47.5 -22.5t-57.5 -8.5q-76 0 -122.5 40t-46.5 133v367h89v-324zM303 629q-31 0 -58.5 9t-47.5 28.5t-32 49.5t-12 72h69q0 -48 23.5 -72
t60.5 -24t60.5 24t23.5 72h64q0 -42 -12 -72t-32 -49.5t-48 -28.5t-59 -9z" />
    <glyph glyph-name="Uring" unicode="&#x16e;" horiz-adv-x="764" 
d="M92 765h93v-440q0 -26 0.5 -54t4.5 -54t12 -49.5t22 -41.5q27 -34 67 -49.5t93 -15.5t93.5 15.5t66.5 49.5q14 18 21.5 41.5t10.5 49.5t3.5 54t0.5 54v440h92v-510q0 -72 -21 -123t-59 -84t-91.5 -48t-118.5 -15q-66 0 -119.5 15t-91.5 47.5t-58.5 83.5t-20.5 124v510z
M382 809q-52 0 -80.5 29.5t-28.5 77.5t30.5 77.5t79.5 29.5q53 0 81 -29.5t28 -77.5t-30 -77.5t-80 -29.5zM382 977q-23 0 -37.5 -17t-14.5 -44t14 -44t39 -17q23 0 37.5 17t14.5 44t-14 44t-39 17z" />
    <glyph glyph-name="uring" unicode="&#x16f;" horiz-adv-x="608" 
d="M181 203q0 -29 2.5 -58.5t16.5 -48.5q26 -35 81 -35q74 0 109 46.5t35 134.5v285h90v-527h-86v90h-2q-9 -20 -24.5 -39t-36.5 -33t-47.5 -22.5t-57.5 -8.5q-76 0 -122.5 40t-46.5 133v367h89v-324zM303 624q-52 0 -80.5 29.5t-28.5 77.5t30.5 77.5t79.5 29.5
q53 0 81 -29.5t28 -77.5t-30 -77.5t-80 -29.5zM303 792q-23 0 -37.5 -17t-14.5 -44t14 -44t39 -17q23 0 37.5 17t14.5 44t-14 44t-39 17z" />
    <glyph glyph-name="Uhungarumlaut" unicode="&#x170;" horiz-adv-x="764" 
d="M92 765h93v-440q0 -26 0.5 -54t4.5 -54t12 -49.5t22 -41.5q27 -34 67 -49.5t93 -15.5t93.5 15.5t66.5 49.5q14 18 21.5 41.5t10.5 49.5t3.5 54t0.5 54v440h92v-510q0 -72 -21 -123t-59 -84t-91.5 -48t-118.5 -15q-66 0 -119.5 15t-91.5 47.5t-58.5 83.5t-20.5 124v510z
M454 970h91l-67 -133h-57zM314 970h91l-67 -133h-57z" />
    <glyph glyph-name="uhungarumlaut" unicode="&#x171;" horiz-adv-x="608" 
d="M181 203q0 -29 2.5 -58.5t16.5 -48.5q26 -35 81 -35q74 0 109 46.5t35 134.5v285h90v-527h-86v90h-2q-9 -20 -24.5 -39t-36.5 -33t-47.5 -22.5t-57.5 -8.5q-76 0 -122.5 40t-46.5 133v367h89v-324zM394 788h91l-87 -162h-57zM254 788h91l-87 -162h-57z" />
    <glyph glyph-name="Uogonek" unicode="&#x172;" horiz-adv-x="764" 
d="M92 765h93v-440q0 -26 0.5 -54t4.5 -54t12 -49.5t22 -41.5q27 -34 67 -49.5t93 -15.5t93.5 15.5t66.5 49.5q14 18 21.5 41.5t10.5 49.5t3.5 54t0.5 54v440h92v-510q0 -67 -17 -113t-45 -76t-64 -46.5t-73 -25.5q-44 -10 -63 -31.5t-19 -44.5t15 -33t49 -11v-62h-18
q-60 0 -94 24t-34 69q0 27 14.5 47t34.5 34q-61 3 -110.5 19.5t-84 49t-53 82t-18.5 118.5v510z" />
    <glyph glyph-name="uogonek" unicode="&#x173;" horiz-adv-x="608" 
d="M497 -188q-30 0 -55.5 4.5t-43.5 15.5t-28.5 29t-10.5 44q0 18 7.5 33.5t18 27.5t22.5 20.5t22 13.5v90h-2q-9 -20 -24.5 -39t-36.5 -33t-47.5 -22.5t-57.5 -8.5q-76 0 -122.5 40t-46.5 133v367h89v-324q0 -29 2.5 -58.5t16.5 -48.5q26 -35 81 -35q74 0 109 46.5
t35 134.5v285h90v-520q-38 -23 -56 -43.5t-18 -45.5q0 -28 20 -35.5t54 -8.5v-62h-18z" />
    <glyph glyph-name="Wcircumflex" unicode="&#x174;" horiz-adv-x="1073" 
d="M256 0l-219 765h95l150 -542q15 -59 21 -90q4 -18 6 -32h2q1 14 5 32q6 33 21 89l147 543h108l148 -542q8 -29 13.5 -51.5t8.5 -38.5q4 -18 6 -32h2q1 14 5 32q3 16 8 38t13 51l149 543h91l-219 -765h-104l-150 533q-8 29 -13.5 51.5t-8.5 38.5q-4 18 -5 33h-2
q-2 -15 -6 -33q-6 -33 -21 -89l-148 -534h-103zM694 827h-83l-75 76h-1l-75 -76h-74l107 133h94z" />
    <glyph glyph-name="wcircumflex" unicode="&#x175;" horiz-adv-x="831" 
d="M27 527h92l102 -355q3 -13 6.5 -24.5t5.5 -21.5q3 -11 5 -21h2q2 10 6 21q3 10 6.5 21.5t7.5 23.5l112 356h92l111 -356q4 -12 7 -23.5t6 -21.5q3 -11 6 -21h2q2 10 5 21q2 10 5 21.5t7 23.5l104 356h87l-163 -527h-95l-96 310q-6 18 -11.5 37.5t-10.5 36.5q-5 19 -11 38
h-1q-6 -19 -11 -38q-5 -17 -11 -36.5t-11 -37.5l-97 -310h-95zM573 626h-80l-78 101h-1l-78 -101h-71l107 162h94z" />
    <glyph glyph-name="Ycircumflex" unicode="&#x176;" horiz-adv-x="653" 
d="M281 327l-270 438h108l207 -353h2l215 353h99l-269 -432v-333h-92v327zM484 827h-83l-75 76h-1l-75 -76h-74l107 133h94z" />
    <glyph glyph-name="ycircumflex" unicode="&#x177;" horiz-adv-x="520" 
d="M38 527h90l110 -330q6 -19 11 -34t8 -26q4 -12 7 -22h3q3 10 7 22q3 11 7.5 26t11.5 35l108 329h90l-192 -560q-16 -45 -31.5 -77t-37 -51.5t-50.5 -28.5t-72 -9q-15 0 -29 2t-25 4v74q13 -3 26 -4t20 -1q25 0 42.5 5t30 16.5t21.5 29.5t18 45l10 28zM422 626h-80
l-78 101h-1l-78 -101h-71l107 162h94z" />
    <glyph glyph-name="Ydieresis" unicode="&#x178;" horiz-adv-x="653" 
d="M281 327l-270 438h108l207 -353h2l215 353h99l-269 -432v-333h-92v327zM388 921h92v-99h-92v99zM172 921h92v-99h-92v99z" />
    <glyph glyph-name="Zacute" unicode="&#x179;" horiz-adv-x="654" 
d="M63 765h536v-71l-434 -612h442v-82h-560v71l435 612h-419v82zM351 960h105l-94 -133h-71z" />
    <glyph glyph-name="zacute" unicode="&#x17a;" horiz-adv-x="517" 
d="M66 527h397v-78l-309 -375h316v-74h-418v79l307 375h-293v73zM287 788h101l-87 -162h-67z" />
    <glyph glyph-name="Zdotaccent" unicode="&#x17b;" horiz-adv-x="654" 
d="M63 765h536v-71l-434 -612h442v-82h-560v71l435 612h-419v82zM280 936h95v-99h-95v99z" />
    <glyph glyph-name="zdotaccent" unicode="&#x17c;" horiz-adv-x="517" 
d="M66 527h397v-78l-309 -375h316v-74h-418v79l307 375h-293v73zM222 745h95v-99h-95v99z" />
    <glyph glyph-name="Zcaron" unicode="&#x17d;" horiz-adv-x="654" 
d="M63 765h536v-71l-434 -612h442v-82h-560v71l435 612h-419v82zM167 960h83l75 -76h1l75 76h74l-107 -133h-94z" />
    <glyph glyph-name="zcaron" unicode="&#x17e;" horiz-adv-x="517" 
d="M66 527h397v-78l-309 -375h316v-74h-418v79l307 375h-293v73zM109 788h80l78 -101h1l78 101h71l-107 -162h-94z" />
    <glyph glyph-name="florin" unicode="&#x192;" horiz-adv-x="420" 
d="M137 -189h-90l74 556h-101v69h111l23 175q13 95 62.5 134.5t123.5 39.5q15 0 27 -1.5t24 -3.5v-74q-8 2 -17.5 3t-26.5 1q-20 0 -36.5 -4t-30 -15t-22.5 -30.5t-13 -51.5l-23 -173h130v-69h-140z" />
    <glyph glyph-name="Aringacute" unicode="&#x1fa;" horiz-adv-x="736" 
d="M364 672q-1 -2 -3.5 -11t-7 -22.5t-9.5 -29.5t-11 -32l-95 -274h254l-96 274q-6 17 -11.5 34t-9.5 31q-5 16 -9 30h-2zM518 228h-306l-79 -228h-93l272 765h110l275 -765h-99zM367 809q-52 0 -80.5 29.5t-28.5 77.5t30.5 77.5t79.5 29.5q53 0 81 -29.5t28 -77.5
t-30 -77.5t-80 -29.5zM367 977q-23 0 -37.5 -17t-14.5 -44t14 -44t39 -17q23 0 37.5 17t14.5 44t-14 44t-39 17zM392 1186h105l-94 -133h-71z" />
    <glyph glyph-name="aringacute" unicode="&#x1fb;" horiz-adv-x="553" 
d="M230 64q25 0 51.5 9t48.5 29.5t36 54t14 82.5v12q-86 -4 -136.5 -12t-76.5 -27q-29 -22 -29 -65q0 -41 24.5 -62t67.5 -21zM74 383q2 70 53 113.5t146 43.5q99 0 147 -45t48 -151v-215q0 -32 9.5 -45.5t38.5 -14.5v-73h-11q-63 0 -88.5 23t-32.5 70h-2
q-21 -47 -65.5 -72.5t-103.5 -25.5q-79 0 -123 40t-44 111q0 44 19 78.5t60 54.5q42 22 104 31t151 12v23q0 72 -27 102t-83 30q-29 0 -49.5 -7.5t-33.5 -20.5t-19.5 -29t-7.5 -33h-86zM281 587q-52 0 -80.5 29.5t-28.5 77.5t30.5 77.5t79.5 29.5q53 0 81 -29.5t28 -77.5
t-30 -77.5t-80 -29.5zM281 755q-23 0 -37.5 -17t-14.5 -44t14 -44t39 -17q23 0 37.5 17t14.5 44t-14 44t-39 17zM310 974h105l-94 -133h-71z" />
    <glyph glyph-name="AEacute" unicode="&#x1fc;" horiz-adv-x="1081" 
d="M518 682h-80l-172 -379h252v379zM129 0h-96l352 765h612v-83h-386v-255h354v-81h-354v-263h391v-83h-484v228h-286zM591 960h105l-94 -133h-71z" />
    <glyph glyph-name="aeacute" unicode="&#x1fd;" horiz-adv-x="875" 
d="M735 316q-1 33 -8 61.5t-22.5 50t-40 33.5t-58.5 12q-33 0 -58 -13t-42.5 -35t-28 -51.5t-13.5 -63.5h271v6zM230 64q26 0 53 10t49 31.5t36 54.5t14 79v8q-86 -1 -137.5 -8.5t-77.5 -26.5q-29 -22 -29 -65q0 -41 24.5 -62t67.5 -21zM820 138q-14 -69 -69.5 -110
t-140.5 -41q-80 0 -129 34.5t-68 83.5h-3q-13 -23 -31 -44t-42 -36.5t-55 -24.5t-69 -9q-79 0 -123 40t-44 111q0 44 19 78.5t60 54.5q42 22 105 29.5t152 7.5v29q0 68 -28 100t-84 32q-29 0 -49.5 -7.5t-33.5 -20.5t-19.5 -29t-7.5 -33h-86q2 70 52.5 113.5t152.5 43.5
q68 0 104 -24t55 -65h3q23 40 64.5 64.5t104.5 24.5q59 0 100.5 -21.5t67.5 -57t37.5 -81.5t11.5 -95v-46h-364q5 -87 40.5 -135t109.5 -48q33 0 54.5 8.5t35 21t20.5 26.5t10 26h87zM472 788h101l-87 -162h-67z" />
    <glyph glyph-name="Oslashacute" unicode="&#x1fe;" horiz-adv-x="823" 
d="M410 702q-54 0 -98.5 -20t-77 -60.5t-50.5 -101t-18 -141.5q0 -118 35 -193l360 467q-59 49 -151 49zM410 59q54 0 99.5 21t78 61.5t51 100.5t18.5 137q0 72 -13 126.5t-37 94.5l-366 -475q31 -33 73.5 -49.5t95.5 -16.5zM755 380q0 -102 -27.5 -177t-75 -123.5t-110 -72
t-132.5 -23.5q-63 0 -119 18.5t-101 56.5l-65 -84h-87l105 136q-35 48 -55 114.5t-20 154.5q0 103 28 177.5t75 123t109 72t130 23.5q56 0 106.5 -14.5t93.5 -44.5l59 76h87l-94 -122q43 -49 68 -121t25 -170zM421 960h105l-94 -133h-71z" />
    <glyph glyph-name="oslashacute" unicode="&#x1ff;" horiz-adv-x="567" 
d="M283 471q-72 0 -107.5 -55t-35.5 -152q0 -36 3 -66t11 -53l227 293q-33 33 -98 33zM285 57q74 0 107.5 55t33.5 152q0 72 -13 117l-227 -292q35 -32 99 -32zM519 264q0 -62 -16 -113t-47 -87.5t-75 -56.5t-99 -20q-86 0 -141 43l-45 -57h-75l78 100q-26 36 -39 84.5
t-13 106.5q0 61 16.5 112t47 87.5t74.5 56.5t99 20q44 0 79.5 -11.5t62.5 -32.5l42 54h76l-76 -97q26 -36 38.5 -84t12.5 -105zM299 788h101l-87 -162h-67z" />
    <glyph glyph-name="Scommaaccent" unicode="&#x218;" horiz-adv-x="714" 
d="M522 560q-3 28 -13.5 54t-29.5 45.5t-47.5 31t-68.5 11.5q-39 0 -69 -10.5t-50 -28.5t-30.5 -42t-10.5 -51q0 -53 30 -83.5t98 -43.5l108 -19q56 -10 94.5 -28.5t62 -45t34 -60.5t10.5 -75q0 -105 -70.5 -167.5t-207.5 -62.5q-66 0 -118 17t-88.5 47.5t-56.5 72.5t-23 93
h97q4 -31 17 -59t36.5 -49.5t57.5 -34t80 -12.5q51 0 85.5 11.5t56 31.5t30.5 47t9 57q0 50 -29.5 83t-100.5 45l-107 19q-56 10 -95 30t-63 47t-34.5 60t-10.5 71q0 46 18.5 85.5t52 68t81.5 44.5t107 16q61 0 107 -15.5t77.5 -44t48.5 -68t20 -88.5h-95zM313 -69h97
l-62 -137h-57z" />
    <glyph glyph-name="scommaaccent" unicode="&#x219;" horiz-adv-x="503" 
d="M354 395q-4 35 -31 56t-74 21t-75 -24t-28 -61q0 -32 19.5 -48.5t59.5 -23.5l81 -12q82 -13 116 -49t34 -104q0 -40 -15.5 -70.5t-42.5 -51t-65 -31t-83 -10.5q-41 0 -77.5 9.5t-64 29t-44.5 50.5t-20 73h88q1 -15 7 -31.5t19.5 -30t36 -22.5t57.5 -9q54 0 85.5 23.5
t31.5 65.5q0 16 -3 28t-11.5 21.5t-25 16t-43.5 11.5l-81 12q-71 11 -107.5 44t-36.5 102q0 35 13 64.5t37.5 50.5t60 33t80.5 12q86 0 133.5 -38t54.5 -107h-86zM205 -69h97l-62 -137h-57z" />
    <glyph glyph-name="uni021A" unicode="&#x21a;" horiz-adv-x="653" 
d="M638 684h-265v-684h-93v684h-265v81h623v-81zM281 -69h97l-62 -137h-57z" />
    <glyph glyph-name="uni021B" unicode="&#x21b;" horiz-adv-x="363" 
d="M205 680v-153h130v-69h-130v-311q0 -42 18.5 -60t61.5 -18q10 0 20.5 0.5t18.5 1.5q10 1 19 3v-76q-11 -2 -24 -3q-23 -3 -59 -3q-78 0 -111 36t-33 104v326h-96v66h16q27 0 43.5 4t26.5 17t13.5 36t3.5 61v38h82zM190 -69h97l-62 -137h-57z" />
    <glyph glyph-name="uni0237" unicode="&#x237;" horiz-adv-x="279" 
d="M-21 -116q19 -6 46 -6q34 0 51.5 16.5t17.5 58.5v574h91v-581q0 -39 -12 -67t-32.5 -45t-48 -25t-59.5 -8q-15 0 -29 2t-25 5v76z" />
    <glyph glyph-name="circumflex" unicode="&#x2c6;" horiz-adv-x="369" 
d="M339 626h-80l-78 101h-1l-78 -101h-71l107 162h94z" />
    <glyph glyph-name="caron" unicode="&#x2c7;" horiz-adv-x="369" 
d="M31 788h80l78 -101h1l78 101h71l-107 -162h-94z" />
    <glyph glyph-name="breve" unicode="&#x2d8;" horiz-adv-x="369" 
d="M184 629q-31 0 -58.5 9t-47.5 28.5t-32 49.5t-12 72h69q0 -48 23.5 -72t60.5 -24t60.5 24t23.5 72h64q0 -42 -12 -72t-32 -49.5t-48 -28.5t-59 -9z" />
    <glyph glyph-name="dotaccent" unicode="&#x2d9;" horiz-adv-x="369" 
d="M137 745h95v-99h-95v99z" />
    <glyph glyph-name="ring" unicode="&#x2da;" horiz-adv-x="369" 
d="M188 624q-52 0 -80.5 29.5t-28.5 77.5t30.5 77.5t79.5 29.5q53 0 81 -29.5t28 -77.5t-30 -77.5t-80 -29.5zM188 792q-23 0 -37.5 -17t-14.5 -44t14 -44t39 -17q23 0 37.5 17t14.5 44t-14 44t-39 17z" />
    <glyph glyph-name="ogonek" unicode="&#x2db;" horiz-adv-x="369" 
d="M265 0q-28 -18 -45.5 -37.5t-17.5 -44.5q0 -23 15 -33t49 -11v-62h-18q-60 0 -94 24t-34 69q0 18 7 33.5t17.5 27.5t23 20.5t22.5 13.5h75z" />
    <glyph glyph-name="tilde" unicode="&#x2dc;" horiz-adv-x="369" 
d="M7 624q0 26 6.5 50.5t19.5 43t33 30t46 11.5q25 0 46 -10t39 -21.5t33.5 -21.5t28.5 -10q39 0 47 65h56q0 -26 -6.5 -50.5t-19.5 -43.5t-33 -30t-46 -11q-25 0 -45.5 9.5t-38.5 21.5t-33.5 21.5t-30.5 9.5q-38 0 -46 -64h-56z" />
    <glyph glyph-name="hungarumlaut" unicode="&#x2dd;" horiz-adv-x="369" 
d="M240 788h91l-87 -162h-57zM100 788h91l-87 -162h-57z" />
    <glyph glyph-name="Wgrave" unicode="&#x1e80;" horiz-adv-x="1073" 
d="M256 0l-219 765h95l150 -542q15 -59 21 -90q4 -18 6 -32h2q1 14 5 32q6 33 21 89l147 543h108l148 -542q8 -29 13.5 -51.5t8.5 -38.5q4 -18 6 -32h2q1 14 5 32q3 16 8 38t13 51l149 543h91l-219 -765h-104l-150 533q-8 29 -13.5 51.5t-8.5 38.5q-4 18 -5 33h-2
q-2 -15 -6 -33q-6 -33 -21 -89l-148 -534h-103zM571 827h-71l-94 133h105z" />
    <glyph glyph-name="wgrave" unicode="&#x1e81;" horiz-adv-x="831" 
d="M27 527h92l102 -355q3 -13 6.5 -24.5t5.5 -21.5q3 -11 5 -21h2q2 10 6 21q3 10 6.5 21.5t7.5 23.5l112 356h92l111 -356q4 -12 7 -23.5t6 -21.5q3 -11 6 -21h2q2 10 5 21q2 10 5 21.5t7 23.5l104 356h87l-163 -527h-95l-96 310q-6 18 -11.5 37.5t-10.5 36.5q-5 19 -11 38
h-1q-6 -19 -11 -38q-5 -17 -11 -36.5t-11 -37.5l-97 -310h-95zM450 626h-66l-88 162h101z" />
    <glyph glyph-name="Wacute" unicode="&#x1e82;" horiz-adv-x="1073" 
d="M256 0l-219 765h95l150 -542q15 -59 21 -90q4 -18 6 -32h2q1 14 5 32q6 33 21 89l147 543h108l148 -542q8 -29 13.5 -51.5t8.5 -38.5q4 -18 6 -32h2q1 14 5 32q3 16 8 38t13 51l149 543h91l-219 -765h-104l-150 533q-8 29 -13.5 51.5t-8.5 38.5q-4 18 -5 33h-2
q-2 -15 -6 -33q-6 -33 -21 -89l-148 -534h-103zM560 960h105l-94 -133h-71z" />
    <glyph glyph-name="wacute" unicode="&#x1e83;" horiz-adv-x="831" 
d="M27 527h92l102 -355q3 -13 6.5 -24.5t5.5 -21.5q3 -11 5 -21h2q2 10 6 21q3 10 6.5 21.5t7.5 23.5l112 356h92l111 -356q4 -12 7 -23.5t6 -21.5q3 -11 6 -21h2q2 10 5 21q2 10 5 21.5t7 23.5l104 356h87l-163 -527h-95l-96 310q-6 18 -11.5 37.5t-10.5 36.5q-5 19 -11 38
h-1q-6 -19 -11 -38q-5 -17 -11 -36.5t-11 -37.5l-97 -310h-95zM433 788h101l-87 -162h-67z" />
    <glyph glyph-name="Wdieresis" unicode="&#x1e84;" horiz-adv-x="1073" 
d="M256 0l-219 765h95l150 -542q15 -59 21 -90q4 -18 6 -32h2q1 14 5 32q6 33 21 89l147 543h108l148 -542q8 -29 13.5 -51.5t8.5 -38.5q4 -18 6 -32h2q1 14 5 32q3 16 8 38t13 51l149 543h91l-219 -765h-104l-150 533q-8 29 -13.5 51.5t-8.5 38.5q-4 18 -5 33h-2
q-2 -15 -6 -33q-6 -33 -21 -89l-148 -534h-103zM598 921h92v-99h-92v99zM382 921h92v-99h-92v99z" />
    <glyph glyph-name="wdieresis" unicode="&#x1e85;" horiz-adv-x="831" 
d="M27 527h92l102 -355q3 -13 6.5 -24.5t5.5 -21.5q3 -11 5 -21h2q2 10 6 21q3 10 6.5 21.5t7.5 23.5l112 356h92l111 -356q4 -12 7 -23.5t6 -21.5q3 -11 6 -21h2q2 10 5 21q2 10 5 21.5t7 23.5l104 356h87l-163 -527h-95l-96 310q-6 18 -11.5 37.5t-10.5 36.5q-5 19 -11 38
h-1q-6 -19 -11 -38q-5 -17 -11 -36.5t-11 -37.5l-97 -310h-95zM467 745h92v-99h-92v99zM271 745h92v-99h-92v99z" />
    <glyph glyph-name="Ygrave" unicode="&#x1ef2;" horiz-adv-x="653" 
d="M281 327l-270 438h108l207 -353h2l215 353h99l-269 -432v-333h-92v327zM361 827h-71l-94 133h105z" />
    <glyph glyph-name="ygrave" unicode="&#x1ef3;" horiz-adv-x="520" 
d="M38 527h90l110 -330q6 -19 11 -34t8 -26q4 -12 7 -22h3q3 10 7 22q3 11 7.5 26t11.5 35l108 329h90l-192 -560q-16 -45 -31.5 -77t-37 -51.5t-50.5 -28.5t-72 -9q-15 0 -29 2t-25 4v74q13 -3 26 -4t20 -1q25 0 42.5 5t30 16.5t21.5 29.5t18 45l10 28zM299 626h-66
l-88 162h101z" />
    <glyph glyph-name="uni2009" unicode="&#x2009;" horiz-adv-x="100" 
 />
    <glyph glyph-name="endash" unicode="&#x2013;" horiz-adv-x="550" 
d="M60 363h430v-71h-430v71z" />
    <glyph glyph-name="emdash" unicode="&#x2014;" horiz-adv-x="900" 
d="M60 363h780v-71h-780v71z" />
    <glyph glyph-name="quoteleft" unicode="&#x2018;" horiz-adv-x="229" 
d="M141 545h-111l91 220h64z" />
    <glyph glyph-name="quoteright" unicode="&#x2019;" horiz-adv-x="229" 
d="M88 765h111l-91 -221h-64z" />
    <glyph glyph-name="quotesinglbase" unicode="&#x201a;" horiz-adv-x="229" 
d="M94 108h111l-91 -221h-64z" />
    <glyph glyph-name="quotedblleft" unicode="&#x201c;" horiz-adv-x="395" 
d="M307 545h-111l91 220h64zM141 545h-111l91 220h64z" />
    <glyph glyph-name="quotedblright" unicode="&#x201d;" horiz-adv-x="394" 
d="M254 765h110l-90 -221h-65zM88 765h111l-91 -221h-64z" />
    <glyph glyph-name="quotedblbase" unicode="&#x201e;" horiz-adv-x="395" 
d="M260 108h110l-90 -221h-65zM94 108h111l-91 -221h-64z" />
    <glyph glyph-name="dagger" unicode="&#x2020;" horiz-adv-x="326" 
d="M199 290h-71v307h-94v66h94v102h71v-102h93v-66h-93v-307z" />
    <glyph glyph-name="daggerdbl" unicode="&#x2021;" horiz-adv-x="326" 
d="M199 290h-71v102h-94v66h94v139h-94v66h94v102h71v-102h94v-66h-94v-139h94v-66h-94v-102z" />
    <glyph glyph-name="bullet" unicode="&#x2022;" horiz-adv-x="328" 
d="M163 199q-47 0 -76.5 29.5t-29.5 79.5q0 24 8.5 44t23 34.5t34 22.5t41.5 8q48 0 77.5 -30.5t29.5 -78.5q0 -50 -31.5 -79.5t-76.5 -29.5z" />
    <glyph glyph-name="ellipsis" unicode="&#x2026;" horiz-adv-x="794" 
d="M614 122h122v-122h-122v122zM336 122h122v-122h-122v122zM58 122h122v-122h-122v122z" />
    <glyph glyph-name="perthousand" unicode="&#x2030;" horiz-adv-x="1282" 
d="M680 781h84l-547 -821h-84zM234 381q-36 0 -66.5 11.5t-53.5 34t-36 56.5t-13 79t13.5 79t36.5 56.5t53.5 33.5t65.5 11t66 -11t54 -33.5t36.5 -56.5t13.5 -79t-13.5 -79t-36.5 -56.5t-54 -34t-66 -11.5zM233 445q41 0 65 29t24 88q0 60 -24 89t-65 29q-42 0 -65 -28.5
t-23 -89.5q0 -60 23 -88.5t65 -28.5zM1047 -7q-36 0 -66.5 11.5t-53.5 34t-36 56.5t-13 79t13.5 79t36.5 56.5t53.5 33.5t65.5 11t66 -11t54 -33.5t36.5 -56.5t13.5 -79t-13.5 -79t-36.5 -56.5t-54 -34t-66 -11.5zM656 -7q-36 0 -66.5 11.5t-53.5 34t-36 56.5t-13 79
t13.5 79t36.5 56.5t53.5 33.5t65.5 11t66 -11t54 -33.5t36.5 -56.5t13.5 -79t-13.5 -79t-36.5 -56.5t-54 -34t-66 -11.5zM1046 57q41 0 65 29t24 88q0 60 -24 89t-65 29q-42 0 -65 -28.5t-23 -89.5q0 -60 23 -88.5t65 -28.5zM655 57q41 0 65 29t24 88q0 60 -24 89t-65 29
q-42 0 -65 -28.5t-23 -89.5q0 -60 23 -88.5t65 -28.5z" />
    <glyph glyph-name="uni2032" unicode="&#x2032;" horiz-adv-x="229" 
d="M70 765h111l-55 -221h-64z" />
    <glyph glyph-name="uni2033" unicode="&#x2033;" horiz-adv-x="394" 
d="M236 765h110l-54 -221h-65zM70 765h111l-55 -221h-64z" />
    <glyph glyph-name="guilsinglleft" unicode="&#x2039;" horiz-adv-x="339" 
d="M258 464l-104 -206l106 -201h-85l-114 204l113 203h84z" />
    <glyph glyph-name="guilsinglright" unicode="&#x203a;" horiz-adv-x="339" 
d="M80 57l105 206l-106 201h85l113 -203l-112 -204h-85z" />
    <glyph glyph-name="fraction" unicode="&#x2044;" horiz-adv-x="231" 
d="M350 781h78l-547 -821h-78z" />
    <glyph glyph-name="Euro" unicode="&#x20ac;" horiz-adv-x="666" 
d="M621 207q-3 -49 -20.5 -90t-48.5 -70.5t-74.5 -46t-98.5 -16.5q-53 0 -97 15t-77.5 47.5t-56 83t-32.5 121.5h-84v71h77q-1 11 -1 22.5v23.5v23t1 22h-79v71h86q22 136 91.5 202t171.5 66q45 0 86.5 -14t73.5 -42.5t52.5 -70.5t23.5 -97h-89q-3 27 -14 54t-29.5 48
t-44.5 34.5t-59 13.5q-72 0 -114 -50t-56 -144h232v-71h-239q-1 -11 -1 -22v-23v-23.5t1 -22.5h241v-71h-234q15 -97 57 -146t113 -49q36 0 63.5 12t46.5 32t29.5 47.5t13.5 59.5h89z" />
    <glyph glyph-name="trademark" unicode="&#x2122;" horiz-adv-x="699" 
d="M271 716h-94v-257h-59v257h-94v49h247v-49zM325 765h86l62 -178q6 -21 9 -33q2 -7 2 -13h3q1 6 3 13q2 6 3.5 14t5.5 19l63 178h86v-306h-58v236h-4q-2 -8 -5 -18q-2 -8 -5 -19.5t-8 -24.5l-60 -174h-49l-60 173q-5 13 -8 25l-5 20q-3 10 -4 18h-4v-236h-53v306z" />
    <glyph glyph-name="onethird" unicode="&#x2153;" horiz-adv-x="869" 
d="M119 635h-89v50h11q43 0 66 20q21 19 22 60h64v-431h-74v301zM621 189v58h39q32 0 54 18.5t22 47.5q0 30 -22 47t-54 17q-77 0 -80 -72h-76q0 25 9.5 48.5t29 42t49 29.5t70.5 11q72 0 111 -33t39 -82q0 -34 -21 -59.5t-56 -37.5v-2q37 -8 63 -33.5t26 -72.5
q0 -25 -10.5 -47.5t-31.5 -40t-51.5 -27.5t-70.5 -10q-43 0 -73.5 11t-50 29.5t-29.5 42t-11 49.5h77q5 -37 30 -55t60 -18q36 0 61 19.5t25 50.5q0 33 -22.5 51t-63.5 18h-42zM604 781h78l-547 -821h-78z" />
    <glyph glyph-name="twothirds" unicode="&#x2154;" horiz-adv-x="962" 
d="M34 625q1 69 44.5 107t115.5 38q40 0 68.5 -10t47 -26.5t27 -38t8.5 -45.5q0 -23 -6 -42t-18.5 -37t-32 -37t-46.5 -43l-105 -94v-1h216v-62h-323v50l155 144q40 35 60.5 61t20.5 57q0 29 -19.5 47t-54.5 18q-16 0 -30.5 -4.5t-26 -14.5t-18 -26.5t-6.5 -40.5h-77z
M714 189v58h39q32 0 54 18.5t22 47.5q0 30 -22 47t-54 17q-77 0 -80 -72h-76q0 25 9.5 48.5t29 42t49 29.5t70.5 11q72 0 111 -33t39 -82q0 -34 -21 -59.5t-56 -37.5v-2q37 -8 63 -33.5t26 -72.5q0 -25 -10.5 -47.5t-31.5 -40t-51.5 -27.5t-70.5 -10q-43 0 -73.5 11
t-50 29.5t-29.5 42t-11 49.5h77q5 -37 30 -55t60 -18q36 0 61 19.5t25 50.5q0 33 -22.5 51t-63.5 18h-42zM719 781h78l-547 -821h-78z" />
    <glyph glyph-name="oneeighth" unicode="&#x215b;" horiz-adv-x="880" 
d="M119 635h-89v50h11q43 0 66 20q21 19 22 60h64v-431h-74v301zM518 319q0 50 37.5 83.5t111.5 33.5t111.5 -33.5t37.5 -84.5q0 -39 -20.5 -63t-49.5 -33v-2q34 -8 59 -32t25 -72q0 -26 -11 -49t-31.5 -40t-51 -26.5t-69.5 -9.5q-80 0 -121.5 35.5t-41.5 89.5q0 23 7 41
t19 30.5t27 20.5t31 12v2q-29 9 -49.5 33t-20.5 64zM667 381q-32 0 -54 -16.5t-22 -51.5t22 -52t54 -17q31 0 53 17t22 52t-21.5 51.5t-53.5 16.5zM667 45q38 0 63.5 17.5t25.5 55.5t-25.5 55.5t-63.5 17.5q-36 0 -62.5 -17.5t-26.5 -55.5t26.5 -55.5t62.5 -17.5zM608 781
h78l-547 -821h-78z" />
    <glyph glyph-name="threeeighths" unicode="&#x215c;" horiz-adv-x="963" 
d="M165 523v58h39q32 0 54 18.5t22 47.5q0 30 -22 47t-54 17q-77 0 -80 -72h-76q0 25 9.5 48.5t29 42t49 29.5t70.5 11q72 0 111 -33t39 -82q0 -34 -21 -59.5t-56 -37.5v-2q37 -8 63 -33.5t26 -72.5q0 -25 -10.5 -47.5t-31.5 -40t-51.5 -27.5t-70.5 -10q-43 0 -73.5 11
t-50 29.5t-29.5 42t-11 49.5h77q5 -37 30 -55t60 -18q36 0 61 19.5t25 50.5q0 33 -22.5 51t-63.5 18h-42zM601 324q0 50 37.5 83.5t111.5 33.5t111.5 -33.5t37.5 -84.5q0 -39 -20.5 -63t-49.5 -33v-2q34 -8 59 -32t25 -72q0 -26 -11 -49t-31.5 -40t-51 -26.5t-69.5 -9.5
q-80 0 -121.5 35.5t-41.5 89.5q0 23 7 41t19 30.5t27 20.5t31 12v2q-29 9 -49.5 33t-20.5 64zM750 386q-32 0 -54 -16.5t-22 -51.5t22 -52t54 -17q31 0 53 17t22 52t-21.5 51.5t-53.5 16.5zM750 50q38 0 63.5 17.5t25.5 55.5t-25.5 55.5t-63.5 17.5q-36 0 -62.5 -17.5
t-26.5 -55.5t26.5 -55.5t62.5 -17.5zM709 781h78l-547 -821h-78z" />
    <glyph glyph-name="fiveeighths" unicode="&#x215d;" horiz-adv-x="956" 
d="M287 473q0 42 -24.5 64t-62.5 22q-55 0 -80 -34h-64l21 239h260v-62h-199l-11 -119h1q13 14 36.5 24.5t55.5 10.5q29 0 55.5 -9t46 -27t31 -45t11.5 -63q0 -64 -43.5 -106.5t-123.5 -42.5q-43 0 -72 11t-47.5 29t-27 40.5t-10.5 45.5h75q3 -35 25.5 -50.5t58.5 -15.5
q34 0 61 22t27 66zM594 319q0 50 37.5 83.5t111.5 33.5t111.5 -33.5t37.5 -84.5q0 -39 -20.5 -63t-49.5 -33v-2q34 -8 59 -32t25 -72q0 -26 -11 -49t-31.5 -40t-51 -26.5t-69.5 -9.5q-80 0 -121.5 35.5t-41.5 89.5q0 23 7 41t19 30.5t27 20.5t31 12v2q-29 9 -49.5 33
t-20.5 64zM743 381q-32 0 -54 -16.5t-22 -51.5t22 -52t54 -17q31 0 53 17t22 52t-21.5 51.5t-53.5 16.5zM743 45q38 0 63.5 17.5t25.5 55.5t-25.5 55.5t-63.5 17.5q-36 0 -62.5 -17.5t-26.5 -55.5t26.5 -55.5t62.5 -17.5zM703 781h78l-547 -821h-78z" />
    <glyph glyph-name="seveneighths" unicode="&#x215e;" horiz-adv-x="888" 
d="M246 701h-221v63h308v-45l-190 -385h-79zM526 319q0 50 37.5 83.5t111.5 33.5t111.5 -33.5t37.5 -84.5q0 -39 -20.5 -63t-49.5 -33v-2q34 -8 59 -32t25 -72q0 -26 -11 -49t-31.5 -40t-51 -26.5t-69.5 -9.5q-80 0 -121.5 35.5t-41.5 89.5q0 23 7 41t19 30.5t27 20.5t31 12
v2q-29 9 -49.5 33t-20.5 64zM675 381q-32 0 -54 -16.5t-22 -51.5t22 -52t54 -17q31 0 53 17t22 52t-21.5 51.5t-53.5 16.5zM675 45q38 0 63.5 17.5t25.5 55.5t-25.5 55.5t-63.5 17.5q-36 0 -62.5 -17.5t-26.5 -55.5t26.5 -55.5t62.5 -17.5zM608 781h78l-547 -821h-78z" />
    <glyph glyph-name="minus" unicode="&#x2212;" horiz-adv-x="630" 
d="M85 397h463v-79h-463v79z" />
    <glyph glyph-name="approxequal" unicode="&#x2248;" horiz-adv-x="633" 
d="M107 375q0 26 6.5 49.5t20.5 41.5t36 28.5t52 10.5q26 0 50.5 -9t47 -20.5t42.5 -20.5t38 -9q23 0 34 13t17 48h59q0 -27 -7 -50.5t-21 -41t-34.5 -28t-47.5 -10.5q-29 0 -54.5 9t-48 20.5t-43 20.5t-38.5 9q-23 0 -34.5 -13t-15.5 -48h-59zM107 213q0 26 6.5 49.5
t20.5 41.5t36 28.5t52 10.5q26 0 50.5 -9t47 -20.5t42.5 -20.5t38 -9q23 0 34 13t17 48h59q0 -27 -7 -50.5t-21 -41t-34.5 -28t-47.5 -10.5q-29 0 -54.5 9t-48 20.5t-43 20.5t-38.5 9q-23 0 -34.5 -13t-15.5 -48h-59z" />
    <glyph glyph-name="notequal" unicode="&#x2260;" horiz-adv-x="633" 
d="M234 109h-81l59 120h-127v76h165l52 105h-217v76h255l59 120h81l-59 -120h127v-76h-165l-52 -105h217v-76h-255z" />
    <glyph glyph-name="lessequal" unicode="&#x2264;" horiz-adv-x="633" 
d="M80 328v70l468 196v-87l-353 -144l353 -144v-87zM80 0v77h468v-77h-468z" />
    <glyph glyph-name="greaterequal" unicode="&#x2265;" horiz-adv-x="633" 
d="M553 398v-70l-468 -196v87l353 144l-353 144v87zM85 0v77h468v-77h-468z" />
    <glyph glyph-name="uni24C5" unicode="&#x24c5;" horiz-adv-x="899" 
d="M55 380q0 84 30 156.5t82.5 126t124.5 84t157 30.5t157 -30.5t125 -84t83 -126t30 -156.5t-30 -156.5t-83 -125.5t-125 -83.5t-157 -30.5t-157 30.5t-124.5 83.5t-82.5 125.5t-30 156.5zM449 41q71 0 131.5 26t104.5 71.5t69 107.5t25 134t-25 134t-69 108t-104.5 72
t-131.5 26t-131 -26t-104 -72t-69 -108t-25 -134t25 -134t69 -107.5t104 -71.5t131 -26zM332 179v409h133q31 0 58.5 -7t47.5 -23t31.5 -40.5t11.5 -58.5q0 -35 -12 -60t-32.5 -41t-49 -23.5t-61.5 -7.5h-58v-148h-69zM462 379q39 0 60.5 20t21.5 59q0 42 -21.5 60t-59.5 18
h-62v-157h61z" />
    <glyph glyph-name="quotedblright.sc" horiz-adv-x="394" 
d="M254 644h110l-90 -221h-65zM88 644h111l-91 -221h-64z" />
    <glyph glyph-name="Ibreve.sc" horiz-adv-x="311" 
d="M110 644h91v-644h-91v644zM155 744q-31 0 -58.5 9t-47.5 28.5t-32 49.5t-12 72h69q0 -48 23.5 -72t60.5 -24t60.5 24t23.5 72h64q0 -42 -12 -72t-32 -49.5t-48 -28.5t-59 -9z" />
    <glyph glyph-name="exclamdown.uc" horiz-adv-x="280" 
d="M191.006 -22.9521h-101.994l11.999 550.967h78.9951zM199.005 765v-117.993h-117.993v117.993h117.993z" />
    <glyph glyph-name="hyphen.uc" horiz-adv-x="398" 
d="M60 413h278v-81h-278v81z" />
    <glyph glyph-name="endash.uc" horiz-adv-x="550" 
d="M60 408h430v-71h-430v71z" />
    <glyph glyph-name="emdash.uc" horiz-adv-x="900" 
d="M60 408h780v-71h-780v71z" />
    <glyph glyph-name="guilsinglleft.uc" horiz-adv-x="339" 
d="M258 524l-104 -206l106 -201h-85l-114 204l113 203h84z" />
    <glyph glyph-name="guilsinglright.uc" horiz-adv-x="339" 
d="M80 117l105 206l-106 201h85l113 -203l-112 -204h-85z" />
    <glyph glyph-name="guillemotleft.uc" horiz-adv-x="544" 
d="M464 524l-104 -206l105 -201h-84l-114 204l113 203h84zM258 524l-104 -206l106 -201h-85l-114 204l113 203h84z" />
    <glyph glyph-name="guillemotright.uc" horiz-adv-x="544" 
d="M80 117l105 206l-106 201h85l113 -203l-112 -204h-85zM286 117l104 206l-105 201h84l114 -203l-113 -204h-84z" />
    <glyph glyph-name="parenleft.uc" horiz-adv-x="356" 
d="M228 -100q-21 42 -44.5 91t-43 105.5t-32.5 121.5t-13 141t13 141.5t32.5 122t43 105t44.5 90.5h68q-21 -46 -41 -94.5t-35 -104t-24 -120t-9 -140.5t9 -140t24 -119.5t35 -104.5t41 -95h-68z" />
    <glyph glyph-name="parenright.uc" horiz-adv-x="356" 
d="M60 -100q21 46 41 95t35 104.5t24 119.5t9 140t-9 140.5t-24 120t-35 104t-41 94.5h68q21 -42 44.5 -90.5t43 -105t32.5 -122t13 -141.5t-13 -141t-32.5 -121.5t-43 -105.5t-44.5 -91h-68z" />
    <glyph glyph-name="space_uni0326" horiz-adv-x="369" 
d="M165 -69h97l-62 -137h-57z" />
    <glyph glyph-name="grave.uc" horiz-adv-x="367" 
d="M248 827h-71l-94 133h105z" />
    <glyph glyph-name="bracketleft.uc" horiz-adv-x="353" 
d="M110 818h218v-67h-135v-784h135v-67h-218v918z" />
    <glyph glyph-name="bracketright.uc" horiz-adv-x="353" 
d="M243 -100h-218v66h135v785h-135v67h218v-918z" />
    <glyph glyph-name="braceleft.uc" horiz-adv-x="353" 
d="M27 322v74h24q44 0 60.5 17t16.5 59v201q0 82 47.5 115.5t152.5 33.5v-62q-40 0 -64 -6t-36.5 -19t-16.5 -34.5t-4 -52.5v-165q0 -20 -2.5 -40t-10.5 -37t-23 -29t-39 -16v-4q24 -4 39 -16t23 -29t10.5 -37t2.5 -40v-165q0 -31 4 -52.5t16.5 -34.5t36.5 -19t64 -6v-62
q-53 0 -90.5 8t-62 25.5t-36 46t-11.5 69.5v201q0 42 -16.5 59t-60.5 17h-24z" />
    <glyph glyph-name="braceright.uc" horiz-adv-x="353" 
d="M326 322h-24q-44 0 -60.5 -17t-16.5 -59v-201q0 -41 -11.5 -69.5t-36 -46t-62.5 -25.5t-90 -8v62q40 0 64 6t36.5 19t16.5 34.5t4 52.5v165q0 20 2.5 40t10.5 37t23 29t39 16v4q-24 4 -39 16t-23 29t-10.5 37t-2.5 40v165q0 31 -4 52.5t-16.5 34.5t-36.5 19t-64 6v62
q105 0 152.5 -33.5t47.5 -115.5v-201q0 -42 16.5 -59t60.5 -17h24v-74z" />
    <glyph glyph-name="slash.uc" horiz-adv-x="534" 
d="M422 798h81l-391 -872h-81z" />
    <glyph glyph-name="backslash.uc" horiz-adv-x="534" 
d="M31 798h81l391 -872h-81z" />
    <glyph glyph-name="bar.uc" horiz-adv-x="289" 
d="M108 798h73v-872h-73v872z" />
    <glyph glyph-name="acute.uc" horiz-adv-x="367" 
d="M153 960h105l-94 -133h-71z" />
    <glyph glyph-name="at.uc" horiz-adv-x="1009" 
d="M734 131q-59 0 -92.5 21.5t-42.5 72.5h-3q-25 -48 -66.5 -73t-92.5 -25q-76 0 -114 49t-38 129q0 55 17 105t48 88.5t74 61.5t95 23q47 0 76 -23.5t39 -60.5h4l13 68h75l-51 -253q-14 -66 4.5 -94t65.5 -28q21 0 44.5 11t44 37t34 69t13.5 106q0 71 -26.5 132t-73.5 106
t-113 70.5t-144 25.5q-82 0 -153 -31.5t-123 -87t-82 -131t-30 -163.5q0 -89 26.5 -160t74.5 -121.5t114.5 -77.5t146.5 -27q82 0 148.5 24.5t110.5 59.5l42 -43q-50 -42 -126 -73t-182 -31q-95 0 -175 32.5t-138.5 91.5t-91 141.5t-32.5 183.5q0 103 36.5 190t100 150.5
t150 99.5t185.5 36q93 0 172.5 -28.5t137 -80t90.5 -124t33 -159.5q0 -81 -21.5 -136.5t-54.5 -89t-73 -48.5t-76 -15zM456 194q28 0 52 14t43 36t32 50t19 55l3 14q5 23 4 50t-11 50t-29.5 38t-50.5 15q-38 0 -66 -20.5t-46 -51.5t-27 -68t-9 -71q0 -50 21.5 -80.5
t64.5 -30.5z" />
    <glyph glyph-name="f.short" horiz-adv-x="358" 
d="M205 0h-90v458h-96v69h96v118q0 81 43 113.5t117 32.5q15 0 29.5 -1.5t26.5 -3.5v-74q-8 2 -20 3t-29 1q-39 0 -58 -17t-19 -65v-107h126v-69h-126v-458z" />
    <glyph glyph-name="f_f.short" horiz-adv-x="696" 
d="M205 0h-90v458h-96v69h96v111q0 81 43 113.5t117 32.5q15 0 29.5 -1.5t26.5 -3.5v-74q-8 2 -20 3t-29 1q-39 0 -58 -17t-19 -65v-100h248v118q0 81 43 113.5t117 32.5q15 0 29.5 -1.5t26.5 -3.5v-74q-8 2 -20 3t-29 1q-39 0 -58 -17t-19 -65v-107h126v-69h-126v-458h-90
v458h-248v-458z" />
    <glyph glyph-name="macron.uc" horiz-adv-x="369" 
d="M38 925h292v-73h-292v73z" />
    <glyph glyph-name="circumflex.uc" horiz-adv-x="369" 
d="M339 827h-83l-75 76h-1l-75 -76h-74l107 133h94z" />
    <glyph glyph-name="caron.uc" horiz-adv-x="369" 
d="M31 960h83l75 -76h1l75 76h74l-107 -133h-94z" />
    <glyph glyph-name="breve.uc" horiz-adv-x="369" 
d="M104 970q5 -38 27.5 -57.5t55.5 -19.5t55.5 19t27.5 58h64q-3 -37 -15.5 -63.5t-32.5 -43.5t-46 -25t-56 -8q-29 0 -55 8t-46 25t-32.5 43.5t-15.5 63.5h69z" />
    <glyph glyph-name="caron.alt" horiz-adv-x="369" 
d="M160 788h86l-47 -162h-56z" />
    <glyph glyph-name="dotaccent.uc" horiz-adv-x="369" 
d="M137 936h95v-99h-95v99z" />
    <glyph glyph-name="ring.uc" horiz-adv-x="369" 
d="M188 809q-52 0 -80.5 29.5t-28.5 77.5t30.5 77.5t79.5 29.5q53 0 81 -29.5t28 -77.5t-30 -77.5t-80 -29.5zM188 977q-23 0 -37.5 -17t-14.5 -44t14 -44t39 -17q23 0 37.5 17t14.5 44t-14 44t-39 17z" />
    <glyph glyph-name="sterling.tab" 
d="M558 0h-492v69l31 25q31 25 48.5 47t23.5 46.5t2.5 55t-15.5 73.5h-101v71h80l-11 35q-26 86 -15.5 148t43.5 102.5t81.5 60t99.5 19.5q48 0 88 -14.5t68.5 -42.5t44 -70t15.5 -96h-92q0 27 -6 53.5t-20.5 47.5t-38 34t-59.5 13q-34 0 -63.5 -12t-47.5 -40.5t-21 -75.5
t16 -118l12 -44h222v-71h-203q16 -69 7.5 -122t-61.5 -99l-15 -13v-2h379v-80z" />
    <glyph glyph-name="tilde.uc" horiz-adv-x="369" 
d="M7 827q0 26 6.5 50.5t19.5 43t33 30t46 11.5q25 0 46 -10t39 -21.5t33.5 -21.5t28.5 -10q39 0 47 65h56q0 -26 -6.5 -50.5t-19.5 -43.5t-33 -30t-46 -11q-25 0 -45.5 9.5t-38.5 21.5t-33.5 21.5t-30.5 9.5q-38 0 -46 -64h-56z" />
    <glyph glyph-name="cent.tab" 
d="M524 172q-9 -84 -59 -129t-125 -53v-106h-62v106q-99 11 -150.5 82.5t-51.5 188.5q0 55 13.5 103t39.5 84.5t63.5 60t85.5 29.5v97h62v-96q35 -3 66.5 -14t56 -32t40 -52t18.5 -73h-88q-4 35 -26.5 65t-66.5 38v-413q28 5 47 18.5t30.5 30t16.5 34t6 31.5h84zM278 469
q-55 -14 -83.5 -68.5t-28.5 -135.5q0 -82 25.5 -137.5t86.5 -68.5v410z" />
    <glyph glyph-name="plus.tab" 
d="M340 127h-81v192h-189v77h189v191h81v-191h190v-77h-190v-192z" />
    <glyph glyph-name="minus.tab" 
d="M68 397h463v-79h-463v79z" />
    <glyph glyph-name="multiply.tab" 
d="M74 177l171 169l-170 168l57 57l169 -170l169 172l55 -55l-172 -170l171 -169l-57 -57l-169 171l-169 -171z" />
    <glyph glyph-name="divide.tab" 
d="M252 595h95v-97h-95v97zM70 396h460v-77h-460v77zM252 120v97h95v-97h-95z" />
    <glyph glyph-name="equal.tab" 
d="M68 486h463v-76h-463v76zM68 229v76h463v-76h-463z" />
    <glyph glyph-name="less.tab" 
d="M62 302v62l468 230v-87l-359 -174l359 -174v-87z" />
    <glyph glyph-name="greater.tab" 
d="M538 354v-62l-468 -230v87l359 174l-359 174v87z" />
    <glyph glyph-name="florin.tab" 
d="M251 -189h-90l74 556h-101v69h111l23 175q13 95 62.5 134.5t123.5 39.5q15 0 27 -1.5t24 -3.5v-74q-8 2 -17.5 3t-26.5 1q-20 0 -36.5 -4t-30 -15t-22.5 -30.5t-13 -51.5l-23 -173h130v-69h-140z" />
    <glyph glyph-name="plusminus.tab" 
d="M340 157h-81v192h-189v77h189v191h81v-191h190v-77h-190v-192zM70 77h460v-77h-460v77z" />
    <glyph glyph-name="notequal.tab" 
d="M217 109h-81l59 120h-127v76h165l52 105h-217v76h255l59 120h81l-59 -120h127v-76h-165l-52 -105h217v-76h-255z" />
    <glyph glyph-name="approxequal.tab" 
d="M98 375q0 26 6.5 49.5t20.5 41.5t36 28.5t52 10.5q26 0 50.5 -9t47 -20.5t42.5 -20.5t38 -9q23 0 34 13t17 48h59q0 -27 -7 -50.5t-21 -41t-34.5 -28t-47.5 -10.5q-29 0 -54.5 9t-48 20.5t-43 20.5t-38.5 9q-23 0 -34.5 -13t-15.5 -48h-59zM98 213q0 26 6.5 49.5
t20.5 41.5t36 28.5t52 10.5q26 0 50.5 -9t47 -20.5t42.5 -20.5t38 -9q23 0 34 13t17 48h59q0 -27 -7 -50.5t-21 -41t-34.5 -28t-47.5 -10.5q-29 0 -54.5 9t-48 20.5t-43 20.5t-38.5 9q-23 0 -34.5 -13t-15.5 -48h-59z" />
    <glyph glyph-name="lessequal.tab" 
d="M62 328v70l468 196v-87l-353 -144l353 -144v-87zM62 0v77h468v-77h-468z" />
    <glyph glyph-name="greaterequal.tab" 
d="M538 398v-70l-468 -196v87l353 144l-353 144v87zM70 0v77h468v-77h-468z" />
    <glyph glyph-name="period.tab" horiz-adv-x="300" 
d="M89 122h122v-122h-122v122z" />
    <glyph glyph-name="comma.tab" horiz-adv-x="300" 
d="M109 123h112l-81 -240h-65z" />
    <glyph glyph-name="colon.tab" horiz-adv-x="300" 
d="M88 527h123v-123h-123v123zM88 0v123h123v-123h-123z" />
    <glyph glyph-name="semicolon.tab" horiz-adv-x="300" 
d="M97 527h123v-123h-123v123zM68 -117l33 240h112l-81 -240h-64z" />
    <glyph glyph-name="hungarumlaut.uc" horiz-adv-x="369" 
d="M230 970h91l-67 -133h-57zM90 970h91l-67 -133h-57z" />
    <glyph glyph-name="currency.tab" 
d="M187 347q0 -52 30.5 -86t80.5 -34q51 0 81.5 34t30.5 86t-30.5 86.5t-81.5 34.5q-50 0 -80.5 -34.5t-30.5 -86.5zM119 347q0 27 7 51.5t19 44.5l-79 79l57 57l78 -79q44 27 97 27q29 0 54 -7.5t46 -21.5l82 84l55 -55l-84 -83q27 -44 27 -97q0 -28 -7 -52.5t-20 -44.5
l81 -80l-57 -57l-80 81q-43 -26 -97 -26t-97 26l-81 -82l-55 55l82 81q-28 44 -28 99z" />
    <glyph glyph-name="percent.tab" horiz-adv-x="900" 
d="M681 781h84l-547 -821h-84zM229 381q-35 0 -64.5 11.5t-52 34t-35 56.5t-12.5 79t13 79t35.5 56.5t52.5 33.5t63 11q34 0 64 -11t52.5 -33.5t35.5 -56.5t13 -79t-13 -79t-35.5 -56.5t-52.5 -34t-64 -11.5zM228 445q39 0 62.5 29t23.5 88q0 60 -23.5 89t-62.5 29
q-40 0 -62.5 -28.5t-22.5 -89.5q0 -60 22.5 -88.5t62.5 -28.5zM670 -7q-35 0 -64.5 11.5t-52 34t-35 56.5t-12.5 79t13 79t35.5 56.5t52.5 33.5t63 11q34 0 64 -11t52.5 -33.5t35.5 -56.5t13 -79t-13 -79t-35.5 -56.5t-52.5 -34t-64 -11.5zM669 57q39 0 62.5 29t23.5 88
q0 60 -23.5 89t-62.5 29q-40 0 -62.5 -28.5t-22.5 -89.5q0 -60 22.5 -88.5t62.5 -28.5z" />
    <glyph glyph-name="perthousand.tab" horiz-adv-x="1200" 
d="M648 781h84l-547 -821h-84zM65 562q0 45 12.5 79t33.5 56.5t49 33.5t59 11t59.5 -11t49.5 -33.5t33.5 -56.5t12.5 -79t-12.5 -79t-33.5 -56.5t-49.5 -34t-59.5 -11.5q-32 0 -60 11.5t-49 34t-33 56.5t-12 79zM218 445q35 0 56 29t21 88q0 60 -21 89t-56 29t-55.5 -28.5
t-20.5 -89.5q0 -60 20.5 -88.5t55.5 -28.5zM980 -7q-32 0 -60 11.5t-49 34t-33 56.5t-12 79t12.5 79t33.5 56.5t49 33.5t59 11t59.5 -11t49.5 -33.5t33.5 -56.5t12.5 -79t-12.5 -79t-33.5 -56.5t-49.5 -34t-59.5 -11.5zM612 -7q-32 0 -60 11.5t-49 34t-33 56.5t-12 79
t12.5 79t33.5 56.5t49 33.5t59 11t59.5 -11t49.5 -33.5t33.5 -56.5t12.5 -79t-12.5 -79t-33.5 -56.5t-49.5 -34t-59.5 -11.5zM979 57q35 0 56 29t21 88q0 60 -21 89t-56 29t-55.5 -28.5t-20.5 -89.5q0 -60 20.5 -88.5t55.5 -28.5zM611 57q35 0 56 29t21 88q0 60 -21 89
t-56 29t-55.5 -28.5t-20.5 -89.5q0 -60 20.5 -88.5t55.5 -28.5z" />
    <glyph glyph-name="idotaccent" horiz-adv-x="279" 
d="M92 744h95v-97h-95v97zM94 527h91v-527h-91v527z" />
    <glyph glyph-name="A.sc" horiz-adv-x="659" 
d="M325 554q-1 -4 -8.5 -28.5t-17.5 -54.5l-77 -219h206l-76 218q-5 17 -10 31.5t-8 26.5q-4 13 -7 26h-2zM455 178h-259l-62 -178h-89l230 644h106l233 -644h-96z" />
    <glyph glyph-name="AE.sc" horiz-adv-x="937" 
d="M441 564h-64l-142 -309h206v309zM118 0h-93l302 644h525v-80h-320v-201h295v-78h-295v-205h325v-80h-416v181h-240z" />
    <glyph glyph-name="B.sc" horiz-adv-x="666" 
d="M110 0v644h259q44 0 81.5 -10t65 -29.5t43 -49.5t15.5 -70q0 -58 -32 -93.5t-86 -47.5v-2q30 -5 56 -18.5t44.5 -33.5t29 -45.5t10.5 -54.5q0 -53 -19 -89.5t-52 -59t-77 -32t-94 -9.5h-244zM354 376q25 0 48 5t40.5 16.5t28 30t10.5 46.5q0 49 -32.5 72t-85.5 23h-162
v-193h153zM353 76q34 0 61.5 6t47 19.5t30 36t10.5 55.5q0 59 -41 83.5t-114 24.5h-146v-225h152z" />
    <glyph glyph-name="C.sc" horiz-adv-x="688" 
d="M366 580q-47 0 -84 -18.5t-62.5 -52t-39 -81.5t-13.5 -108q0 -121 52 -190t145 -69q40 0 69.5 12t49 32.5t30.5 46.5t14 54h91q-2 -47 -20.5 -87t-50.5 -69.5t-78 -46t-104 -16.5q-66 0 -120 21t-92 63t-59 104t-21 144q0 79 21.5 141t60 105t92.5 65.5t119 22.5
q47 0 91.5 -12.5t79.5 -38t56.5 -64.5t23.5 -93h-93q-4 29 -14.5 54t-29.5 43t-47 28t-67 10z" />
    <glyph glyph-name="D.sc" horiz-adv-x="704" 
d="M110 644h204q67 0 125 -17.5t101 -55t67 -97t24 -144.5q0 -84 -23 -146.5t-64 -103t-98 -60.5t-124 -20h-212v644zM313 77q50 0 91 13.5t70.5 43t45.5 77t16 116.5q0 66 -16.5 111.5t-45.5 74t-69 41.5t-87 13h-117v-490h112z" />
    <glyph glyph-name="Dcroat.sc" horiz-adv-x="715" 
d="M123 0v288h-70v74h70v282h204q67 0 125 -17.5t101 -55t67 -97t24 -144.5q0 -84 -23 -146.5t-64 -103t-98 -60.5t-124 -20h-212zM326 77q50 0 91 13.5t70.5 43t45.5 77t16 116.5q0 66 -16.5 111.5t-45.5 74t-69 41.5t-87 13h-117v-205h177v-74h-177v-211h112z" />
    <glyph glyph-name="E.sc" horiz-adv-x="613" 
d="M110 644h418v-80h-327v-201h302v-78h-302v-205h332v-80h-423v644z" />
    <glyph glyph-name="Eng.sc" horiz-adv-x="728" 
d="M345 -162v79h31q75 0 108.5 15t42.5 53l-281 447q-11 17 -20 33.5t-15 29.5q-7 15 -13 27h-3v-522h-85v644h109l264 -428q11 -18 19.5 -34.5t14.5 -29.5q7 -15 13 -28h4v520h84v-611q0 -56 -14.5 -93.5t-43 -60t-70.5 -32t-96 -9.5h-49z" />
    <glyph glyph-name="Eth.sc" horiz-adv-x="715" 
d="M123 0v288h-70v74h70v282h204q67 0 125 -17.5t101 -55t67 -97t24 -144.5q0 -84 -23 -146.5t-64 -103t-98 -60.5t-124 -20h-212zM326 77q50 0 91 13.5t70.5 43t45.5 77t16 116.5q0 66 -16.5 111.5t-45.5 74t-69 41.5t-87 13h-117v-205h177v-74h-177v-211h112z" />
    <glyph glyph-name="F.sc" horiz-adv-x="572" 
d="M201 0h-91v644h397v-80h-306v-219h282v-78h-282v-267z" />
    <glyph glyph-name="G.sc" horiz-adv-x="729" 
d="M370 581q-50 0 -88.5 -18.5t-64.5 -53t-39.5 -83t-13.5 -109.5q0 -128 52 -192t147 -64q40 0 74 12t58 35t38 57t14 78v10h-183v77h270v-330h-76v91h-4q-23 -43 -72 -73.5t-127 -30.5q-63 0 -115.5 20.5t-90 62t-58 103t-20.5 143.5q0 79 22.5 141.5t63 106t95.5 66.5
t121 23q51 0 94.5 -12.5t75.5 -36.5t51 -59t23 -79h-92q-8 55 -48.5 85t-106.5 30z" />
    <glyph glyph-name="H.sc" horiz-adv-x="737" 
d="M201 0h-91v644h91v-281h335v281h91v-644h-91v286h-335v-286z" />
    <glyph glyph-name="I.sc" horiz-adv-x="311" 
d="M110 644h91v-644h-91v644z" />
    <glyph glyph-name="IJ.sc" horiz-adv-x="664" 
d="M319 0v79h3q49 0 78.5 7t46 22.5t22 39.5t5.5 58v438h90v-443q0 -56 -14.5 -94.5t-43 -62t-70.5 -34t-96 -10.5h-21zM110 644h91v-644h-91v644z" />
    <glyph glyph-name="J.sc" horiz-adv-x="402" 
d="M29 0v79h31q49 0 78.5 7t46 22.5t22 39.5t5.5 58v438h90v-443q0 -56 -14.5 -94.5t-43 -62t-70.5 -34t-96 -10.5h-49z" />
    <glyph glyph-name="K.sc" horiz-adv-x="659" 
d="M201 0h-91v644h91v-325l291 325h111l-247 -274l258 -370h-108l-213 307l-92 -101v-206z" />
    <glyph glyph-name="L.sc" horiz-adv-x="576" 
d="M110 644h91v-565h320v-79h-411v644z" />
    <glyph glyph-name="M.sc" horiz-adv-x="859" 
d="M110 644l134 1l156 -451q8 -22 12.5 -38.5t8.5 -27.5q4 -13 7 -24h3q2 11 6 24q3 11 8.5 27.5t13.5 38.5l158 451l132 -1v-644h-87v551h-3q-4 -12 -9 -29q-5 -14 -11.5 -35.5t-15.5 -48.5l-156 -438h-82l-153 438q-9 27 -15 48t-11 35q-5 17 -9 30h-3v-551h-84v644z" />
    <glyph glyph-name="N.sc" horiz-adv-x="728" 
d="M110 644h107l264 -432q11 -18 19.5 -34.5t15.5 -29.5q8 -15 14 -28h3v524h85v-644h-107l-264 432q-11 17 -19.5 34t-15.5 30q-8 15 -14 28h-3v-524h-85v644z" />
    <glyph glyph-name="O.sc" horiz-adv-x="735" 
d="M73 320q0 85 24 148t64.5 104t93.5 61t112 20q61 0 114.5 -19.5t93.5 -60.5t63.5 -104t23.5 -149t-23.5 -149t-64 -104t-94.5 -60.5t-114 -19.5t-113.5 19.5t-93.5 60.5t-63 104t-23 149zM366 61q44 0 81.5 17t64.5 49.5t42 80.5t15 111q0 64 -15 113t-41.5 82t-64 49.5
t-82.5 16.5q-44 0 -80.5 -16t-63 -48.5t-41.5 -81.5t-15 -115q0 -63 14.5 -111.5t41 -81t63 -49t81.5 -16.5z" />
    <glyph glyph-name="OE.sc" horiz-adv-x="1053" 
d="M561 362q0 105 -49.5 162t-146.5 57q-43 0 -79.5 -16t-63 -48.5t-41.5 -82t-15 -115.5q0 -63 14.5 -111.5t40.5 -81.5t62.5 -49.5t81.5 -16.5q51 0 88 16t61 45t35.5 69.5t11.5 90.5v81zM555 78q-32 -47 -80 -69t-110 -22t-115.5 20t-92.5 61.5t-61.5 104t-22.5 147.5
q0 84 23.5 146.5t63 104t92 62t111.5 20.5q63 0 113 -22t79 -70h3v83h410v-80h-320v-201h295v-78h-295v-205h325v-80h-415v78h-3z" />
    <glyph glyph-name="Oslash.sc" horiz-adv-x="735" 
d="M366 581q-44 0 -81 -16t-64 -48.5t-42 -82t-15 -115.5q0 -52 8.5 -92.5t24.5 -70.5l299 381q-26 23 -59 33.5t-71 10.5zM366 60q45 0 82.5 16.5t64.5 49.5t42.5 81.5t15.5 111.5q0 54 -9.5 95.5t-26.5 72.5l-300 -381q52 -46 131 -46zM662 320q0 -86 -23.5 -149t-64 -104
t-94.5 -60.5t-114 -19.5q-51 0 -96 14t-83 43l-51 -65h-77l84 107q-32 42 -51 99.5t-19 134.5q0 85 24 148t64.5 104t93.5 61t112 20q51 0 95.5 -13t82.5 -41l54 69h78l-87 -111q34 -42 53 -100.5t19 -136.5z" />
    <glyph glyph-name="P.sc" horiz-adv-x="590" 
d="M201 239v-239h-91v644h202q49 0 91 -11.5t72.5 -35.5t47.5 -62t17 -91t-17.5 -92t-48.5 -64t-74.5 -37t-94.5 -12h-104zM304 313q69 0 107 32.5t38 98.5q0 69 -38 98t-104 29h-106v-258h103z" />
    <glyph glyph-name="Q.sc" horiz-adv-x="731" 
d="M73 320q0 85 23.5 147.5t63.5 103.5t93.5 61.5t113.5 20.5q61 0 115 -20.5t94 -61.5t63 -103.5t23 -147.5q0 -97 -30 -166t-89 -105v-4q50 -1 84 -22.5t60 -63.5l-74 -53q-33 52 -65.5 70.5t-76.5 18.5q-15 0 -26 -1t-22.5 -2.5t-24.5 -2.5t-32 -1q-62 0 -115.5 20
t-93 61.5t-62 104t-22.5 146.5zM367 60q44 0 81 15t64 47t42 80.5t15 116.5q0 64 -14.5 113t-41 82t-63.5 50t-82 17q-44 0 -81 -16.5t-64 -49.5t-42 -82t-15 -114q0 -128 55.5 -193.5t145.5 -65.5z" />
    <glyph glyph-name="R.sc" horiz-adv-x="642" 
d="M345 339q57 0 94.5 27.5t37.5 91.5q0 30 -10 51t-27.5 35t-41 20.5t-50.5 6.5h-147v-232h144zM342 263h-141v-263h-91v644h244q35 0 68 -6.5t64 -23.5q37 -21 60.5 -57.5t23.5 -95.5q0 -44 -13 -75t-33 -52t-44 -33.5t-46 -19.5v-1l150 -280h-101z" />
    <glyph glyph-name="S.sc" horiz-adv-x="636" 
d="M460 471q-5 46 -37.5 78t-97.5 32q-63 0 -98 -29.5t-35 -74.5t24 -68t82 -32l94 -14q47 -7 79.5 -22t52.5 -37.5t28.5 -51.5t8.5 -65q0 -94 -61.5 -147t-179.5 -53q-115 0 -177 51.5t-68 143.5h92q3 -26 13 -48t28.5 -38.5t46.5 -26t67 -9.5q41 0 69.5 9t46 24.5t25.5 36
t8 44.5q0 40 -22 67.5t-85 37.5l-92 14q-49 7 -82 23t-53 38.5t-28.5 51.5t-8.5 62q0 40 16 74t45.5 58.5t71 38.5t93.5 14q108 0 163 -49.5t59 -132.5h-88z" />
    <glyph glyph-name="T.sc" horiz-adv-x="599" 
d="M564 567h-219v-567h-91v567h-219v77h529v-77z" />
    <glyph glyph-name="Tbar.sc" horiz-adv-x="599" 
d="M564 567h-219v-157h166v-64h-166v-346h-91v346h-166v64h166v157h-219v77h529v-77z" />
    <glyph glyph-name="Thorn.sc" horiz-adv-x="590" 
d="M201 141v-141h-91v644h91v-131h121q46 0 86 -10.5t69.5 -33t46.5 -57.5t17 -83t-17 -83.5t-47 -59t-71.5 -34.5t-90.5 -11h-114zM319 214q63 2 96.5 30t33.5 85q0 61 -35 86.5t-99 25.5h-114v-227h118z" />
    <glyph glyph-name="U.sc" horiz-adv-x="700" 
d="M100 644h91v-372q0 -21 0.5 -43t3.5 -43t9.5 -40t17.5 -33q44 -51 130 -51q43 0 76 12.5t54 38.5q12 14 18 33t8.5 40t2.5 43v43v372h89v-426q0 -61 -18 -104.5t-51 -71.5t-79 -41.5t-102 -13.5q-57 0 -103 13t-78.5 41t-50.5 71.5t-18 105.5v426z" />
    <glyph glyph-name="V.sc" horiz-adv-x="638" 
d="M40 644h96l156 -443q9 -26 14.5 -45.5t8.5 -32.5q4 -15 5 -26h4q1 11 5 26q6 25 24 78l155 443h90l-229 -644h-98z" />
    <glyph glyph-name="W.sc" horiz-adv-x="934" 
d="M225 0l-182 644h90l117 -438q7 -26 11.5 -48t7.5 -39q4 -19 6 -35h2q2 16 6 35q3 17 7.5 38t11.5 47l118 440h96l122 -449q7 -26 11 -46.5t7 -34.5q3 -17 5 -30h2q1 12 4 29q2 14 6.5 34.5t11.5 46.5l119 450h87l-182 -644h-97l-124 439q-7 22 -11 42t-6 35q-3 18 -4 33
h-2q-2 -15 -5 -33l-7 -35t-10 -42l-122 -439h-96z" />
    <glyph glyph-name="X.sc" horiz-adv-x="672" 
d="M279 339l-211 305h107l159 -236h2l166 236h97l-211 -301l246 -343h-109l-193 273h-2l-195 -273h-97z" />
    <glyph glyph-name="Y.sc" horiz-adv-x="624" 
d="M268 274l-238 370h104l178 -288h2l184 288h96l-237 -366v-278h-89v274z" />
    <glyph glyph-name="Z.sc" horiz-adv-x="615" 
d="M78 644h479v-70l-386 -496h389v-78h-500v70l389 496h-371v78z" />
    <glyph glyph-name="ampersand.sc" horiz-adv-x="676" 
d="M598 0q-42 0 -73 15t-64 47q-33 -34 -78.5 -54.5t-105.5 -20.5q-51 0 -92 12.5t-69.5 36t-43.5 55.5t-15 71q0 58 34 102t115 83q-18 20 -32 37.5t-23.5 35.5t-15 38t-5.5 45q0 31 12 58.5t34 48t53 32t69 11.5q72 0 116 -37.5t45 -96.5q0 -30 -7 -55t-23.5 -47
t-42 -42.5t-62.5 -42.5l127 -139l5 -6q14 35 21.5 72t9.5 70h77q-4 -50 -16.5 -101.5t-37.5 -98.5q17 -17 30 -27.5t25.5 -15.5t25.5 -6.5t30 -1.5v-78h-23zM244 291q-47 -26 -73 -54t-26 -69q0 -29 11 -50.5t30 -35t44 -20t53 -6.5q42 0 74 16t55 42l-16 18l-146 162z
M213 508q0 -17 3 -29.5t10.5 -26t20.5 -29.5t33 -39q49 28 72 55.5t23 68.5q0 35 -20 58.5t-58 23.5q-39 0 -61.5 -23.5t-22.5 -58.5z" />
    <glyph glyph-name="uni0237.sc" horiz-adv-x="402" 
d="M29 0v79h31q49 0 78.5 7t46 22.5t22 39.5t5.5 58v438h90v-443q0 -56 -14.5 -94.5t-43 -62t-70.5 -34t-96 -10.5h-49z" />
    <glyph glyph-name="exclam.sc" horiz-adv-x="318" 
d="M109 644h100l-16 -443h-68zM100 0v107h118v-107h-118z" />
    <glyph glyph-name="exclamdown.sc" horiz-adv-x="318" 
d="M218 537h-118v107h118v-107zM209 0h-100l16 443h68z" />
    <glyph glyph-name="germandbls.sc" horiz-adv-x="1272" 
d="M460 471q-5 46 -37.5 78t-97.5 32q-63 0 -98 -29.5t-35 -74.5t24 -68t82 -32l94 -14q47 -7 79.5 -22t52.5 -37.5t28.5 -51.5t8.5 -65q0 -94 -61.5 -147t-179.5 -53q-115 0 -177 51.5t-68 143.5h92q3 -26 13 -48t28.5 -38.5t46.5 -26t67 -9.5q41 0 69.5 9t46 24.5t25.5 36
t8 44.5q0 40 -22 67.5t-85 37.5l-92 14q-49 7 -82 23t-53 38.5t-28.5 51.5t-8.5 62q0 40 16 74t45.5 58.5t71 38.5t93.5 14q108 0 163 -49.5t59 -132.5h-88zM1096 471q-5 46 -37.5 78t-97.5 32q-63 0 -98 -29.5t-35 -74.5t24 -68t82 -32l94 -14q47 -7 79.5 -22t52.5 -37.5
t28.5 -51.5t8.5 -65q0 -94 -61.5 -147t-179.5 -53q-115 0 -177 51.5t-68 143.5h92q3 -26 13 -48t28.5 -38.5t46.5 -26t67 -9.5q41 0 69.5 9t46 24.5t25.5 36t8 44.5q0 40 -22 67.5t-85 37.5l-92 14q-49 7 -82 23t-53 38.5t-28.5 51.5t-8.5 62q0 40 16 74t45.5 58.5t71 38.5
t93.5 14q108 0 163 -49.5t59 -132.5h-88z" />
    <glyph glyph-name="question.sc" horiz-adv-x="563" 
d="M245 200v29q0 21 2 35t9 25t18.5 22t31.5 28l38 32q27 23 42 47t15 59q0 45 -30 73.5t-82 28.5q-62 0 -96.5 -36.5t-33.5 -108.5h-81q-2 49 13 89.5t42.5 69t67.5 44.5t89 16t86 -14t61.5 -37t36.5 -54t12 -65q0 -33 -7.5 -56.5t-20 -42t-29.5 -34.5t-35 -32l-37 -33
q-12 -11 -19 -18t-10.5 -14t-4.5 -15.5t-1 -22.5v-15h-77zM224 118h118v-118h-118v118z" />
    <glyph glyph-name="questiondown.sc" horiz-adv-x="563" 
d="M337 526h-118v118h118v-118zM271 -9q-50 0 -86.5 14t-61 37t-36.5 54t-12 65q0 33 7.5 56.5t20 42t29.5 34t35 32.5l37 33q12 10 19 17.5t10.5 14.5t4.5 15.5t1 22.5v15h77v-29q0 -21 -2 -35t-9 -25t-19 -22.5t-31 -27.5l-38 -32q-27 -23 -42 -47t-15 -59q0 -45 30 -73.5
t82 -28.5q62 0 96.5 36.5t33.5 108.5h81q1 -49 -13.5 -89.5t-42 -69t-67.5 -44.5t-89 -16z" />
    <glyph glyph-name="quotedblleft.sc" horiz-adv-x="395" 
d="M307 424h-111l91 220h64zM141 424h-111l91 220h64z" />
    <glyph glyph-name="space.tab" horiz-adv-x="300" 
 />
    <glyph glyph-name="quoteleft.sc" horiz-adv-x="229" 
d="M141 424h-111l91 220h64z" />
    <glyph glyph-name="quoteright.sc" horiz-adv-x="229" 
d="M88 644h111l-91 -221h-64z" />
    <glyph glyph-name="Lslash.sc" horiz-adv-x="576" 
d="M110 239l-59 -23v74l59 23v331h91v-296l215 83v-75l-215 -82v-195h320v-79h-411v239z" />
    <glyph glyph-name="AEacute.sc" horiz-adv-x="937" 
d="M441 564h-64l-142 -309h206v309zM118 0h-93l302 644h525v-80h-320v-201h295v-78h-295v-205h325v-80h-416v181h-240zM509 903h101l-87 -162h-67z" />
    <glyph glyph-name="Aacute.sc" horiz-adv-x="659" 
d="M325 554q-1 -4 -8.5 -28.5t-17.5 -54.5l-77 -219h206l-76 218q-5 17 -10 31.5t-8 26.5q-4 13 -7 26h-2zM455 178h-259l-62 -178h-89l230 644h106l233 -644h-96zM345 903h101l-87 -162h-67z" />
    <glyph glyph-name="Abreve.sc" horiz-adv-x="659" 
d="M325 554q-1 -4 -8.5 -28.5t-17.5 -54.5l-77 -219h206l-76 218q-5 17 -10 31.5t-8 26.5q-4 13 -7 26h-2zM455 178h-259l-62 -178h-89l230 644h106l233 -644h-96zM327 744q-31 0 -58.5 9t-47.5 28.5t-32 49.5t-12 72h69q0 -48 23.5 -72t60.5 -24t60.5 24t23.5 72h64
q0 -42 -12 -72t-32 -49.5t-48 -28.5t-59 -9z" />
    <glyph glyph-name="Acircumflex.sc" horiz-adv-x="659" 
d="M325 554q-1 -4 -8.5 -28.5t-17.5 -54.5l-77 -219h206l-76 218q-5 17 -10 31.5t-8 26.5q-4 13 -7 26h-2zM455 178h-259l-62 -178h-89l230 644h106l233 -644h-96zM485 741h-80l-78 101h-1l-78 -101h-71l107 162h94z" />
    <glyph glyph-name="Adieresis.sc" horiz-adv-x="659" 
d="M325 554q-1 -4 -8.5 -28.5t-17.5 -54.5l-77 -219h206l-76 218q-5 17 -10 31.5t-8 26.5q-4 13 -7 26h-2zM455 178h-259l-62 -178h-89l230 644h106l233 -644h-96zM379 860h92v-99h-92v99zM183 860h92v-99h-92v99z" />
    <glyph glyph-name="Agrave.sc" horiz-adv-x="659" 
d="M325 554q-1 -4 -8.5 -28.5t-17.5 -54.5l-77 -219h206l-76 218q-5 17 -10 31.5t-8 26.5q-4 13 -7 26h-2zM455 178h-259l-62 -178h-89l230 644h106l233 -644h-96zM362 741h-66l-88 162h101z" />
    <glyph glyph-name="Amacron.sc" horiz-adv-x="659" 
d="M325 554q-1 -4 -8.5 -28.5t-17.5 -54.5l-77 -219h206l-76 218q-5 17 -10 31.5t-8 26.5q-4 13 -7 26h-2zM455 178h-259l-62 -178h-89l230 644h106l233 -644h-96zM181 834h292v-73h-292v73z" />
    <glyph glyph-name="Aogonek.sc" horiz-adv-x="659" 
d="M588 -188q-60 0 -94 24t-34 69q0 16 5.5 30t14.5 25t20 20t21 15l-66 183h-259l-62 -178h-89l230 644h106l231 -639q-33 -22 -51.5 -42t-18.5 -45q0 -23 15 -33t49 -11v-62h-18zM325 554q-1 -4 -8.5 -28.5t-17.5 -54.5l-77 -219h206l-76 218q-5 17 -10 31.5t-8 26.5
q-4 13 -7 26h-2z" />
    <glyph glyph-name="Aring.sc" horiz-adv-x="659" 
d="M325 554q-1 -4 -8.5 -28.5t-17.5 -54.5l-77 -219h206l-76 218q-5 17 -10 31.5t-8 26.5q-4 13 -7 26h-2zM455 178h-259l-62 -178h-89l230 644h106l233 -644h-96zM327 739q-52 0 -80.5 29.5t-28.5 77.5t30.5 77.5t79.5 29.5q53 0 81 -29.5t28 -77.5t-30 -77.5t-80 -29.5z
M327 907q-23 0 -37.5 -17t-14.5 -44t14 -44t39 -17q23 0 37.5 17t14.5 44t-14 44t-39 17z" />
    <glyph glyph-name="uni01FA.sc" horiz-adv-x="659" 
d="M325 554q-1 -4 -8.5 -28.5t-17.5 -54.5l-77 -219h206l-76 218q-5 17 -10 31.5t-8 26.5q-4 13 -7 26h-2zM455 178h-259l-62 -178h-89l230 644h106l233 -644h-96zM327 739q-52 0 -80.5 29.5t-28.5 77.5t30.5 77.5t79.5 29.5q53 0 81 -29.5t28 -77.5t-30 -77.5t-80 -29.5z
M327 907q-23 0 -37.5 -17t-14.5 -44t14 -44t39 -17q23 0 37.5 17t14.5 44t-14 44t-39 17zM355 1125h105l-94 -133h-71z" />
    <glyph glyph-name="Atilde.sc" horiz-adv-x="659" 
d="M325 554q-1 -4 -8.5 -28.5t-17.5 -54.5l-77 -219h206l-76 218q-5 17 -10 31.5t-8 26.5q-4 13 -7 26h-2zM455 178h-259l-62 -178h-89l230 644h106l233 -644h-96zM150 739q0 26 6.5 50.5t19.5 43t33 30t46 11.5q25 0 46 -10t39 -21.5t33.5 -21.5t28.5 -10q39 0 47 65h56
q0 -26 -6.5 -50.5t-19.5 -43.5t-33 -30t-46 -11q-25 0 -45.5 9.5t-38.5 21.5t-33.5 21.5t-30.5 9.5q-38 0 -46 -64h-56z" />
    <glyph glyph-name="Cacute.sc" horiz-adv-x="688" 
d="M366 580q-47 0 -84 -18.5t-62.5 -52t-39 -81.5t-13.5 -108q0 -121 52 -190t145 -69q40 0 69.5 12t49 32.5t30.5 46.5t14 54h91q-2 -47 -20.5 -87t-50.5 -69.5t-78 -46t-104 -16.5q-66 0 -120 21t-92 63t-59 104t-21 144q0 79 21.5 141t60 105t92.5 65.5t119 22.5
q47 0 91.5 -12.5t79.5 -38t56.5 -64.5t23.5 -93h-93q-4 29 -14.5 54t-29.5 43t-47 28t-67 10zM381 903h101l-87 -162h-67z" />
    <glyph glyph-name="Ccaron.sc" horiz-adv-x="688" 
d="M366 580q-47 0 -84 -18.5t-62.5 -52t-39 -81.5t-13.5 -108q0 -121 52 -190t145 -69q40 0 69.5 12t49 32.5t30.5 46.5t14 54h91q-2 -47 -20.5 -87t-50.5 -69.5t-78 -46t-104 -16.5q-66 0 -120 21t-92 63t-59 104t-21 144q0 79 21.5 141t60 105t92.5 65.5t119 22.5
q47 0 91.5 -12.5t79.5 -38t56.5 -64.5t23.5 -93h-93q-4 29 -14.5 54t-29.5 43t-47 28t-67 10zM203 903h80l78 -101h1l78 101h71l-107 -162h-94z" />
    <glyph glyph-name="Ccedilla.sc" horiz-adv-x="688" 
d="M359 -212q-46 0 -64.5 20t-20.5 46h57q5 -22 30 -22q17 0 24.5 9.5t7.5 26.5q0 16 -7.5 26t-24.5 10t-27 -12h-54l46 97q-58 6 -104.5 30t-79.5 65.5t-51 100t-18 134.5q0 79 21.5 141t60 105t92.5 65.5t119 22.5q47 0 91.5 -12.5t79.5 -38t56.5 -64.5t23.5 -93h-93
q-4 29 -14.5 54t-29.5 43t-47 28t-67 10q-47 0 -84 -18.5t-62.5 -52t-39 -81.5t-13.5 -108q0 -121 52 -190t145 -69q40 0 69.5 12t49 32.5t30.5 46.5t14 54h91q-2 -47 -20 -87t-50.5 -69.5t-77.5 -46t-101 -16.5l-26 -53h2q5 5 14 8t22 3q33 0 52 -20.5t19 -55.5
q0 -31 -22.5 -56t-70.5 -25z" />
    <glyph glyph-name="Ccircumflex.sc" horiz-adv-x="688" 
d="M366 580q-47 0 -84 -18.5t-62.5 -52t-39 -81.5t-13.5 -108q0 -121 52 -190t145 -69q40 0 69.5 12t49 32.5t30.5 46.5t14 54h91q-2 -47 -20.5 -87t-50.5 -69.5t-78 -46t-104 -16.5q-66 0 -120 21t-92 63t-59 104t-21 144q0 79 21.5 141t60 105t92.5 65.5t119 22.5
q47 0 91.5 -12.5t79.5 -38t56.5 -64.5t23.5 -93h-93q-4 29 -14.5 54t-29.5 43t-47 28t-67 10zM521 741h-80l-78 101h-1l-78 -101h-71l107 162h94z" />
    <glyph glyph-name="Cdotaccent.sc" horiz-adv-x="688" 
d="M366 580q-47 0 -84 -18.5t-62.5 -52t-39 -81.5t-13.5 -108q0 -121 52 -190t145 -69q40 0 69.5 12t49 32.5t30.5 46.5t14 54h91q-2 -47 -20.5 -87t-50.5 -69.5t-78 -46t-104 -16.5q-66 0 -120 21t-92 63t-59 104t-21 144q0 79 21.5 141t60 105t92.5 65.5t119 22.5
q47 0 91.5 -12.5t79.5 -38t56.5 -64.5t23.5 -93h-93q-4 29 -14.5 54t-29.5 43t-47 28t-67 10zM316 860h95v-99h-95v99z" />
    <glyph glyph-name="Dcaron.sc" horiz-adv-x="704" 
d="M110 644h204q67 0 125 -17.5t101 -55t67 -97t24 -144.5q0 -84 -23 -146.5t-64 -103t-98 -60.5t-124 -20h-212v644zM313 77q50 0 91 13.5t70.5 43t45.5 77t16 116.5q0 66 -16.5 111.5t-45.5 74t-69 41.5t-87 13h-117v-490h112zM175 903h80l78 -101h1l78 101h71l-107 -162
h-94z" />
    <glyph glyph-name="Eacute.sc" horiz-adv-x="613" 
d="M110 644h418v-80h-327v-201h302v-78h-302v-205h332v-80h-423v644zM339 903h101l-87 -162h-67z" />
    <glyph glyph-name="Ecaron.sc" horiz-adv-x="613" 
d="M110 644h418v-80h-327v-201h302v-78h-302v-205h332v-80h-423v644zM161 903h80l78 -101h1l78 101h71l-107 -162h-94z" />
    <glyph glyph-name="Ecircumflex.sc" horiz-adv-x="613" 
d="M110 644h418v-80h-327v-201h302v-78h-302v-205h332v-80h-423v644zM479 741h-80l-78 101h-1l-78 -101h-71l107 162h94z" />
    <glyph glyph-name="Edieresis.sc" horiz-adv-x="613" 
d="M110 644h418v-80h-327v-201h302v-78h-302v-205h332v-80h-423v644zM373 860h92v-99h-92v99zM177 860h92v-99h-92v99z" />
    <glyph glyph-name="Edotaccent.sc" horiz-adv-x="613" 
d="M110 644h418v-80h-327v-201h302v-78h-302v-205h332v-80h-423v644zM274 860h95v-99h-95v99z" />
    <glyph glyph-name="Egrave.sc" horiz-adv-x="613" 
d="M110 644h418v-80h-327v-201h302v-78h-302v-205h332v-80h-423v644zM356 741h-66l-88 162h101z" />
    <glyph glyph-name="Emacron.sc" horiz-adv-x="613" 
d="M110 644h418v-80h-327v-201h302v-78h-302v-205h332v-80h-423v644zM175 834h292v-73h-292v73z" />
    <glyph glyph-name="Eogonek.sc" horiz-adv-x="613" 
d="M110 0v644h418v-80h-327v-201h302v-78h-302v-205h332v-80h-1q-28 -18 -45.5 -37.5t-17.5 -44.5q0 -23 15 -33t49 -11v-62h-18q-60 0 -94 24t-34 69q0 18 7 33.5t17.5 27.5t23 20.5t22.5 13.5h-347z" />
    <glyph glyph-name="Gbreve.sc" horiz-adv-x="729" 
d="M370 581q-50 0 -88.5 -18.5t-64.5 -53t-39.5 -83t-13.5 -109.5q0 -128 52 -192t147 -64q40 0 74 12t58 35t38 57t14 78v10h-183v77h270v-330h-76v91h-4q-23 -43 -72 -73.5t-127 -30.5q-63 0 -115.5 20.5t-90 62t-58 103t-20.5 143.5q0 79 22.5 141.5t63 106t95.5 66.5
t121 23q51 0 94.5 -12.5t75.5 -36.5t51 -59t23 -79h-92q-8 55 -48.5 85t-106.5 30zM370 744q-31 0 -58.5 9t-47.5 28.5t-32 49.5t-12 72h69q0 -48 23.5 -72t60.5 -24t60.5 24t23.5 72h64q0 -42 -12 -72t-32 -49.5t-48 -28.5t-59 -9z" />
    <glyph glyph-name="Gcircumflex.sc" horiz-adv-x="729" 
d="M370 581q-50 0 -88.5 -18.5t-64.5 -53t-39.5 -83t-13.5 -109.5q0 -128 52 -192t147 -64q40 0 74 12t58 35t38 57t14 78v10h-183v77h270v-330h-76v91h-4q-23 -43 -72 -73.5t-127 -30.5q-63 0 -115.5 20.5t-90 62t-58 103t-20.5 143.5q0 79 22.5 141.5t63 106t95.5 66.5
t121 23q51 0 94.5 -12.5t75.5 -36.5t51 -59t23 -79h-92q-8 55 -48.5 85t-106.5 30zM528 741h-80l-78 101h-1l-78 -101h-71l107 162h94z" />
    <glyph glyph-name="Gcommaaccent.sc" horiz-adv-x="729" 
d="M370 581q-50 0 -88.5 -18.5t-64.5 -53t-39.5 -83t-13.5 -109.5q0 -128 52 -192t147 -64q40 0 74 12t58 35t38 57t14 78v10h-183v77h270v-330h-76v91h-4q-23 -43 -72 -73.5t-127 -30.5q-63 0 -115.5 20.5t-90 62t-58 103t-20.5 143.5q0 79 22.5 141.5t63 106t95.5 66.5
t121 23q51 0 94.5 -12.5t75.5 -36.5t51 -59t23 -79h-92q-8 55 -48.5 85t-106.5 30zM325 -69h97l-62 -137h-57z" />
    <glyph glyph-name="Gdotaccent.sc" horiz-adv-x="729" 
d="M370 581q-50 0 -88.5 -18.5t-64.5 -53t-39.5 -83t-13.5 -109.5q0 -128 52 -192t147 -64q40 0 74 12t58 35t38 57t14 78v10h-183v77h270v-330h-76v91h-4q-23 -43 -72 -73.5t-127 -30.5q-63 0 -115.5 20.5t-90 62t-58 103t-20.5 143.5q0 79 22.5 141.5t63 106t95.5 66.5
t121 23q51 0 94.5 -12.5t75.5 -36.5t51 -59t23 -79h-92q-8 55 -48.5 85t-106.5 30zM323 860h95v-99h-95v99z" />
    <glyph glyph-name="Hcircumflex.sc" horiz-adv-x="737" 
d="M201 0h-91v644h91v-281h335v281h91v-644h-91v286h-335v-286zM526 741h-80l-78 101h-1l-78 -101h-71l107 162h94z" />
    <glyph glyph-name="Iacute.sc" horiz-adv-x="311" 
d="M110 644h91v-644h-91v644zM173 903h101l-87 -162h-67z" />
    <glyph glyph-name="questiondown.uc" horiz-adv-x="535" 
d="M124.025 175.036q0 -56.9971 36.4971 -92.9941q36.498 -35.998 98.4941 -35.998q74.9951 0 115.993 45.9971q40.9971 45.9971 38.998 133.992h84.9941q2 -57.9971 -14.499 -105.494t-47.9971 -81.4951q-31.498 -33.9971 -76.4951 -52.4961t-98.9941 -18.499
q-58.9961 0 -101.494 17.499q-42.4971 17.499 -70.4951 45.4971t-40.998 63.9961q-12.999 35.998 -12.999 71.9951q0 38.998 9.5 68.9961q9.49902 29.998 24.998 53.4971q15.499 23.498 34.998 42.4971t39.4971 35.998l36.998 31.998q14.999 13.999 25.498 22.498
q10.5 8.5 16.499 17.499q6 9 9 19.999t3 28.998v48.9971h81.9951v-63.9961q0 -24.998 -4 -41.4971t-12.999 -29.498q-9 -13 -23.499 -25.499t-35.498 -30.498l-48.9971 -41.9971q-32.998 -26.999 -50.4961 -57.4971q-17.499 -30.498 -17.499 -72.4951zM336.012 765v-117.993
h-117.992v117.993h117.992z" />
    <glyph glyph-name="Icircumflex.sc" horiz-adv-x="311" 
d="M110 644h91v-644h-91v644zM313 741h-80l-78 101h-1l-78 -101h-71l107 162h94z" />
    <glyph glyph-name="Idieresis.sc" horiz-adv-x="311" 
d="M110 644h91v-644h-91v644zM207 860h92v-99h-92v99zM11 860h92v-99h-92v99z" />
    <glyph glyph-name="Igrave.sc" horiz-adv-x="311" 
d="M110 644h91v-644h-91v644zM190 741h-66l-88 162h101z" />
    <glyph glyph-name="Imacron.sc" horiz-adv-x="311" 
d="M110 644h91v-644h-91v644zM9 834h292v-73h-292v73z" />
    <glyph glyph-name="Iogonek.sc" horiz-adv-x="311" 
d="M178 -188q-60 0 -94 24t-34 69q0 16 5.5 29.5t14.5 25t19.5 20.5t20.5 15v649h91v-636q-28 -18 -48.5 -37.5t-20.5 -49.5q0 -25 15 -35.5t49 -11.5v-62h-18z" />
    <glyph glyph-name="Itilde.sc" horiz-adv-x="311" 
d="M110 644h91v-644h-91v644zM-22 739q0 26 6.5 50.5t19.5 43t33 30t46 11.5q25 0 46 -10t39 -21.5t33.5 -21.5t28.5 -10q39 0 47 65h56q0 -26 -6.5 -50.5t-19.5 -43.5t-33 -30t-46 -11q-25 0 -45.5 9.5t-38.5 21.5t-33.5 21.5t-30.5 9.5q-38 0 -46 -64h-56z" />
    <glyph glyph-name="Jcircumflex.sc" horiz-adv-x="402" 
d="M29 0v79h31q49 0 78.5 7t46 22.5t22 39.5t5.5 58v438h90v-443q0 -56 -14.5 -94.5t-43 -62t-70.5 -34t-96 -10.5h-49zM415 741h-80l-78 101h-1l-78 -101h-71l107 162h94z" />
    <glyph glyph-name="Kcommaaccent.sc" horiz-adv-x="659" 
d="M201 0h-91v644h91v-325l291 325h111l-247 -274l258 -370h-108l-213 307l-92 -101v-206zM295 -69h97l-62 -137h-57z" />
    <glyph glyph-name="Lacute.sc" horiz-adv-x="576" 
d="M110 644h91v-565h320v-79h-411v644zM179 903h101l-87 -162h-67z" />
    <glyph glyph-name="Lcaron.sc" horiz-adv-x="576" 
d="M110 644h91v-565h320v-79h-411v644zM295 644h86l-47 -162h-56z" />
    <glyph glyph-name="Lcommaaccent.sc" horiz-adv-x="576" 
d="M110 644h91v-565h320v-79h-411v644zM270 -69h97l-62 -137h-57z" />
    <glyph glyph-name="Nacute.sc" horiz-adv-x="728" 
d="M110 644h107l264 -432q11 -18 19.5 -34.5t15.5 -29.5q8 -15 14 -28h3v524h85v-644h-107l-264 432q-11 17 -19.5 34t-15.5 30q-8 15 -14 28h-3v-524h-85v644zM382 903h101l-87 -162h-67z" />
    <glyph glyph-name="Ncaron.sc" horiz-adv-x="728" 
d="M110 644h107l264 -432q11 -18 19.5 -34.5t15.5 -29.5q8 -15 14 -28h3v524h85v-644h-107l-264 432q-11 17 -19.5 34t-15.5 30q-8 15 -14 28h-3v-524h-85v644zM204 903h80l78 -101h1l78 101h71l-107 -162h-94z" />
    <glyph glyph-name="Ncommaaccent.sc" horiz-adv-x="728" 
d="M110 644h107l264 -432q11 -18 19.5 -34.5t15.5 -29.5q8 -15 14 -28h3v524h85v-644h-107l-264 432q-11 17 -19.5 34t-15.5 30q-8 15 -14 28h-3v-524h-85v644zM319 -69h97l-62 -137h-57z" />
    <glyph glyph-name="Ntilde.sc" horiz-adv-x="728" 
d="M110 644h107l264 -432q11 -18 19.5 -34.5t15.5 -29.5q8 -15 14 -28h3v524h85v-644h-107l-264 432q-11 17 -19.5 34t-15.5 30q-8 15 -14 28h-3v-524h-85v644zM187 739q0 26 6.5 50.5t19.5 43t33 30t46 11.5q25 0 46 -10t39 -21.5t33.5 -21.5t28.5 -10q39 0 47 65h56
q0 -26 -6.5 -50.5t-19.5 -43.5t-33 -30t-46 -11q-25 0 -45.5 9.5t-38.5 21.5t-33.5 21.5t-30.5 9.5q-38 0 -46 -64h-56z" />
    <glyph glyph-name="Oacute.sc" horiz-adv-x="735" 
d="M73 320q0 85 24 148t64.5 104t93.5 61t112 20q61 0 114.5 -19.5t93.5 -60.5t63.5 -104t23.5 -149t-23.5 -149t-64 -104t-94.5 -60.5t-114 -19.5t-113.5 19.5t-93.5 60.5t-63 104t-23 149zM366 61q44 0 81.5 17t64.5 49.5t42 80.5t15 111q0 64 -15 113t-41.5 82t-64 49.5
t-82.5 16.5q-44 0 -80.5 -16t-63 -48.5t-41.5 -81.5t-15 -115q0 -63 14.5 -111.5t41 -81t63 -49t81.5 -16.5zM385 903h101l-87 -162h-67z" />
    <glyph glyph-name="Obreve.sc" horiz-adv-x="735" 
d="M73 320q0 85 24 148t64.5 104t93.5 61t112 20q61 0 114.5 -19.5t93.5 -60.5t63.5 -104t23.5 -149t-23.5 -149t-64 -104t-94.5 -60.5t-114 -19.5t-113.5 19.5t-93.5 60.5t-63 104t-23 149zM366 61q44 0 81.5 17t64.5 49.5t42 80.5t15 111q0 64 -15 113t-41.5 82t-64 49.5
t-82.5 16.5q-44 0 -80.5 -16t-63 -48.5t-41.5 -81.5t-15 -115q0 -63 14.5 -111.5t41 -81t63 -49t81.5 -16.5zM367 744q-31 0 -58.5 9t-47.5 28.5t-32 49.5t-12 72h69q0 -48 23.5 -72t60.5 -24t60.5 24t23.5 72h64q0 -42 -12 -72t-32 -49.5t-48 -28.5t-59 -9z" />
    <glyph glyph-name="Ocircumflex.sc" horiz-adv-x="735" 
d="M73 320q0 85 24 148t64.5 104t93.5 61t112 20q61 0 114.5 -19.5t93.5 -60.5t63.5 -104t23.5 -149t-23.5 -149t-64 -104t-94.5 -60.5t-114 -19.5t-113.5 19.5t-93.5 60.5t-63 104t-23 149zM366 61q44 0 81.5 17t64.5 49.5t42 80.5t15 111q0 64 -15 113t-41.5 82t-64 49.5
t-82.5 16.5q-44 0 -80.5 -16t-63 -48.5t-41.5 -81.5t-15 -115q0 -63 14.5 -111.5t41 -81t63 -49t81.5 -16.5zM525 741h-80l-78 101h-1l-78 -101h-71l107 162h94z" />
    <glyph glyph-name="Odieresis.sc" horiz-adv-x="735" 
d="M73 320q0 85 24 148t64.5 104t93.5 61t112 20q61 0 114.5 -19.5t93.5 -60.5t63.5 -104t23.5 -149t-23.5 -149t-64 -104t-94.5 -60.5t-114 -19.5t-113.5 19.5t-93.5 60.5t-63 104t-23 149zM366 61q44 0 81.5 17t64.5 49.5t42 80.5t15 111q0 64 -15 113t-41.5 82t-64 49.5
t-82.5 16.5q-44 0 -80.5 -16t-63 -48.5t-41.5 -81.5t-15 -115q0 -63 14.5 -111.5t41 -81t63 -49t81.5 -16.5zM419 860h92v-99h-92v99zM223 860h92v-99h-92v99z" />
    <glyph glyph-name="Ograve.sc" horiz-adv-x="735" 
d="M73 320q0 85 24 148t64.5 104t93.5 61t112 20q61 0 114.5 -19.5t93.5 -60.5t63.5 -104t23.5 -149t-23.5 -149t-64 -104t-94.5 -60.5t-114 -19.5t-113.5 19.5t-93.5 60.5t-63 104t-23 149zM366 61q44 0 81.5 17t64.5 49.5t42 80.5t15 111q0 64 -15 113t-41.5 82t-64 49.5
t-82.5 16.5q-44 0 -80.5 -16t-63 -48.5t-41.5 -81.5t-15 -115q0 -63 14.5 -111.5t41 -81t63 -49t81.5 -16.5zM402 741h-66l-88 162h101z" />
    <glyph glyph-name="Ohungarumlaut.sc" horiz-adv-x="735" 
d="M73 320q0 85 24 148t64.5 104t93.5 61t112 20q61 0 114.5 -19.5t93.5 -60.5t63.5 -104t23.5 -149t-23.5 -149t-64 -104t-94.5 -60.5t-114 -19.5t-113.5 19.5t-93.5 60.5t-63 104t-23 149zM366 61q44 0 81.5 17t64.5 49.5t42 80.5t15 111q0 64 -15 113t-41.5 82t-64 49.5
t-82.5 16.5q-44 0 -80.5 -16t-63 -48.5t-41.5 -81.5t-15 -115q0 -63 14.5 -111.5t41 -81t63 -49t81.5 -16.5zM458 903h91l-87 -162h-57zM318 903h91l-87 -162h-57z" />
    <glyph glyph-name="Omacron.sc" horiz-adv-x="735" 
d="M73 320q0 85 24 148t64.5 104t93.5 61t112 20q61 0 114.5 -19.5t93.5 -60.5t63.5 -104t23.5 -149t-23.5 -149t-64 -104t-94.5 -60.5t-114 -19.5t-113.5 19.5t-93.5 60.5t-63 104t-23 149zM366 61q44 0 81.5 17t64.5 49.5t42 80.5t15 111q0 64 -15 113t-41.5 82t-64 49.5
t-82.5 16.5q-44 0 -80.5 -16t-63 -48.5t-41.5 -81.5t-15 -115q0 -63 14.5 -111.5t41 -81t63 -49t81.5 -16.5zM221 834h292v-73h-292v73z" />
    <glyph glyph-name="Oslashacute.sc" horiz-adv-x="735" 
d="M366 581q-44 0 -81 -16t-64 -48.5t-42 -82t-15 -115.5q0 -52 8.5 -92.5t24.5 -70.5l299 381q-26 23 -59 33.5t-71 10.5zM366 60q45 0 82.5 16.5t64.5 49.5t42.5 81.5t15.5 111.5q0 54 -9.5 95.5t-26.5 72.5l-300 -381q52 -46 131 -46zM662 320q0 -86 -23.5 -149t-64 -104
t-94.5 -60.5t-114 -19.5q-51 0 -96 14t-83 43l-51 -65h-77l84 107q-32 42 -51 99.5t-19 134.5q0 85 24 148t64.5 104t93.5 61t112 20q51 0 95.5 -13t82.5 -41l54 69h78l-87 -111q34 -42 53 -100.5t19 -136.5zM386 903h101l-87 -162h-67z" />
    <glyph glyph-name="Otilde.sc" horiz-adv-x="735" 
d="M73 320q0 85 24 148t64.5 104t93.5 61t112 20q61 0 114.5 -19.5t93.5 -60.5t63.5 -104t23.5 -149t-23.5 -149t-64 -104t-94.5 -60.5t-114 -19.5t-113.5 19.5t-93.5 60.5t-63 104t-23 149zM366 61q44 0 81.5 17t64.5 49.5t42 80.5t15 111q0 64 -15 113t-41.5 82t-64 49.5
t-82.5 16.5q-44 0 -80.5 -16t-63 -48.5t-41.5 -81.5t-15 -115q0 -63 14.5 -111.5t41 -81t63 -49t81.5 -16.5zM190 739q0 26 6.5 50.5t19.5 43t33 30t46 11.5q25 0 46 -10t39 -21.5t33.5 -21.5t28.5 -10q39 0 47 65h56q0 -26 -6.5 -50.5t-19.5 -43.5t-33 -30t-46 -11
q-25 0 -45.5 9.5t-38.5 21.5t-33.5 21.5t-30.5 9.5q-38 0 -46 -64h-56z" />
    <glyph glyph-name="Racute.sc" horiz-adv-x="642" 
d="M345 339q57 0 94.5 27.5t37.5 91.5q0 30 -10 51t-27.5 35t-41 20.5t-50.5 6.5h-147v-232h144zM342 263h-141v-263h-91v644h244q35 0 68 -6.5t64 -23.5q37 -21 60.5 -57.5t23.5 -95.5q0 -44 -13 -75t-33 -52t-44 -33.5t-46 -19.5v-1l150 -280h-101zM339 903h101l-87 -162
h-67z" />
    <glyph glyph-name="Rcaron.sc" horiz-adv-x="642" 
d="M345 339q57 0 94.5 27.5t37.5 91.5q0 30 -10 51t-27.5 35t-41 20.5t-50.5 6.5h-147v-232h144zM342 263h-141v-263h-91v644h244q35 0 68 -6.5t64 -23.5q37 -21 60.5 -57.5t23.5 -95.5q0 -44 -13 -75t-33 -52t-44 -33.5t-46 -19.5v-1l150 -280h-101zM161 903h80l78 -101h1
l78 101h71l-107 -162h-94z" />
    <glyph glyph-name="Rcommaaccent.sc" horiz-adv-x="642" 
d="M345 339q57 0 94.5 27.5t37.5 91.5q0 30 -10 51t-27.5 35t-41 20.5t-50.5 6.5h-147v-232h144zM342 263h-141v-263h-91v644h244q35 0 68 -6.5t64 -23.5q37 -21 60.5 -57.5t23.5 -95.5q0 -44 -13 -75t-33 -52t-44 -33.5t-46 -19.5v-1l150 -280h-101zM276 -69h97l-62 -137
h-57z" />
    <glyph glyph-name="Sacute.sc" horiz-adv-x="636" 
d="M460 471q-5 46 -37.5 78t-97.5 32q-63 0 -98 -29.5t-35 -74.5t24 -68t82 -32l94 -14q47 -7 79.5 -22t52.5 -37.5t28.5 -51.5t8.5 -65q0 -94 -61.5 -147t-179.5 -53q-115 0 -177 51.5t-68 143.5h92q3 -26 13 -48t28.5 -38.5t46.5 -26t67 -9.5q41 0 69.5 9t46 24.5t25.5 36
t8 44.5q0 40 -22 67.5t-85 37.5l-92 14q-49 7 -82 23t-53 38.5t-28.5 51.5t-8.5 62q0 40 16 74t45.5 58.5t71 38.5t93.5 14q108 0 163 -49.5t59 -132.5h-88zM344 903h101l-87 -162h-67z" />
    <glyph glyph-name="Scaron.sc" horiz-adv-x="636" 
d="M460 471q-5 46 -37.5 78t-97.5 32q-63 0 -98 -29.5t-35 -74.5t24 -68t82 -32l94 -14q47 -7 79.5 -22t52.5 -37.5t28.5 -51.5t8.5 -65q0 -94 -61.5 -147t-179.5 -53q-115 0 -177 51.5t-68 143.5h92q3 -26 13 -48t28.5 -38.5t46.5 -26t67 -9.5q41 0 69.5 9t46 24.5t25.5 36
t8 44.5q0 40 -22 67.5t-85 37.5l-92 14q-49 7 -82 23t-53 38.5t-28.5 51.5t-8.5 62q0 40 16 74t45.5 58.5t71 38.5t93.5 14q108 0 163 -49.5t59 -132.5h-88zM166 903h80l78 -101h1l78 101h71l-107 -162h-94z" />
    <glyph glyph-name="Scedilla.sc" horiz-adv-x="636" 
d="M322 -212q-46 0 -64.5 20t-20.5 46h57q5 -22 30 -22q17 0 24.5 9.5t7.5 26.5q0 16 -7.5 26t-24.5 10t-27 -12h-54l46 96q-100 7 -154.5 58t-59.5 136h92q3 -26 13 -48t28.5 -38.5t46.5 -26t67 -9.5q41 0 69.5 9t46 24.5t25.5 36t8 44.5q0 40 -22 67.5t-85 37.5l-92 14
q-49 7 -82 23t-53 38.5t-28.5 51.5t-8.5 62q0 40 16 74t45.5 58.5t71 38.5t93.5 14q108 0 163 -49.5t59 -132.5h-88q-5 46 -37.5 78t-97.5 32q-63 0 -98 -29.5t-35 -74.5t24 -68t82 -32l94 -14q47 -7 79.5 -22t52.5 -37.5t28.5 -51.5t8.5 -65q0 -91 -58.5 -144t-170.5 -56
l-26 -53h2q5 5 14 8t22 3q33 0 52 -20.5t19 -55.5q0 -31 -22.5 -56t-70.5 -25z" />
    <glyph glyph-name="Scircumflex.sc" horiz-adv-x="636" 
d="M460 471q-5 46 -37.5 78t-97.5 32q-63 0 -98 -29.5t-35 -74.5t24 -68t82 -32l94 -14q47 -7 79.5 -22t52.5 -37.5t28.5 -51.5t8.5 -65q0 -94 -61.5 -147t-179.5 -53q-115 0 -177 51.5t-68 143.5h92q3 -26 13 -48t28.5 -38.5t46.5 -26t67 -9.5q41 0 69.5 9t46 24.5t25.5 36
t8 44.5q0 40 -22 67.5t-85 37.5l-92 14q-49 7 -82 23t-53 38.5t-28.5 51.5t-8.5 62q0 40 16 74t45.5 58.5t71 38.5t93.5 14q108 0 163 -49.5t59 -132.5h-88zM484 741h-80l-78 101h-1l-78 -101h-71l107 162h94z" />
    <glyph glyph-name="Scommaaccent.sc" horiz-adv-x="636" 
d="M460 471q-5 46 -37.5 78t-97.5 32q-63 0 -98 -29.5t-35 -74.5t24 -68t82 -32l94 -14q47 -7 79.5 -22t52.5 -37.5t28.5 -51.5t8.5 -65q0 -94 -61.5 -147t-179.5 -53q-115 0 -177 51.5t-68 143.5h92q3 -26 13 -48t28.5 -38.5t46.5 -26t67 -9.5q41 0 69.5 9t46 24.5t25.5 36
t8 44.5q0 40 -22 67.5t-85 37.5l-92 14q-49 7 -82 23t-53 38.5t-28.5 51.5t-8.5 62q0 40 16 74t45.5 58.5t71 38.5t93.5 14q108 0 163 -49.5t59 -132.5h-88zM281 -69h97l-62 -137h-57z" />
    <glyph glyph-name="Tcaron.sc" horiz-adv-x="599" 
d="M564 567h-219v-567h-91v567h-219v77h529v-77zM139 903h80l78 -101h1l78 101h71l-107 -162h-94z" />
    <glyph glyph-name="Tcommaaccent.sc" horiz-adv-x="599" 
d="M564 567h-219v-567h-91v567h-219v77h529v-77zM254 -69h97l-62 -137h-57z" />
    <glyph glyph-name="Uacute.sc" horiz-adv-x="700" 
d="M100 644h91v-372q0 -21 0.5 -43t3.5 -43t9.5 -40t17.5 -33q44 -51 130 -51q43 0 76 12.5t54 38.5q12 14 18 33t8.5 40t2.5 43v43v372h89v-426q0 -61 -18 -104.5t-51 -71.5t-79 -41.5t-102 -13.5q-57 0 -103 13t-78.5 41t-50.5 71.5t-18 105.5v426zM368 903h101l-87 -162
h-67z" />
    <glyph glyph-name="Ubreve.sc" horiz-adv-x="700" 
d="M100 644h91v-372q0 -21 0.5 -43t3.5 -43t9.5 -40t17.5 -33q44 -51 130 -51q43 0 76 12.5t54 38.5q12 14 18 33t8.5 40t2.5 43v43v372h89v-426q0 -61 -18 -104.5t-51 -71.5t-79 -41.5t-102 -13.5q-57 0 -103 13t-78.5 41t-50.5 71.5t-18 105.5v426zM350 744q-31 0 -58.5 9
t-47.5 28.5t-32 49.5t-12 72h69q0 -48 23.5 -72t60.5 -24t60.5 24t23.5 72h64q0 -42 -12 -72t-32 -49.5t-48 -28.5t-59 -9z" />
    <glyph glyph-name="Ucircumflex.sc" horiz-adv-x="700" 
d="M100 644h91v-372q0 -21 0.5 -43t3.5 -43t9.5 -40t17.5 -33q44 -51 130 -51q43 0 76 12.5t54 38.5q12 14 18 33t8.5 40t2.5 43v43v372h89v-426q0 -61 -18 -104.5t-51 -71.5t-79 -41.5t-102 -13.5q-57 0 -103 13t-78.5 41t-50.5 71.5t-18 105.5v426zM508 741h-80l-78 101
h-1l-78 -101h-71l107 162h94z" />
    <glyph glyph-name="Udieresis.sc" horiz-adv-x="700" 
d="M100 644h91v-372q0 -21 0.5 -43t3.5 -43t9.5 -40t17.5 -33q44 -51 130 -51q43 0 76 12.5t54 38.5q12 14 18 33t8.5 40t2.5 43v43v372h89v-426q0 -61 -18 -104.5t-51 -71.5t-79 -41.5t-102 -13.5q-57 0 -103 13t-78.5 41t-50.5 71.5t-18 105.5v426zM402 860h92v-99h-92v99
zM206 860h92v-99h-92v99z" />
    <glyph glyph-name="Ugrave.sc" horiz-adv-x="700" 
d="M100 644h91v-372q0 -21 0.5 -43t3.5 -43t9.5 -40t17.5 -33q44 -51 130 -51q43 0 76 12.5t54 38.5q12 14 18 33t8.5 40t2.5 43v43v372h89v-426q0 -61 -18 -104.5t-51 -71.5t-79 -41.5t-102 -13.5q-57 0 -103 13t-78.5 41t-50.5 71.5t-18 105.5v426zM385 741h-66l-88 162
h101z" />
    <glyph glyph-name="Uhungarumlaut.sc" horiz-adv-x="700" 
d="M100 644h91v-372q0 -21 0.5 -43t3.5 -43t9.5 -40t17.5 -33q44 -51 130 -51q43 0 76 12.5t54 38.5q12 14 18 33t8.5 40t2.5 43v43v372h89v-426q0 -61 -18 -104.5t-51 -71.5t-79 -41.5t-102 -13.5q-57 0 -103 13t-78.5 41t-50.5 71.5t-18 105.5v426zM441 903h91l-87 -162
h-57zM301 903h91l-87 -162h-57z" />
    <glyph glyph-name="Umacron.sc" horiz-adv-x="700" 
d="M100 644h91v-372q0 -21 0.5 -43t3.5 -43t9.5 -40t17.5 -33q44 -51 130 -51q43 0 76 12.5t54 38.5q12 14 18 33t8.5 40t2.5 43v43v372h89v-426q0 -61 -18 -104.5t-51 -71.5t-79 -41.5t-102 -13.5q-57 0 -103 13t-78.5 41t-50.5 71.5t-18 105.5v426zM204 834h292v-73h-292
v73z" />
    <glyph glyph-name="Uogonek.sc" horiz-adv-x="700" 
d="M100 644h91v-372q0 -21 0.5 -43t3.5 -43t9.5 -40t17.5 -33q44 -51 130 -51q43 0 76 12.5t54 38.5q12 14 18 33t8.5 40t2.5 43v43v372h89v-426q0 -96 -43 -148.5t-116 -72.5q-33 -10 -57.5 -30t-24.5 -49q0 -23 15 -33t49 -11v-62h-18q-60 0 -94 24t-34 69q0 29 15.5 49
t35.5 33v1q-52 2 -94 16.5t-72 42.5t-46 70t-16 101v426z" />
    <glyph glyph-name="Uring.sc" horiz-adv-x="700" 
d="M100 644h91v-372q0 -21 0.5 -43t3.5 -43t9.5 -40t17.5 -33q44 -51 130 -51q43 0 76 12.5t54 38.5q12 14 18 33t8.5 40t2.5 43v43v372h89v-426q0 -61 -18 -104.5t-51 -71.5t-79 -41.5t-102 -13.5q-57 0 -103 13t-78.5 41t-50.5 71.5t-18 105.5v426zM350 739
q-52 0 -80.5 29.5t-28.5 77.5t30.5 77.5t79.5 29.5q53 0 81 -29.5t28 -77.5t-30 -77.5t-80 -29.5zM350 907q-23 0 -37.5 -17t-14.5 -44t14 -44t39 -17q23 0 37.5 17t14.5 44t-14 44t-39 17z" />
    <glyph glyph-name="Utilde.sc" horiz-adv-x="700" 
d="M100 644h91v-372q0 -21 0.5 -43t3.5 -43t9.5 -40t17.5 -33q44 -51 130 -51q43 0 76 12.5t54 38.5q12 14 18 33t8.5 40t2.5 43v43v372h89v-426q0 -61 -18 -104.5t-51 -71.5t-79 -41.5t-102 -13.5q-57 0 -103 13t-78.5 41t-50.5 71.5t-18 105.5v426zM173 739q0 26 6.5 50.5
t19.5 43t33 30t46 11.5q25 0 46 -10t39 -21.5t33.5 -21.5t28.5 -10q39 0 47 65h56q0 -26 -6.5 -50.5t-19.5 -43.5t-33 -30t-46 -11q-25 0 -45.5 9.5t-38.5 21.5t-33.5 21.5t-30.5 9.5q-38 0 -46 -64h-56z" />
    <glyph glyph-name="Wacute.sc" horiz-adv-x="934" 
d="M225 0l-182 644h90l117 -438q7 -26 11.5 -48t7.5 -39q4 -19 6 -35h2q2 16 6 35q3 17 7.5 38t11.5 47l118 440h96l122 -449q7 -26 11 -46.5t7 -34.5q3 -17 5 -30h2q1 12 4 29q2 14 6.5 34.5t11.5 46.5l119 450h87l-182 -644h-97l-124 439q-7 22 -11 42t-6 35q-3 18 -4 33
h-2q-2 -15 -5 -33l-7 -35t-10 -42l-122 -439h-96zM485 903h101l-87 -162h-67z" />
    <glyph glyph-name="Wcircumflex.sc" horiz-adv-x="934" 
d="M225 0l-182 644h90l117 -438q7 -26 11.5 -48t7.5 -39q4 -19 6 -35h2q2 16 6 35q3 17 7.5 38t11.5 47l118 440h96l122 -449q7 -26 11 -46.5t7 -34.5q3 -17 5 -30h2q1 12 4 29q2 14 6.5 34.5t11.5 46.5l119 450h87l-182 -644h-97l-124 439q-7 22 -11 42t-6 35q-3 18 -4 33
h-2q-2 -15 -5 -33l-7 -35t-10 -42l-122 -439h-96zM625 741h-80l-78 101h-1l-78 -101h-71l107 162h94z" />
    <glyph glyph-name="Wdieresis.sc" horiz-adv-x="934" 
d="M225 0l-182 644h90l117 -438q7 -26 11.5 -48t7.5 -39q4 -19 6 -35h2q2 16 6 35q3 17 7.5 38t11.5 47l118 440h96l122 -449q7 -26 11 -46.5t7 -34.5q3 -17 5 -30h2q1 12 4 29q2 14 6.5 34.5t11.5 46.5l119 450h87l-182 -644h-97l-124 439q-7 22 -11 42t-6 35q-3 18 -4 33
h-2q-2 -15 -5 -33l-7 -35t-10 -42l-122 -439h-96zM519 860h92v-99h-92v99zM323 860h92v-99h-92v99z" />
    <glyph glyph-name="Wgrave.sc" horiz-adv-x="934" 
d="M225 0l-182 644h90l117 -438q7 -26 11.5 -48t7.5 -39q4 -19 6 -35h2q2 16 6 35q3 17 7.5 38t11.5 47l118 440h96l122 -449q7 -26 11 -46.5t7 -34.5q3 -17 5 -30h2q1 12 4 29q2 14 6.5 34.5t11.5 46.5l119 450h87l-182 -644h-97l-124 439q-7 22 -11 42t-6 35q-3 18 -4 33
h-2q-2 -15 -5 -33l-7 -35t-10 -42l-122 -439h-96zM502 741h-66l-88 162h101z" />
    <glyph glyph-name="Yacute.sc" horiz-adv-x="624" 
d="M268 274l-238 370h104l178 -288h2l184 288h96l-237 -366v-278h-89v274zM332 903h101l-87 -162h-67z" />
    <glyph glyph-name="Ycircumflex.sc" horiz-adv-x="624" 
d="M268 274l-238 370h104l178 -288h2l184 288h96l-237 -366v-278h-89v274zM472 741h-80l-78 101h-1l-78 -101h-71l107 162h94z" />
    <glyph glyph-name="Ydieresis.sc" horiz-adv-x="624" 
d="M268 274l-238 370h104l178 -288h2l184 288h96l-237 -366v-278h-89v274zM366 860h92v-99h-92v99zM170 860h92v-99h-92v99z" />
    <glyph glyph-name="Ygrave.sc" horiz-adv-x="624" 
d="M268 274l-238 370h104l178 -288h2l184 288h96l-237 -366v-278h-89v274zM349 741h-66l-88 162h101z" />
    <glyph glyph-name="Zacute.sc" horiz-adv-x="615" 
d="M78 644h479v-70l-386 -496h389v-78h-500v70l389 496h-371v78zM334 903h101l-87 -162h-67z" />
    <glyph glyph-name="Zcaron.sc" horiz-adv-x="615" 
d="M78 644h479v-70l-386 -496h389v-78h-500v70l389 496h-371v78zM156 903h80l78 -101h1l78 101h71l-107 -162h-94z" />
    <glyph glyph-name="Zdotaccent.sc" horiz-adv-x="615" 
d="M78 644h479v-70l-386 -496h389v-78h-500v70l389 496h-371v78zM269 860h95v-99h-95v99z" />
    <glyph glyph-name="Ldot.sc" horiz-adv-x="576" 
d="M394 383h100v-99h-100v99zM110 644h91v-565h320v-79h-411v644z" />
    <glyph glyph-name="napostrophe.sc" horiz-adv-x="728" 
d="M110 644h107l264 -432q11 -18 19.5 -34.5t15.5 -29.5q8 -15 14 -28h3v524h85v-644h-107l-264 432q-11 17 -19.5 34t-15.5 30q-8 15 -14 28h-3v-524h-85v644z" />
    <glyph glyph-name="Hbar.sc" horiz-adv-x="737" 
d="M536 477h-335v-114h335v114zM201 0h-91v477h-79v60h79v107h91v-107h335v107h91v-107h79v-60h-79v-477h-91v286h-335v-286z" />
    <glyph glyph-name="Idotaccent.sc" horiz-adv-x="311" 
d="M110 644h91v-644h-91v644zM109 860h95v-99h-95v99z" />
    <glyph glyph-name="Ebreve.sc" horiz-adv-x="613" 
d="M110 644h418v-80h-327v-201h302v-78h-302v-205h332v-80h-423v644zM314 744q-31 0 -58.5 9t-47.5 28.5t-32 49.5t-12 72h69q0 -48 23.5 -72t60.5 -24t60.5 24t23.5 72h64q0 -42 -12 -72t-32 -49.5t-48 -28.5t-59 -9z" />
    <glyph glyph-name="yen.tab" 
d="M256 180h-200v69h200v93h-202v69h172l-205 330h106l172 -295h2l180 295h97l-207 -330h170v-69h-197v-93h199v-69h-199v-180h-88v180z" />
    <glyph glyph-name="eight.den" horiz-adv-x="426" 
d="M64 319q0 50 37.5 83.5t111.5 33.5t111.5 -33.5t37.5 -84.5q0 -39 -20.5 -63t-49.5 -33v-2q34 -8 59 -32t25 -72q0 -26 -11 -49t-31.5 -40t-51 -26.5t-69.5 -9.5q-80 0 -121.5 35.5t-41.5 89.5q0 23 7 41t19 30.5t27 20.5t31 12v2q-29 9 -49.5 33t-20.5 64zM213 381
q-32 0 -54 -16.5t-22 -51.5t22 -52t54 -17q31 0 53 17t22 52t-21.5 51.5t-53.5 16.5zM213 45q38 0 63.5 17.5t25.5 55.5t-25.5 55.5t-63.5 17.5q-36 0 -62.5 -17.5t-26.5 -55.5t26.5 -55.5t62.5 -17.5z" />
    <glyph glyph-name="five.den" horiz-adv-x="409" 
d="M287 139q0 42 -24.5 64t-62.5 22q-55 0 -80 -34h-64l21 239h260v-62h-199l-11 -119h1q13 14 36.5 24.5t55.5 10.5q29 0 55.5 -9t46 -27t31 -45t11.5 -63q0 -64 -43.5 -106.5t-123.5 -42.5q-43 0 -72 11t-47.5 29t-27 40.5t-10.5 45.5h75q3 -35 25.5 -50.5t58.5 -15.5
q34 0 61 22t27 66z" />
    <glyph glyph-name="four.den" horiz-adv-x="420" 
d="M252 158v199h-3q-3 -6 -7 -13q-4 -6 -9 -14t-12 -18l-115 -154h146zM322 99v-99h-73v99h-219v55l205 276h87v-271h58v-60h-58z" />
    <glyph glyph-name="nine.den" horiz-adv-x="418" 
d="M203 376q-16 0 -31.5 -5t-27.5 -15t-19.5 -26.5t-7.5 -38.5q0 -43 24 -64t62 -21t63 22.5t25 62.5q0 42 -27 63.5t-61 21.5zM120 101q5 -25 26.5 -39t49.5 -14q98 0 99 158h-2q-14 -23 -42.5 -40.5t-66.5 -17.5q-26 0 -51.5 8t-45.5 25.5t-32.5 43.5t-12.5 62
q0 65 43.5 107t118.5 42q80 0 124 -49t44 -156q0 -127 -46.5 -183.5t-130.5 -56.5q-60 0 -98.5 28t-46.5 82h70z" />
    <glyph glyph-name="one.den" horiz-adv-x="283" 
d="M119 301h-89v50h11q43 0 66 20q21 19 22 60h64v-431h-74v301z" />
    <glyph glyph-name="seven.den" horiz-adv-x="361" 
d="M246 367h-221v63h308v-45l-190 -385h-79z" />
    <glyph glyph-name="six.den" horiz-adv-x="418" 
d="M298 332q-5 20 -22.5 35t-47.5 15q-27 0 -46.5 -12.5t-33 -34t-20 -50.5t-6.5 -62h3q15 26 45 44.5t72 18.5q60 0 98 -35.5t38 -105.5q0 -32 -11 -60t-32 -49t-51.5 -33t-69.5 -12q-35 0 -65.5 10t-53 34t-35.5 63t-13 97q0 119 49.5 180t137.5 61q69 0 101.5 -29
t37.5 -75h-75zM215 50q34 0 61 22t27 67q0 42 -24.5 65t-63.5 23t-63 -22t-24 -66q0 -45 26.5 -67t60.5 -22z" />
    <glyph glyph-name="three.den" horiz-adv-x="413" 
d="M165 189v58h39q32 0 54 18.5t22 47.5q0 30 -22 47t-54 17q-77 0 -80 -72h-76q0 25 9.5 48.5t29 42t49 29.5t70.5 11q72 0 111 -33t39 -82q0 -34 -21 -59.5t-56 -37.5v-2q37 -8 63 -33.5t26 -72.5q0 -25 -10.5 -47.5t-31.5 -40t-51.5 -27.5t-70.5 -10q-43 0 -73.5 11
t-50 29.5t-29.5 42t-11 49.5h77q5 -37 30 -55t60 -18q36 0 61 19.5t25 50.5q0 33 -22.5 51t-63.5 18h-42z" />
    <glyph glyph-name="two.den" horiz-adv-x="403" 
d="M34 291q1 69 44.5 107t115.5 38q40 0 68.5 -10t47 -26.5t27 -38t8.5 -45.5q0 -23 -6 -42t-18.5 -37t-32 -37t-46.5 -43l-105 -94v-1h216v-62h-323v50l155 144q40 35 60.5 61t20.5 57q0 29 -19.5 47t-54.5 18q-16 0 -30.5 -4.5t-26 -14.5t-18 -26.5t-6.5 -40.5h-77z" />
    <glyph glyph-name="zero.den" horiz-adv-x="442" 
d="M45 213q0 113 48 168t127 55q82 0 129.5 -54.5t47.5 -168.5q0 -112 -47.5 -167t-129.5 -55q-83 0 -129 54.5t-46 167.5zM220 49q43 0 69.5 39.5t26.5 124.5q0 87 -26.5 126t-69.5 39t-68.5 -39t-25.5 -126t25 -125.5t69 -38.5z" />
    <glyph glyph-name="zero.num" horiz-adv-x="442" 
d="M45 547q0 113 48 168t127 55q82 0 129.5 -54.5t47.5 -168.5q0 -112 -47.5 -167t-129.5 -55q-83 0 -129 54.5t-46 167.5zM220 383q43 0 69.5 39.5t26.5 124.5q0 87 -26.5 126t-69.5 39t-68.5 -39t-25.5 -126t25 -125.5t69 -38.5z" />
    <glyph glyph-name="one.num" horiz-adv-x="283" 
d="M119 635h-89v50h11q43 0 66 20q21 19 22 60h64v-431h-74v301z" />
    <glyph glyph-name="two.num" horiz-adv-x="403" 
d="M34 625q1 69 44.5 107t115.5 38q40 0 68.5 -10t47 -26.5t27 -38t8.5 -45.5q0 -23 -6 -42t-18.5 -37t-32 -37t-46.5 -43l-105 -94v-1h216v-62h-323v50l155 144q40 35 60.5 61t20.5 57q0 29 -19.5 47t-54.5 18q-16 0 -30.5 -4.5t-26 -14.5t-18 -26.5t-6.5 -40.5h-77z" />
    <glyph glyph-name="three.num" horiz-adv-x="413" 
d="M165 523v58h39q32 0 54 18.5t22 47.5q0 30 -22 47t-54 17q-77 0 -80 -72h-76q0 25 9.5 48.5t29 42t49 29.5t70.5 11q72 0 111 -33t39 -82q0 -34 -21 -59.5t-56 -37.5v-2q37 -8 63 -33.5t26 -72.5q0 -25 -10.5 -47.5t-31.5 -40t-51.5 -27.5t-70.5 -10q-43 0 -73.5 11
t-50 29.5t-29.5 42t-11 49.5h77q5 -37 30 -55t60 -18q36 0 61 19.5t25 50.5q0 33 -22.5 51t-63.5 18h-42z" />
    <glyph glyph-name="four.num" horiz-adv-x="420" 
d="M252 492v199h-3q-3 -6 -7 -13q-4 -6 -9 -14t-12 -18l-115 -154h146zM322 433v-99h-73v99h-219v55l205 276h87v-271h58v-60h-58z" />
    <glyph glyph-name="five.num" horiz-adv-x="409" 
d="M287 473q0 42 -24.5 64t-62.5 22q-55 0 -80 -34h-64l21 239h260v-62h-199l-11 -119h1q13 14 36.5 24.5t55.5 10.5q29 0 55.5 -9t46 -27t31 -45t11.5 -63q0 -64 -43.5 -106.5t-123.5 -42.5q-43 0 -72 11t-47.5 29t-27 40.5t-10.5 45.5h75q3 -35 25.5 -50.5t58.5 -15.5
q34 0 61 22t27 66z" />
    <glyph glyph-name="six.num" horiz-adv-x="418" 
d="M298 666q-5 20 -22.5 35t-47.5 15q-27 0 -46.5 -12.5t-33 -34t-20 -50.5t-6.5 -62h3q15 26 45 44.5t72 18.5q60 0 98 -35.5t38 -105.5q0 -32 -11 -60t-32 -49t-51.5 -33t-69.5 -12q-35 0 -65.5 10t-53 34t-35.5 63t-13 97q0 119 49.5 180t137.5 61q69 0 101.5 -29
t37.5 -75h-75zM215 384q34 0 61 22t27 67q0 42 -24.5 65t-63.5 23t-63 -22t-24 -66q0 -45 26.5 -67t60.5 -22z" />
    <glyph glyph-name="seven.num" horiz-adv-x="361" 
d="M246 701h-221v63h308v-45l-190 -385h-79z" />
    <glyph glyph-name="eight.num" horiz-adv-x="426" 
d="M64 653q0 50 37.5 83.5t111.5 33.5t111.5 -33.5t37.5 -84.5q0 -39 -20.5 -63t-49.5 -33v-2q34 -8 59 -32t25 -72q0 -26 -11 -49t-31.5 -40t-51 -26.5t-69.5 -9.5q-80 0 -121.5 35.5t-41.5 89.5q0 23 7 41t19 30.5t27 20.5t31 12v2q-29 9 -49.5 33t-20.5 64zM213 715
q-32 0 -54 -16.5t-22 -51.5t22 -52t54 -17q31 0 53 17t22 52t-21.5 51.5t-53.5 16.5zM213 379q38 0 63.5 17.5t25.5 55.5t-25.5 55.5t-63.5 17.5q-36 0 -62.5 -17.5t-26.5 -55.5t26.5 -55.5t62.5 -17.5z" />
    <glyph glyph-name="nine.num" horiz-adv-x="418" 
d="M203 710q-16 0 -31.5 -5t-27.5 -15t-19.5 -26.5t-7.5 -38.5q0 -43 24 -64t62 -21t63 22.5t25 62.5q0 42 -27 63.5t-61 21.5zM120 435q5 -25 26.5 -39t49.5 -14q98 0 99 158h-2q-14 -23 -42.5 -40.5t-66.5 -17.5q-26 0 -51.5 8t-45.5 25.5t-32.5 43.5t-12.5 62
q0 65 43.5 107t118.5 42q80 0 124 -49t44 -156q0 -127 -46.5 -183.5t-130.5 -56.5q-60 0 -98.5 28t-46.5 82h70z" />
    <glyph glyph-name="minus.num" horiz-adv-x="408" 
d="M58 571h294v-59h-294v59z" />
    <glyph glyph-name="plus.num" horiz-adv-x="410" 
d="M236 400h-63v113h-119v57h119v112h63v-112h119v-57h-119v-113z" />
    <glyph glyph-name="minus.den" horiz-adv-x="408" 
d="M58 237h294v-59h-294v59z" />
    <glyph glyph-name="plus.den" horiz-adv-x="410" 
d="M236 66h-63v113h-119v57h119v112h63v-112h119v-57h-119v-113z" />
    <glyph glyph-name="parenleft.tab" horiz-adv-x="300" 
d="M225 -130q-21 42 -44.5 91t-43 105.5t-32.5 121.5t-13 141t13 141.5t32.5 122t43 105t44.5 90.5h68q-21 -46 -41 -94.5t-35 -104t-24 -120t-9 -140.5t9 -140t24 -119.5t35 -104.5t41 -95h-68z" />
    <glyph glyph-name="parenright.tab" horiz-adv-x="300" 
d="M8 -130q21 46 41 95t35 104.5t24 119.5t9 140t-9 140.5t-24 120t-35 104t-41 94.5h68q21 -42 44.5 -90.5t43 -105t32.5 -122t13 -141.5t-13 -141t-32.5 -121.5t-43 -105.5t-44.5 -91h-68z" />
    <glyph glyph-name="bracketleft.tab" horiz-adv-x="300" 
d="M96 788h218v-67h-135v-784h135v-67h-218v918z" />
    <glyph glyph-name="bracketright.tab" horiz-adv-x="300" 
d="M204 -130h-218v66h135v785h-135v67h218v-918z" />
    <glyph glyph-name="braceleft.tab" horiz-adv-x="300" 
d="M28 292v74h19q44 0 60.5 17t16.5 59v201q0 41 10 69.5t32.5 46t58.5 25.5t89 8v-62q-40 0 -62.5 -6t-33 -19t-13 -34.5t-2.5 -52.5v-165q0 -20 -2.5 -40t-10.5 -37t-23 -29t-39 -16v-4q24 -4 39 -16t23 -29t10.5 -37t2.5 -40v-165q0 -31 2.5 -52.5t13 -34.5t33 -19
t62.5 -6v-62q-53 0 -89 8t-58.5 25.5t-32.5 46t-10 69.5v201q0 42 -16.5 59t-60.5 17h-19z" />
    <glyph glyph-name="braceright.tab" horiz-adv-x="300" 
d="M272 292h-19q-44 0 -60.5 -17t-16.5 -59v-201q0 -41 -10 -69.5t-32.5 -46t-59 -25.5t-88.5 -8v62q40 0 62.5 6t33 19t13 34.5t2.5 52.5v165q0 20 2.5 40t10.5 37t23 29t39 16v4q-24 4 -39 16t-23 29t-10.5 37t-2.5 40v165q0 31 -2.5 52.5t-13 34.5t-33 19t-62.5 6v62
q52 0 88.5 -8t59 -25.5t32.5 -46t10 -69.5v-201q0 -42 16.5 -59t60.5 -17h19v-74z" />
    <glyph glyph-name="eight.sub" horiz-adv-x="426" 
d="M64 259q0 50 37.5 83.5t111.5 33.5t111.5 -33.5t37.5 -84.5q0 -39 -20.5 -63t-49.5 -33v-2q34 -8 59 -32t25 -72q0 -26 -11 -49t-31.5 -40t-51 -26.5t-69.5 -9.5q-80 0 -121.5 35.5t-41.5 89.5q0 23 7 41t19 30.5t27 20.5t31 12v2q-29 9 -49.5 33t-20.5 64zM213 321
q-32 0 -54 -16.5t-22 -51.5t22 -52t54 -17q31 0 53 17t22 52t-21.5 51.5t-53.5 16.5zM213 -15q38 0 63.5 17.5t25.5 55.5t-25.5 55.5t-63.5 17.5q-36 0 -62.5 -17.5t-26.5 -55.5t26.5 -55.5t62.5 -17.5z" />
    <glyph glyph-name="eight.sup" horiz-adv-x="426" 
d="M64 703q0 50 37.5 83.5t111.5 33.5t111.5 -33.5t37.5 -84.5q0 -39 -20.5 -63t-49.5 -33v-2q34 -8 59 -32t25 -72q0 -26 -11 -49t-31.5 -40t-51 -26.5t-69.5 -9.5q-80 0 -121.5 35.5t-41.5 89.5q0 23 7 41t19 30.5t27 20.5t31 12v2q-29 9 -49.5 33t-20.5 64zM213 765
q-32 0 -54 -16.5t-22 -51.5t22 -52t54 -17q31 0 53 17t22 52t-21.5 51.5t-53.5 16.5zM213 429q38 0 63.5 17.5t25.5 55.5t-25.5 55.5t-63.5 17.5q-36 0 -62.5 -17.5t-26.5 -55.5t26.5 -55.5t62.5 -17.5z" />
    <glyph glyph-name="five.sub" horiz-adv-x="409" 
d="M287 79q0 42 -24.5 64t-62.5 22q-55 0 -80 -34h-64l21 239h260v-62h-199l-11 -119h1q13 14 36.5 24.5t55.5 10.5q29 0 55.5 -9t46 -27t31 -45t11.5 -63q0 -64 -43.5 -106.5t-123.5 -42.5q-43 0 -72 11t-47.5 29t-27 40.5t-10.5 45.5h75q3 -35 25.5 -50.5t58.5 -15.5
q34 0 61 22t27 66z" />
    <glyph glyph-name="five.sup" horiz-adv-x="409" 
d="M287 523q0 42 -24.5 64t-62.5 22q-55 0 -80 -34h-64l21 239h260v-62h-199l-11 -119h1q13 14 36.5 24.5t55.5 10.5q29 0 55.5 -9t46 -27t31 -45t11.5 -63q0 -64 -43.5 -106.5t-123.5 -42.5q-43 0 -72 11t-47.5 29t-27 40.5t-10.5 45.5h75q3 -35 25.5 -50.5t58.5 -15.5
q34 0 61 22t27 66z" />
    <glyph glyph-name="four.sub" horiz-adv-x="420" 
d="M252 98v199h-3q-3 -6 -7 -13q-4 -6 -9 -14t-12 -18l-115 -154h146zM322 39v-99h-73v99h-219v55l205 276h87v-271h58v-60h-58z" />
    <glyph glyph-name="four.sup" horiz-adv-x="420" 
d="M252 542v199h-3q-3 -6 -7 -13q-4 -6 -9 -14t-12 -18l-115 -154h146zM322 483v-99h-73v99h-219v55l205 276h87v-271h58v-60h-58z" />
    <glyph glyph-name="minus.sub" horiz-adv-x="408" 
d="M58 177h294v-59h-294v59z" />
    <glyph glyph-name="minus.sup" horiz-adv-x="408" 
d="M58 621h294v-59h-294v59z" />
    <glyph glyph-name="nine.sub" horiz-adv-x="418" 
d="M203 316q-16 0 -31.5 -5t-27.5 -15t-19.5 -26.5t-7.5 -38.5q0 -43 24 -64t62 -21t63 22.5t25 62.5q0 42 -27 63.5t-61 21.5zM120 41q5 -25 26.5 -39t49.5 -14q98 0 99 158h-2q-14 -23 -42.5 -40.5t-66.5 -17.5q-26 0 -51.5 8t-45.5 25.5t-32.5 43.5t-12.5 62
q0 65 43.5 107t118.5 42q80 0 124 -49t44 -156q0 -127 -46.5 -183.5t-130.5 -56.5q-60 0 -98.5 28t-46.5 82h70z" />
    <glyph glyph-name="nine.sup" horiz-adv-x="418" 
d="M203 760q-16 0 -31.5 -5t-27.5 -15t-19.5 -26.5t-7.5 -38.5q0 -43 24 -64t62 -21t63 22.5t25 62.5q0 42 -27 63.5t-61 21.5zM120 485q5 -25 26.5 -39t49.5 -14q98 0 99 158h-2q-14 -23 -42.5 -40.5t-66.5 -17.5q-26 0 -51.5 8t-45.5 25.5t-32.5 43.5t-12.5 62
q0 65 43.5 107t118.5 42q80 0 124 -49t44 -156q0 -127 -46.5 -183.5t-130.5 -56.5q-60 0 -98.5 28t-46.5 82h70z" />
    <glyph glyph-name="one.sub" horiz-adv-x="283" 
d="M119 241h-89v50h11q43 0 66 20q21 19 22 60h64v-431h-74v301z" />
    <glyph glyph-name="one.sup" horiz-adv-x="283" 
d="M119 685h-89v50h11q43 0 66 20q21 19 22 60h64v-431h-74v301z" />
    <glyph glyph-name="plus.sub" horiz-adv-x="410" 
d="M236 6h-63v113h-119v57h119v112h63v-112h119v-57h-119v-113z" />
    <glyph glyph-name="plus.sup" horiz-adv-x="410" 
d="M236 450h-63v113h-119v57h119v112h63v-112h119v-57h-119v-113z" />
    <glyph glyph-name="seven.sub" horiz-adv-x="361" 
d="M246 307h-221v63h308v-45l-190 -385h-79z" />
    <glyph glyph-name="seven.sup" horiz-adv-x="361" 
d="M246 751h-221v63h308v-45l-190 -385h-79z" />
    <glyph glyph-name="six.sub" horiz-adv-x="418" 
d="M298 272q-5 20 -22.5 35t-47.5 15q-27 0 -46.5 -12.5t-33 -34t-20 -50.5t-6.5 -62h3q15 26 45 44.5t72 18.5q60 0 98 -35.5t38 -105.5q0 -32 -11 -60t-32 -49t-51.5 -33t-69.5 -12q-35 0 -65.5 10t-53 34t-35.5 63t-13 97q0 119 49.5 180t137.5 61q69 0 101.5 -29
t37.5 -75h-75zM215 -10q34 0 61 22t27 67q0 42 -24.5 65t-63.5 23t-63 -22t-24 -66q0 -45 26.5 -67t60.5 -22z" />
    <glyph glyph-name="six.sup" horiz-adv-x="418" 
d="M298 716q-5 20 -22.5 35t-47.5 15q-27 0 -46.5 -12.5t-33 -34t-20 -50.5t-6.5 -62h3q15 26 45 44.5t72 18.5q60 0 98 -35.5t38 -105.5q0 -32 -11 -60t-32 -49t-51.5 -33t-69.5 -12q-35 0 -65.5 10t-53 34t-35.5 63t-13 97q0 119 49.5 180t137.5 61q69 0 101.5 -29
t37.5 -75h-75zM215 434q34 0 61 22t27 67q0 42 -24.5 65t-63.5 23t-63 -22t-24 -66q0 -45 26.5 -67t60.5 -22z" />
    <glyph glyph-name="three.sub" horiz-adv-x="413" 
d="M165 129v58h39q32 0 54 18.5t22 47.5q0 30 -22 47t-54 17q-77 0 -80 -72h-76q0 25 9.5 48.5t29 42t49 29.5t70.5 11q72 0 111 -33t39 -82q0 -34 -21 -59.5t-56 -37.5v-2q37 -8 63 -33.5t26 -72.5q0 -25 -10.5 -47.5t-31.5 -40t-51.5 -27.5t-70.5 -10q-43 0 -73.5 11
t-50 29.5t-29.5 42t-11 49.5h77q5 -37 30 -55t60 -18q36 0 61 19.5t25 50.5q0 33 -22.5 51t-63.5 18h-42z" />
    <glyph glyph-name="three.sup" horiz-adv-x="413" 
d="M165 573v58h39q32 0 54 18.5t22 47.5q0 30 -22 47t-54 17q-77 0 -80 -72h-76q0 25 9.5 48.5t29 42t49 29.5t70.5 11q72 0 111 -33t39 -82q0 -34 -21 -59.5t-56 -37.5v-2q37 -8 63 -33.5t26 -72.5q0 -25 -10.5 -47.5t-31.5 -40t-51.5 -27.5t-70.5 -10q-43 0 -73.5 11
t-50 29.5t-29.5 42t-11 49.5h77q5 -37 30 -55t60 -18q36 0 61 19.5t25 50.5q0 33 -22.5 51t-63.5 18h-42z" />
    <glyph glyph-name="two.sub" horiz-adv-x="403" 
d="M34 231q1 69 44.5 107t115.5 38q40 0 68.5 -10t47 -26.5t27 -38t8.5 -45.5q0 -23 -6 -42t-18.5 -37t-32 -37t-46.5 -43l-105 -94v-1h216v-62h-323v50l155 144q40 35 60.5 61t20.5 57q0 29 -19.5 47t-54.5 18q-16 0 -30.5 -4.5t-26 -14.5t-18 -26.5t-6.5 -40.5h-77z" />
    <glyph glyph-name="two.sup" horiz-adv-x="403" 
d="M34 675q1 69 44.5 107t115.5 38q40 0 68.5 -10t47 -26.5t27 -38t8.5 -45.5q0 -23 -6 -42t-18.5 -37t-32 -37t-46.5 -43l-105 -94v-1h216v-62h-323v50l155 144q40 35 60.5 61t20.5 57q0 29 -19.5 47t-54.5 18q-16 0 -30.5 -4.5t-26 -14.5t-18 -26.5t-6.5 -40.5h-77z" />
    <glyph glyph-name="zero.sub" horiz-adv-x="442" 
d="M45 153q0 113 48 168t127 55q82 0 129.5 -54.5t47.5 -168.5q0 -112 -47.5 -167t-129.5 -55q-83 0 -129 54.5t-46 167.5zM220 -11q43 0 69.5 39.5t26.5 124.5q0 87 -26.5 126t-69.5 39t-68.5 -39t-25.5 -126t25 -125.5t69 -38.5z" />
    <glyph glyph-name="zero.sup" horiz-adv-x="442" 
d="M45 597q0 113 48 168t127 55q82 0 129.5 -54.5t47.5 -168.5q0 -112 -47.5 -167t-129.5 -55q-83 0 -129 54.5t-46 167.5zM220 433q43 0 69.5 39.5t26.5 124.5q0 87 -26.5 126t-69.5 39t-68.5 -39t-25.5 -126t25 -125.5t69 -38.5z" />
    <glyph glyph-name="Q.old" horiz-adv-x="823" 
d="M548 9q-32 -13 -67 -19t-71 -6q-71 0 -133 23.5t-108.5 72t-73.5 123.5t-27 177q0 103 28 177.5t75 123t109 72t130 23.5q70 0 132.5 -23.5t109.5 -72t75 -123t28 -177.5q0 -121 -37 -201.5t-99 -128.5l74 -108l-67 -46zM166 379q0 -78 17.5 -138t49.5 -100.5t77 -61
t100 -20.5q51 0 92 16l-73 105l68 47l75 -108q40 38 62.5 102t22.5 158q0 79 -18 139t-50.5 101t-78 62t-100.5 21q-54 0 -98.5 -20t-77 -60.5t-50.5 -101t-18 -141.5z" />
    <glyph glyph-name="Q.scold" horiz-adv-x="735" 
d="M487 11q-28 -11 -58.5 -17.5t-62.5 -6.5q-60 0 -113.5 19.5t-93.5 60.5t-63 104t-23 149q0 85 24 148t64.5 104t93.5 61t112 20q61 0 114.5 -19.5t93.5 -60.5t63.5 -104t23.5 -149q0 -98 -29.5 -164.5t-80.5 -105.5l70 -102l-61 -43zM166 319q0 -63 14.5 -111.5t41 -81.5
t63 -49.5t81.5 -16.5t78 13l-71 102l62 44l72 -104q30 32 46 83t16 121q0 64 -15 113t-41.5 82t-64 49.5t-82.5 16.5q-44 0 -80.5 -16t-63 -48.5t-41.5 -81.5t-15 -115z" />
    <glyph glyph-name="Euro.tab" 
d="M576 207q-3 -44 -19 -84.5t-44.5 -71.5t-69.5 -49t-94 -18q-50 0 -91.5 15t-73 47.5t-52.5 83t-30 121.5h-84v71h78q-1 11 -1 22.5v23.5v23t1 22h-80v71h86q20 137 83.5 202.5t163.5 65.5q45 0 84 -14t69 -42.5t48.5 -70.5t21.5 -97h-89q-3 27 -11.5 54t-24.5 48
t-40.5 34.5t-58.5 13.5q-72 0 -107.5 -50t-46.5 -144h221v-71h-226q-1 -11 -1 -22v-23v-23.5t1 -22.5h228v-71h-222q12 -97 49 -146t104 -49q33 0 58 12t42 32t26.5 47.5t12.5 59.5h89z" />
    <glyph glyph-name="dollar.tab" 
d="M267 676q-60 -8 -92 -43t-32 -81q0 -57 32 -86t85 -38l7 -1v249zM339 70q73 8 104 43.5t31 87.5q0 48 -30 80.5t-99 45.5l-12 2v-259h6zM267 -116v109q-105 7 -163.5 62.5t-72.5 156.5h89q4 -26 14 -50t27.5 -43.5t43.5 -32.5t62 -17v273l-18 3q-93 17 -142.5 66.5
t-49.5 140.5q0 39 15.5 73t43 59.5t66 42t85.5 21.5v80h66v-80q102 -9 157 -64.5t60 -143.5h-88q-6 49 -35.5 87.5t-93.5 48.5v-261l29 -5q111 -20 156.5 -71t45.5 -130q0 -95 -58.5 -151.5t-172.5 -64.5v-109h-66z" />
    <glyph glyph-name="dieresis.uc" horiz-adv-x="369" 
d="M246 921h92v-99h-92v99zM30 921h92v-99h-92v99z" />
    <glyph glyph-name="zero.tab" 
d="M46 368q0 99 18 171t51 119.5t80 70.5t104 23q58 0 105 -23t80.5 -70.5t51.5 -119.5t18 -171t-18 -171t-51 -119.5t-80.5 -70.5t-105.5 -23q-117 0 -185 93.5t-68 290.5zM299 59q76 0 116.5 77.5t40.5 229.5q0 310 -157 310q-76 0 -115.5 -75.5t-39.5 -234.5
q0 -307 155 -307z" />
    <glyph glyph-name="one.tab" 
d="M137 0v77h150v469h-151v64h25q73 0 109 36q17 17 24.5 40t8.5 58h75v-667h141v-77h-382z" />
    <glyph glyph-name="nine.tab" 
d="M290 676q-28 0 -54.5 -9.5t-47.5 -29.5t-34 -51t-13 -74q0 -39 12 -68.5t32.5 -49.5t48 -30.5t58.5 -10.5q33 0 61.5 10.5t49.5 30.5t32.5 49.5t11.5 68.5q0 41 -13.5 71.5t-35.5 51t-50 31t-58 10.5zM148 167q9 -51 47 -80.5t89 -29.5q88 0 129.5 74t41.5 237h-2
q-24 -42 -70 -66.5t-112 -24.5q-37 0 -76.5 13.5t-72.5 41.5t-54 72t-21 105q0 52 18 96.5t50.5 77t77.5 51t99 18.5q60 0 107.5 -19t81 -60.5t51 -107t17.5 -158.5q0 -116 -17 -196.5t-50.5 -130.5t-83 -72.5t-114.5 -22.5q-43 0 -81 10.5t-67 33t-48.5 57t-26.5 81.5h87z
" />
    <glyph glyph-name="eight.tab" 
d="M65 550q0 42 16.5 78.5t47 64t74 43.5t96.5 16q54 0 97 -16t74 -43.5t47.5 -64t16.5 -78.5q0 -34 -10 -62.5t-27 -50t-39 -37t-45 -22.5v-2q24 -6 49 -19t46 -34.5t34 -53t13 -73.5q0 -45 -18 -83.5t-51 -67t-80.5 -45t-106.5 -16.5t-106 16t-80 44.5t-51 67.5t-18 84
q0 42 13.5 73.5t34.5 53t46 34.5t48 19v2q-23 7 -45 22.5t-39 37.5t-27 50t-10 62zM299 680q-28 0 -53.5 -8t-45 -25t-31 -42.5t-11.5 -59.5t11.5 -59t31 -42t45 -25.5t53.5 -8.5q27 0 52.5 8.5t45 25.5t31.5 42t12 59t-11.5 59.5t-31 42.5t-45 25t-53.5 8zM299 56
q33 0 63 8t52.5 25.5t35.5 44t13 63.5t-13.5 63.5t-36 44t-52 26t-62.5 8.5q-32 0 -61 -8.5t-51.5 -26t-36 -44t-13.5 -63.5t13.5 -63.5t36 -44t51.5 -25.5t61 -8z" />
    <glyph glyph-name="seven.tab" 
d="M447 660h-396v81h499v-59l-319 -682h-94z" />
    <glyph glyph-name="six.tab" 
d="M447 581q-8 46 -40 73.5t-89 27.5q-49 0 -82.5 -24t-54.5 -66t-31 -98.5t-11 -120.5h3q26 47 75.5 73.5t112.5 26.5q40 0 80.5 -13t72 -41.5t51.5 -72.5t20 -107q0 -55 -17 -101.5t-49 -80.5t-78 -53t-104 -19q-50 0 -97 14.5t-83 52.5t-57.5 105t-21.5 171
q0 211 66.5 317.5t204.5 106.5q100 0 154 -45t62 -126h-87zM307 61q28 0 55.5 10t49.5 30.5t35 52.5t13 77q0 41 -12 72t-33 51.5t-49 31t-59 10.5q-34 0 -62.5 -10t-49.5 -30t-32.5 -51t-11.5 -74q0 -45 13.5 -77t35 -52.5t49.5 -30.5t58 -10z" />
    <glyph glyph-name="five.tab" 
d="M156 193q5 -70 45 -101t105 -31q28 0 56 10t50.5 31.5t36 55t13.5 79.5q0 42 -12 74.5t-33 54.5t-49.5 33.5t-61.5 11.5q-46 0 -81 -16.5t-56 -48.5h-78l22 395h397v-78h-318l-12 -236h2q20 23 56.5 42t87.5 19q43 0 84.5 -14t74 -44.5t52 -77.5t19.5 -113
q0 -58 -18 -105t-51 -80t-80 -51t-106 -18q-62 0 -106 18.5t-72 48t-41.5 66.5t-16.5 75h91z" />
    <glyph glyph-name="space_uni0326.alt" horiz-adv-x="369" 
d="M220 634h-97l62 137h57z" />
    <glyph glyph-name="four.tab" 
d="M377 257v378h-3q-4 -10 -10 -21q-5 -10 -13.5 -24.5t-20.5 -31.5l-204 -301h251zM463 180v-180h-86v180h-342v72l330 489h98v-483h97v-78h-97z" />
    <glyph glyph-name="three.tab" 
d="M263 335v83h39q28 0 52.5 10t42.5 27.5t28 41.5t10 51q0 59 -38 93.5t-98 34.5q-69 0 -108 -35.5t-42 -111.5h-90q0 45 15.5 85.5t45.5 71t75 48.5t104 18q53 0 95 -15t71 -41.5t44.5 -63t15.5 -79.5q0 -57 -34.5 -101t-88.5 -67v-2q27 -7 53 -21.5t46 -37t32.5 -54
t12.5 -73.5q0 -43 -17 -81.5t-49 -67.5t-79 -46t-107 -17q-63 0 -109 18t-76 49t-45.5 71t-17.5 85h91q10 -75 56 -111t109 -36q32 0 60 9.5t49 27.5t33 43t12 56q0 66 -40.5 102t-113.5 36h-39z" />
    <glyph glyph-name="uni021A.sc" horiz-adv-x="599" 
d="M564 567h-219v-567h-91v567h-219v77h529v-77zM254 -69h97l-62 -137h-57z" />
    <glyph glyph-name="two.tab" 
d="M64 514q0 56 18.5 100.5t51 75t76.5 46.5t94 16q59 0 102 -17.5t71.5 -46t42 -65t13.5 -73.5q0 -38 -9 -69.5t-29 -63t-51.5 -66t-77.5 -78.5l-200 -192v-1h372v-80h-493v69l254 252q31 32 57 59.5t44 53.5t28 52.5t10 58.5q0 57 -35.5 94.5t-98.5 37.5q-29 0 -55.5 -9
t-46.5 -28.5t-32 -50.5t-12 -75h-94z" />
    </font>
</defs>
</svg>
