<?xml version="1.0" standalone="no"?>
<!DOCTYPE svg PUBLIC "-//W3C//DTD SVG 1.1//EN" "http://www.w3.org/Graphics/SVG/1.1/DTD/svg11.dtd" >
<svg xmlns="http://www.w3.org/2000/svg" xmlns:xlink="http://www.w3.org/1999/xlink" version="1.1">
<metadata>
Created by FontForge 20190801 at Tue Oct 23 19:15:01 2018
 By www-data
Copyright (c)2014 Commercial Type.
</metadata>
<defs>
<font id="AtlasGroteskLightWeb" horiz-adv-x="600" >
  <font-face 
    font-family="AtlasGroteskLightWeb"
    font-weight="300"
    font-stretch="normal"
    units-per-em="1000"
    panose-1="0 0 0 0 0 0 0 0 0 0"
    ascent="800"
    descent="-200"
    x-height="524"
    cap-height="765"
    bbox="-191 -211 1209 1165"
    underline-thickness="50"
    underline-position="-100"
    unicode-range="U+000D-FB02"
  />
<missing-glyph horiz-adv-x="500" 
 />
    <glyph glyph-name="f_f" unicode="ff" horiz-adv-x="674" 
d="M191 0h-70v470h-102v54h102v126q0 68 39.5 101.5t106.5 33.5q13 0 26 -1t27 -4v-58q-9 2 -21 3.5t-29 1.5q-41 0 -60 -20.5t-19 -68.5v-114h258v132q0 68 39.5 101.5t106.5 33.5q13 0 26 -1t27 -4v-58q-9 2 -21 3.5t-29 1.5q-41 0 -60 -20.5t-19 -68.5v-120h133v-54h-133
v-470h-70v470h-258v-470z" />
    <glyph glyph-name="fi" unicode="fi" 
d="M430 733h75v-79h-75v79zM432 524h70v-524h-70v524zM189 0h-70v470h-100v54h100v132q0 68 39.5 101.5t106.5 33.5q13 0 26 -1t27 -4v-58q-9 2 -21 3.5t-29 1.5q-41 0 -60 -20.5t-19 -68.5v-120h131v-54h-131v-470z" />
    <glyph glyph-name="fl" unicode="fl" horiz-adv-x="599" 
d="M432 788h70v-788h-70v788zM189 0h-70v470h-100v54h100v132q0 68 39.5 101.5t106.5 33.5q13 0 26 -1t27 -4v-58q-9 2 -21 3.5t-29 1.5q-41 0 -60 -20.5t-19 -68.5v-120h131v-54h-131v-470z" />
    <glyph glyph-name=".notdef" horiz-adv-x="500" 
 />
    <glyph glyph-name=".null" horiz-adv-x="0" 
 />
    <glyph glyph-name="nonmarkingreturn" unicode="&#xd;" horiz-adv-x="265" 
 />
    <glyph glyph-name="NULL" horiz-adv-x="0" 
 />
    <glyph glyph-name="NULL" horiz-adv-x="0" 
 />
    <glyph glyph-name="space" unicode=" " horiz-adv-x="265" 
 />
    <glyph glyph-name="exclam" unicode="!" horiz-adv-x="278" 
d="M102 788h75l-9 -578h-59zM92 0v94h94v-94h-94z" />
    <glyph glyph-name="quotedbl" unicode="&#x22;" horiz-adv-x="325" 
d="M197 765h80l-14 -205h-49zM48 765h80l-15 -205h-49z" />
    <glyph glyph-name="numbersign" unicode="#" horiz-adv-x="656" 
d="M388 362l23 156h-148l-23 -156h148zM172 308h-109v54h118l22 156h-110v56h118l29 191h59l-28 -191h147l29 191h59l-28 -191h116v-56h-124l-22 -156h116v-54h-125l-30 -209h-59l30 209h-148l-30 -209h-59z" />
    <glyph glyph-name="dollar" unicode="$" horiz-adv-x="616" 
d="M278 694q-69 -7 -106 -45.5t-37 -95.5q0 -61 33.5 -94t94.5 -43l15 -2v280zM337 53q41 4 70 17.5t47 33t26.5 44.5t8.5 52q0 53 -31.5 87.5t-108.5 48.5l-17 3v-287zM278 -116v111q-60 3 -102.5 21.5t-70 48t-41 68t-16.5 82.5h68q3 -29 12 -57t27.5 -50.5t48 -37.5
t74.5 -18v296l-23 4q-97 17 -142 66.5t-45 134.5q0 40 15 74t42.5 60t66 42.5t86.5 19.5v90h54v-90q102 -8 154.5 -63t55.5 -145h-67q-2 27 -10.5 53t-25 46.5t-43 34.5t-64.5 18v-288l29 -5q105 -17 151 -65.5t46 -129.5q0 -43 -14 -80t-42 -64.5t-70.5 -44.5t-99.5 -21
v-111h-54z" />
    <glyph glyph-name="percent" unicode="%" horiz-adv-x="887" 
d="M689 781h66l-551 -821h-66zM224 382q-35 0 -65.5 12t-52.5 35t-34.5 56.5t-12.5 76.5t13 76.5t35.5 56t52.5 34.5t64 12t64.5 -12t52.5 -34.5t35 -56t13 -76.5t-13 -76.5t-35 -56.5t-52.5 -35t-64.5 -12zM224 432q42 0 71 32t29 97q0 66 -29 98.5t-71 32.5
q-43 0 -72 -31.5t-29 -99.5q0 -66 29 -97.5t72 -31.5zM662 -6q-35 0 -65 12t-52 35t-34.5 56.5t-12.5 76.5t13 76.5t35 56t52 34.5t64 12q35 0 65 -12t52.5 -34.5t35 -56t12.5 -76.5t-12.5 -76.5t-35 -56.5t-52.5 -35t-65 -12zM662 44q42 0 71 32t29 97q0 66 -29 98.5
t-71 32.5t-71.5 -31.5t-29.5 -99.5q0 -66 29.5 -97.5t71.5 -31.5z" />
    <glyph glyph-name="ampersand" unicode="&#x26;" horiz-adv-x="684" 
d="M647 -3q-47 0 -80 20.5t-70 61.5q-34 -43 -86 -69t-129 -26q-57 0 -101 14.5t-74.5 41t-46.5 63t-16 80.5q0 34 9.5 63t30 56t53 54.5t79.5 58.5q-21 25 -38 47.5t-29 45t-18.5 47.5t-6.5 56q0 37 13 68.5t37 55t57.5 36.5t73.5 13q39 0 70.5 -12t53.5 -32t34 -47.5
t12 -58.5q1 -62 -43 -115.5t-126 -111.5l144 -172q11 -14 21.5 -26.5t20.5 -23.5q16 44 21.5 92t6.5 93h60q-2 -60 -12.5 -120.5t-35.5 -112.5q24 -28 41 -44t31 -24t29 -10t36 -2v-60h-22zM246 368q-34 -23 -58.5 -44.5t-40.5 -43.5t-23.5 -45t-7.5 -50q0 -42 15.5 -70
t39.5 -45t53.5 -24t57.5 -7q66 0 109 23t69 61l-47 57l-161 192zM191 614q0 -23 5 -42t14.5 -38t24.5 -39.5t36 -45.5q36 25 62 46.5t42.5 42.5t24.5 43t8 47q0 20 -6.5 38.5t-20 33t-33 23t-44.5 8.5q-52 0 -82.5 -33t-30.5 -84z" />
    <glyph glyph-name="quotesingle" unicode="'" horiz-adv-x="176" 
d="M48 765h80l-15 -205h-49z" />
    <glyph glyph-name="parenleft" unicode="(" horiz-adv-x="301" 
d="M209 -130q-22 44 -44 93.5t-40 105.5t-29.5 120.5t-11.5 139.5t11.5 139.5t29.5 121t40 105.5t44 93h56q-20 -46 -39.5 -94t-35.5 -103t-25.5 -119.5t-9.5 -142.5t9.5 -142t25.5 -119t35.5 -103.5t39.5 -94.5h-56z" />
    <glyph glyph-name="parenright" unicode=")" horiz-adv-x="301" 
d="M37 -130q20 46 39.5 94t35 103t25 119.5t9.5 142.5t-9.5 142t-25 119t-35 103.5t-39.5 94.5h56q21 -44 43.5 -93.5t40.5 -105.5t29.5 -120.5t11.5 -139.5t-11.5 -139.5t-29.5 -121t-40.5 -105.5t-43.5 -93h-56z" />
    <glyph glyph-name="asterisk" unicode="*" horiz-adv-x="449" 
d="M224 565l-85 -142l-57 43l110 120v2l-153 39l25 66l141 -69l2 1l-17 163h70l-18 -162l2 -2l141 68l25 -64l-153 -39v-2l111 -120l-57 -44l-85 142h-2z" />
    <glyph glyph-name="plus" unicode="+" horiz-adv-x="633" 
d="M346 131h-61v197h-197v59h197v196h61v-196h198v-59h-198v-197z" />
    <glyph glyph-name="comma" unicode="," horiz-adv-x="212" 
d="M82 109h89l-78 -226h-52z" />
    <glyph glyph-name="hyphen" unicode="-" horiz-adv-x="405" 
d="M60 365h285v-62h-285v62z" />
    <glyph glyph-name="period" unicode="." horiz-adv-x="225" 
d="M65 95h95v-95h-95v95z" />
    <glyph glyph-name="slash" unicode="/" horiz-adv-x="561" 
d="M462 788h66l-454 -918h-66z" />
    <glyph glyph-name="zero" unicode="0" horiz-adv-x="661" 
d="M68 368q0 97 18.5 169t53 120t82.5 71.5t108 23.5q59 0 107.5 -24t83 -72t53.5 -120t19 -168t-18.5 -168t-53 -120t-83 -72t-108.5 -24q-120 0 -191 96t-71 288zM330 40q43 0 78 22.5t59.5 64.5t38 102.5t13.5 137.5q0 160 -50 243.5t-139 83.5q-88 0 -138 -81t-50 -246
q0 -157 49.5 -242t138.5 -85z" />
    <glyph glyph-name="one" unicode="1" horiz-adv-x="422" 
d="M212 569h-151v53h30q38 0 63 6t41 20q16 15 21 37.5t7 59.5h59v-745h-70v569z" />
    <glyph glyph-name="two" unicode="2" horiz-adv-x="607" 
d="M78 522q0 55 18 97.5t50 72t74 45t90 15.5q60 0 102.5 -17t69.5 -44.5t40 -62.5t13 -72q0 -39 -8.5 -71.5t-27.5 -63.5t-49 -64t-72 -73l-231 -220v-2h395v-62h-485v60l257 251q35 34 62.5 62.5t46.5 56t29 57t10 66.5q0 63 -40 102t-110 39q-33 0 -62.5 -10.5t-52 -31.5
t-35.5 -53.5t-13 -76.5h-71z" />
    <glyph glyph-name="three" unicode="3" horiz-adv-x="620" 
d="M281 346v63h36q36 0 63.5 12t46 32.5t28 46.5t9.5 54q0 63 -39.5 101.5t-109.5 38.5q-72 0 -115.5 -40t-46.5 -126h-67q0 46 14.5 87t43.5 71.5t72.5 48t100.5 17.5q49 0 89 -14t68.5 -39t44 -61t15.5 -79q0 -36 -11.5 -65t-29.5 -51t-41 -37t-45 -24v-1q25 -6 51.5 -19
t48 -35t35 -54.5t13.5 -77.5q0 -43 -17 -81.5t-49 -67t-77.5 -45t-101.5 -16.5q-65 0 -110.5 18.5t-74.5 49t-43 70t-15 82.5h68q8 -81 55.5 -121.5t125.5 -40.5q36 0 67 11t53.5 31t35.5 48t13 61q0 38 -13 66.5t-35.5 47.5t-53 28.5t-66.5 9.5h-36z" />
    <glyph glyph-name="four" unicode="4" horiz-adv-x="607" 
d="M391 246v404h-2q-5 -10 -12 -21q-6 -11 -15 -25t-21 -31l-231 -327h281zM459 186v-186h-68v186h-355v57l353 498h70v-494h103v-61h-103z" />
    <glyph glyph-name="five" unicode="5" horiz-adv-x="615" 
d="M476 235q0 48 -14 83.5t-37 58.5t-54.5 34t-65.5 11q-48 0 -87.5 -18t-64.5 -53h-59l34 390h383v-61h-323l-23 -259h2q19 23 58 42t92 19q42 0 83 -12.5t74 -41t53 -76t20 -116.5q0 -60 -18 -106.5t-50.5 -78.5t-78.5 -49t-101 -17q-59 0 -102.5 18t-72 48t-43 68.5
t-16.5 79.5h68q8 -78 53.5 -117t114.5 -39q30 0 61 10t56.5 32.5t41.5 59.5t16 90z" />
    <glyph glyph-name="six" unicode="6" horiz-adv-x="626" 
d="M478 587q-8 49 -42.5 79.5t-97.5 30.5q-55 0 -92.5 -28t-60.5 -75t-34 -109t-12 -131h3q24 58 76.5 89t120.5 31q42 0 83 -14t73 -43t52 -74t20 -107q0 -56 -17 -102t-49.5 -79.5t-78.5 -52t-103 -18.5q-53 0 -98 18.5t-79 58.5t-53 104t-19 154q0 218 68 325.5
t200 107.5q95 0 147 -43.5t60 -121.5h-67zM322 43q31 0 62.5 10.5t56 33t40 57.5t15.5 84q0 45 -13 79.5t-36 58t-54.5 35.5t-68.5 12t-68.5 -11.5t-55 -34t-36.5 -56.5t-13 -79q0 -47 14.5 -82.5t38.5 -59t54.5 -35.5t63.5 -12z" />
    <glyph glyph-name="seven" unicode="7" horiz-adv-x="538" 
d="M419 678h-378v63h459v-47l-318 -694h-73z" />
    <glyph glyph-name="eight" unicode="8" horiz-adv-x="613" 
d="M81 553q0 42 15.5 78.5t44.5 63t70.5 42t94.5 15.5q52 0 94 -15.5t71 -42t44.5 -63t15.5 -78.5q0 -35 -11 -63t-29 -50t-41.5 -36.5t-48.5 -21.5v-2q26 -5 53 -18.5t49 -37t36 -56t14 -75.5q0 -45 -17 -83t-49.5 -66t-78 -44t-102.5 -16t-103 16t-78 43.5t-49 66
t-17 83.5q0 43 14.5 76t37 56t49.5 36.5t51 18.5v2q-26 7 -49.5 22t-41.5 37t-28.5 50t-10.5 62zM306 696q-31 0 -59 -8.5t-49.5 -26t-34 -44.5t-12.5 -65t13 -65t34.5 -44.5t49.5 -26t58 -8.5q29 0 56.5 8.5t49.5 26t35 44.5t13 65t-13 65t-34.5 44.5t-49.5 26t-57 8.5z
M306 39q36 0 68 9.5t56 28.5t38.5 48t14.5 68q0 40 -15 69.5t-39.5 49.5t-56.5 30t-66 10q-33 0 -65 -10t-56.5 -30t-39.5 -49.5t-15 -69.5t14.5 -69t38.5 -48t56 -28t67 -9z" />
    <glyph glyph-name="nine" unicode="9" horiz-adv-x="620" 
d="M304 694q-31 0 -61.5 -10.5t-55 -32t-39.5 -55.5t-15 -82q0 -44 13 -77t35.5 -56t53 -34.5t66.5 -11.5t67.5 11.5t54.5 33.5t36 55t13 75q0 45 -13.5 79t-37 57.5t-54 35.5t-63.5 12zM146 154q4 -24 16.5 -45t31 -36.5t43 -24t52.5 -8.5q53 0 89.5 21.5t59 65t33 109
t10.5 153.5h-3q-23 -55 -73 -84.5t-116 -29.5q-40 0 -80.5 13.5t-73 42t-53 73t-20.5 106.5q0 53 17.5 97t50 76t77 50t98.5 18q58 0 103.5 -19t77.5 -59.5t49 -104t17 -152.5q0 -117 -15.5 -199t-47.5 -133.5t-81.5 -75.5t-116.5 -24q-86 0 -143.5 43t-69.5 127h68z" />
    <glyph glyph-name="colon" unicode=":" horiz-adv-x="257" 
d="M85 502h96v-96h-96v96zM85 0v96h96v-96h-96z" />
    <glyph glyph-name="semicolon" unicode=";" horiz-adv-x="255" 
d="M81 502h95v-96h-95v96zM43 -117l42 226h88l-77 -226h-53z" />
    <glyph glyph-name="less" unicode="&#x3c;" horiz-adv-x="633" 
d="M85 305v53l459 223v-68l-379 -181l379 -181v-68z" />
    <glyph glyph-name="equal" unicode="=" horiz-adv-x="633" 
d="M88 475h457v-61h-457v61zM88 242v61h457v-61h-457z" />
    <glyph glyph-name="greater" unicode="&#x3e;" horiz-adv-x="633" 
d="M548 347v-51l-459 -223v67l379 181l-379 181v68z" />
    <glyph glyph-name="question" unicode="?" horiz-adv-x="535" 
d="M427 599q0 64 -41 101.5t-113 37.5q-78 0 -124 -50t-44 -141h-65q-2 58 15 104.5t48 79t75 49.5t96 17q58 0 100 -16t69 -43t40 -61.5t13 -70.5q0 -38 -8.5 -67t-23.5 -52.5t-34.5 -43.5t-41.5 -40l-43 -39q-15 -14 -25 -23.5t-16.5 -20t-9 -24t-2.5 -35.5v-56h-63v63
q0 29 4 48t13 34t25 30t40 36l45 39q35 31 53 64.5t18 79.5zM214 0v94h94v-94h-94z" />
    <glyph glyph-name="at" unicode="@" horiz-adv-x="1009" 
d="M723 61q-48 0 -82 20t-41 74h-3q-26 -50 -67.5 -75t-90.5 -25q-38 0 -66 12.5t-47 34.5t-29 52.5t-10 65.5q0 59 15 112t43.5 92.5t70 63t94.5 23.5q51 0 83.5 -25t43.5 -63h3l13 72h62l-54 -273q-10 -50 5 -80.5t63 -30.5q25 0 53 12t51.5 39.5t39 72t15.5 110.5
q0 73 -26.5 136t-75.5 109.5t-118 72.5t-153 26q-86 0 -159.5 -32.5t-127.5 -89.5t-84.5 -135t-30.5 -168q0 -91 28 -164.5t78.5 -125t120.5 -79t153 -27.5q86 0 155.5 25.5t115.5 61.5l32 -37q-50 -41 -126.5 -71.5t-182.5 -30.5q-97 0 -177.5 32.5t-139 91t-91 141
t-32.5 183.5q0 103 36 190t99 150.5t149 99t185 35.5q96 0 175.5 -28.5t136.5 -80t88.5 -123.5t31.5 -159q0 -83 -23.5 -138t-57.5 -88t-73.5 -47t-70.5 -14zM453 112q28 0 53 12t45 33t34 50t20 63l5 26q5 27 3.5 55t-12 51t-32 37.5t-55.5 14.5q-41 0 -70.5 -20.5t-49 -53
t-28.5 -73t-9 -80.5q0 -51 22.5 -83t73.5 -32z" />
    <glyph glyph-name="A" unicode="A" horiz-adv-x="723" 
d="M360 696q-2 -4 -11 -32.5t-21 -61.5l-108 -294h279l-107 295q-7 17 -12 33.5t-9 30.5q-4 15 -9 29h-2zM520 250h-321l-91 -250h-71l283 765h84l282 -765h-75z" />
    <glyph glyph-name="B" unicode="B" horiz-adv-x="722" 
d="M113 0v765h298q46 0 87.5 -11t72 -34t48.5 -57.5t18 -80.5q0 -71 -37 -115.5t-106 -57.5v-2q38 -6 68.5 -22.5t52 -41.5t33 -56t11.5 -66q0 -62 -21.5 -104t-58.5 -68t-87.5 -37.5t-107.5 -11.5h-271zM400 437q32 0 61.5 6t52 21.5t36 42t13.5 66.5q0 68 -43 100.5
t-111 32.5h-225v-269h216zM381 59q100 0 152 38.5t52 123.5q0 41 -14 70.5t-39 48.5t-60.5 28t-77.5 9h-210v-318h197z" />
    <glyph glyph-name="C" unicode="C" horiz-adv-x="768" 
d="M407 719q-65 0 -114 -25.5t-82 -70.5t-49.5 -107.5t-16.5 -135.5q0 -77 17 -139t51 -106t83 -68t114 -24q54 0 93 15.5t65 41t39.5 57.5t17.5 65h71q-5 -51 -27 -95t-59.5 -75.5t-89.5 -49.5t-116 -18q-72 0 -133.5 23.5t-106 72.5t-70 123.5t-25.5 176.5q0 94 26 168
t71 125t107 77.5t134 26.5q49 0 97.5 -12.5t89 -40t68.5 -72t34 -107.5h-73q-4 31 -18 62.5t-40 56t-65 40t-93 15.5z" />
    <glyph glyph-name="D" unicode="D" horiz-adv-x="782" 
d="M113 765h238q76 0 142 -21t115.5 -66t78 -116t28.5 -172q0 -102 -28 -175.5t-76.5 -121t-114 -70.5t-140.5 -23h-243v765zM349 62q62 0 115.5 16t92.5 54t61.5 100.5t22.5 154.5q0 86 -22.5 146.5t-61.5 98t-91.5 54.5t-113.5 17h-168v-641h165z" />
    <glyph glyph-name="E" unicode="E" horiz-adv-x="679" 
d="M113 765h488v-63h-417v-281h380v-62h-380v-296h421v-63h-492v765z" />
    <glyph glyph-name="F" unicode="F" horiz-adv-x="612" 
d="M184 0h-71v765h447v-63h-376v-307h342v-62h-342v-333z" />
    <glyph glyph-name="G" unicode="G" horiz-adv-x="818" 
d="M412 719q-65 0 -115 -25t-84.5 -70t-52 -108.5t-17.5 -140.5q0 -78 18 -140t52 -104.5t83.5 -65.5t112.5 -23q56 0 100.5 17t75.5 47.5t47.5 73t16.5 94.5v41h-234v63h303v-378h-64v121h-3q-13 -27 -34.5 -52t-52 -43.5t-70.5 -30t-91 -11.5q-69 0 -129.5 22.5t-106 70
t-72 122.5t-26.5 180q0 96 26.5 170t72.5 124.5t108.5 76.5t135.5 26q60 0 110 -15.5t87 -43.5t60.5 -67.5t30.5 -87.5h-73q-7 36 -26 65.5t-47 49.5t-64 31t-78 11z" />
    <glyph glyph-name="H" unicode="H" horiz-adv-x="798" 
d="M184 0h-71v765h71v-344h430v344h71v-765h-71v359h-430v-359z" />
    <glyph glyph-name="I" unicode="I" horiz-adv-x="298" 
d="M113 765h71v-765h-71v765z" />
    <glyph glyph-name="J" unicode="J" horiz-adv-x="423" 
d="M25 -1v60h26q60 0 98 9.5t60 30.5t30 55.5t8 84.5v526h72v-536q0 -119 -61 -174.5t-193 -55.5h-40z" />
    <glyph glyph-name="K" unicode="K" horiz-adv-x="715" 
d="M184 0h-71v765h71v-414l397 414h88l-309 -322l329 -443h-86l-295 395l-124 -131v-264z" />
    <glyph glyph-name="L" unicode="L" horiz-adv-x="616" 
d="M113 765h71v-702h395v-63h-466v765z" />
    <glyph glyph-name="M" unicode="M" horiz-adv-x="968" 
d="M113 765h98l244 -599q7 -17 12 -31t9 -25q4 -12 8 -22h2q3 10 7 22q4 11 9 25t12 31l245 599h96v-765h-72v660h-3l-9 -27q-5 -13 -11.5 -31t-15.5 -40l-231 -562h-63l-228 562q-9 21 -15.5 39t-11.5 31q-5 15 -10 28h-3v-660h-69v765z" />
    <glyph glyph-name="N" unicode="N" horiz-adv-x="801" 
d="M113 765h88l383 -607q8 -14 14.5 -25.5t11.5 -19.5q5 -10 8 -17h2v669h69v-765h-89l-380 605q-9 14 -15.5 26t-11.5 20q-5 10 -9 17h-2v-668h-69v765z" />
    <glyph glyph-name="O" unicode="O" horiz-adv-x="816" 
d="M69 379q0 104 28 179t74.5 123.5t107.5 71.5t128 23t129 -23t108.5 -71.5t74.5 -123.5t28 -179t-27.5 -178.5t-74.5 -122.5t-108.5 -71t-129.5 -23t-129 23t-107.5 71t-74 122.5t-27.5 178.5zM407 41q57 0 106 21.5t84.5 64t55.5 106t20 146.5q0 84 -20 147.5
t-55.5 106.5t-84 64.5t-106.5 21.5q-57 0 -105.5 -21t-83.5 -63.5t-55 -106.5t-20 -149q0 -84 19.5 -147t54.5 -105.5t83.5 -64t106.5 -21.5z" />
    <glyph glyph-name="P" unicode="P" horiz-adv-x="646" 
d="M184 304v-304h-71v765h228q119 0 187.5 -58.5t68.5 -168.5q0 -112 -68.5 -173t-191.5 -61h-153zM339 361q40 0 74 10t58.5 31.5t38.5 54.5t14 79q0 85 -48 127.5t-135 42.5h-157v-345h155z" />
    <glyph glyph-name="Q" unicode="Q" horiz-adv-x="816" 
d="M69 379q0 104 28 179t74.5 123.5t107.5 71.5t128 23t129 -23t108.5 -71.5t74.5 -123.5t28 -179q0 -124 -38.5 -205.5t-106.5 -124.5v-4q62 -3 99 -26.5t69 -69.5l-58 -44q-18 26 -35.5 44t-37 29t-42.5 15.5t-52 4.5q-17 0 -31 -2t-30 -4t-34.5 -4t-42.5 -2
q-68 0 -129 22.5t-107.5 70.5t-74 122t-27.5 178zM407 41q58 0 107 20.5t84 62.5t55 105.5t20 149.5q0 84 -20 147.5t-55.5 106.5t-84 64.5t-106.5 21.5q-57 0 -105.5 -21t-83.5 -63.5t-55 -106.5t-20 -149q0 -84 19.5 -147t54.5 -105.5t83.5 -64t106.5 -21.5z" />
    <glyph glyph-name="R" unicode="R" horiz-adv-x="708" 
d="M385 385q37 0 69 9.5t56 29.5t38 51.5t14 75.5q0 76 -47.5 115t-127.5 39h-203v-320h201zM394 326h-210v-326h-71v765h274q42 0 80 -8.5t70 -25.5q45 -25 71.5 -69t26.5 -110q0 -48 -14 -84.5t-37.5 -63t-53.5 -42.5t-62 -24v-2l174 -336h-82z" />
    <glyph glyph-name="S" unicode="S" horiz-adv-x="712" 
d="M547 561q-3 32 -13.5 60.5t-31.5 50.5t-54 34.5t-81 12.5q-84 0 -134 -39t-50 -108q0 -62 31.5 -93t106.5 -45l128 -23q191 -35 191 -198q0 -51 -18 -93t-53.5 -72t-87 -47t-118.5 -17q-66 0 -117.5 19t-87.5 50.5t-56.5 73t-23.5 86.5h72q4 -32 18 -62.5t39.5 -54.5
t64 -39t92.5 -15q55 0 94 13.5t63.5 36t35.5 52.5t11 63q0 55 -30 88.5t-104 47.5l-123 22q-56 10 -94.5 28t-62 43.5t-34 58.5t-10.5 73q0 47 19 85.5t53 65.5t81.5 42t103.5 15q118 0 182 -58t68 -157h-70z" />
    <glyph glyph-name="T" unicode="T" horiz-adv-x="651" 
d="M636 703h-275v-703h-71v703h-274v62h620v-62z" />
    <glyph glyph-name="U" unicode="U" horiz-adv-x="765" 
d="M99 765h72v-436q0 -29 0.5 -59t4.5 -58.5t12.5 -54.5t23.5 -45q29 -36 72.5 -52.5t100.5 -16.5t99.5 16.5t71.5 52.5q15 19 23.5 45t12 54.5t4 58.5t0.5 59v436h70v-510q0 -72 -20.5 -123t-57.5 -84t-89.5 -48t-115.5 -15q-64 0 -116.5 15t-89.5 47.5t-57.5 84
t-20.5 123.5v510z" />
    <glyph glyph-name="V" unicode="V" horiz-adv-x="708" 
d="M32 765h75l217 -596q8 -23 13.5 -41t9.5 -31q4 -15 7 -27h2q3 11 7 26q4 13 10 31t14 41l218 597h71l-282 -765h-79z" />
    <glyph glyph-name="W" unicode="W" horiz-adv-x="1047" 
d="M255 0l-221 765h72l166 -584q6 -21 10 -38t6 -29q3 -14 5 -25h2q1 11 4 25q2 12 6.5 29t10.5 38l165 584h85l165 -583q5 -20 9.5 -37t7.5 -30q4 -15 6 -28h2q1 12 5 27q3 13 7 30t10 37l165 584h70l-220 -765h-79l-162 566q-17 58 -23 89q-4 18 -6 31h-2q-3 -13 -7 -31
q-4 -15 -9.5 -36.5t-13.5 -50.5l-161 -568h-75z" />
    <glyph glyph-name="X" unicode="X" horiz-adv-x="714" 
d="M312 396l-244 369h85l200 -309h2l204 309h77l-243 -364l270 -401h-86l-223 341h-2l-224 -341h-78z" />
    <glyph glyph-name="Y" unicode="Y" horiz-adv-x="640" 
d="M285 335l-272 430h82l225 -365h2l229 365h77l-272 -426v-339h-71v335z" />
    <glyph glyph-name="Z" unicode="Z" horiz-adv-x="653" 
d="M66 765h535v-55l-469 -649h469v-61h-556v55l469 649h-448v61z" />
    <glyph glyph-name="bracketleft" unicode="[" horiz-adv-x="342" 
d="M114 790h204v-52h-138v-818h138v-52h-204v922z" />
    <glyph glyph-name="backslash" unicode="\" horiz-adv-x="561" 
d="M33 788h66l454 -918h-66z" />
    <glyph glyph-name="bracketright" unicode="]" horiz-adv-x="342" 
d="M228 -132h-204v52h138v818h-138v52h204v-922z" />
    <glyph glyph-name="asciicircum" unicode="^" horiz-adv-x="408" 
d="M396 506h-69l-123 215h-1l-127 -215h-64l164 282h60z" />
    <glyph glyph-name="underscore" unicode="_" horiz-adv-x="398" 
d="M-2 -136h402v-53h-402v53z" />
    <glyph glyph-name="grave" unicode="`" horiz-adv-x="369" 
d="M247 630h-54l-87 158h77z" />
    <glyph glyph-name="a" unicode="a" horiz-adv-x="552" 
d="M229 48q28 0 56.5 11t52 34.5t38 59t14.5 83.5v22q-98 -6 -151 -14t-78 -26q-36 -26 -36 -76q0 -47 28 -70.5t76 -23.5zM81 385q0 31 13.5 58.5t38 48.5t59.5 33t79 12q54 0 90 -14.5t57.5 -40t30 -61t8.5 -77.5v-228q0 -36 11.5 -50.5t39.5 -15.5v-55h-9q-57 0 -80 25
t-26 78h-2q-24 -51 -70 -78.5t-106 -27.5q-74 0 -117.5 38.5t-43.5 108.5q0 45 18.5 77t53.5 51q39 22 104 31t161 14v33q0 31 -6 56.5t-20 44t-37.5 28.5t-58.5 10q-60 0 -89.5 -29t-32.5 -70h-66z" />
    <glyph glyph-name="b" unicode="b" horiz-adv-x="605" 
d="M97 788h70v-354h1q23 48 67 75.5t105 27.5q41 0 79 -14t67.5 -46t47 -84t17.5 -128q0 -71 -17.5 -123.5t-48 -87t-70.5 -51t-85 -16.5q-32 0 -58.5 8.5t-47 23t-36 33t-24.5 38.5h-2v-90h-65v788zM324 43q78 0 117 59t39 163q0 45 -8 84t-26 68.5t-47.5 46.5t-72.5 17
q-40 0 -70 -14.5t-50.5 -39t-30.5 -55.5t-10 -64v-82q0 -35 9.5 -67.5t29 -58.5t49.5 -41.5t71 -15.5z" />
    <glyph glyph-name="c" unicode="c" horiz-adv-x="530" 
d="M417 378q-2 20 -11.5 38.5t-25.5 33t-39.5 23.5t-54.5 9q-76 0 -118.5 -58t-42.5 -161q0 -51 9 -91.5t28 -69t49 -44t72 -15.5q37 0 61.5 11t40.5 28t24 38t11 41h67q-12 -87 -68 -130.5t-137 -43.5q-57 0 -100 19.5t-71.5 54.5t-43 85t-14.5 112q0 60 15.5 111
t45.5 88.5t73 59t98 21.5q36 0 70 -8.5t61.5 -28t46 -50t23.5 -73.5h-69z" />
    <glyph glyph-name="d" unicode="d" horiz-adv-x="605" 
d="M440 301q0 37 -10.5 69.5t-30.5 57t-48.5 39t-64.5 14.5q-41 0 -71.5 -16t-50.5 -45t-29.5 -69t-9.5 -88q0 -49 8.5 -89.5t27.5 -69.5t48 -45t71 -16q40 0 70 15t50 39.5t30 56.5t10 65v82zM508 0h-66v91h-3q-10 -20 -25.5 -39t-36 -33.5t-46.5 -23t-58 -8.5
q-39 0 -78.5 13t-71 44.5t-51 84t-19.5 130.5q0 67 16 119t45.5 87t71 53.5t92.5 18.5q59 0 99.5 -27.5t58.5 -71.5h2v350h70v-788z" />
    <glyph glyph-name="e" unicode="e" horiz-adv-x="545" 
d="M423 304q0 31 -6.5 62.5t-22.5 57.5t-42.5 42.5t-68.5 16.5q-37 0 -65 -13.5t-48 -38t-31.5 -58.5t-14.5 -74h299v5zM485 131q-7 -30 -24.5 -56.5t-43.5 -46t-59 -30.5t-72 -11q-60 0 -104 19.5t-72.5 54.5t-42.5 85t-14 112q0 60 15 111t44 88.5t72 58.5t99 21
q58 0 98 -21.5t65 -56t36 -79.5t11 -91v-43h-370q3 -96 42 -150t122 -54q34 0 58 10t39 24t23.5 29t11.5 26h66z" />
    <glyph glyph-name="f" unicode="f" horiz-adv-x="346" 
d="M191 0h-70v470h-102v54h102v132q0 68 39.5 101.5t106.5 33.5q13 0 26 -1t27 -4v-58q-9 2 -21 3.5t-29 1.5q-41 0 -60 -20.5t-19 -68.5v-120h133v-54h-133v-470z" />
    <glyph glyph-name="g" unicode="g" horiz-adv-x="607" 
d="M442 303q0 34 -10 66.5t-30.5 57t-51 39.5t-70.5 15q-39 0 -68.5 -15.5t-48.5 -44t-28.5 -67.5t-9.5 -85q0 -45 8 -84t27 -67t49.5 -44t74.5 -16q37 0 66.5 14t50 38t31 55t10.5 65v73zM281 -199q-84 0 -141 37.5t-67 105.5h68q7 -35 41.5 -61.5t100.5 -26.5q33 0 62 8
t50 27.5t33.5 51.5t12.5 79v83h-1q-23 -45 -68.5 -73.5t-106.5 -28.5q-38 0 -75.5 13.5t-68 44.5t-49.5 82t-19 126q0 66 16.5 116t46.5 83.5t71.5 51t91.5 17.5q33 0 59.5 -9t46.5 -23t34.5 -32.5t22.5 -37.5h2v89h65v-503q0 -57 -17 -98.5t-47.5 -68.5t-72.5 -40t-91 -13z
" />
    <glyph glyph-name="h" unicode="h" horiz-adv-x="596" 
d="M433 332q0 32 -4.5 60.5t-18.5 48.5q-27 37 -88 37q-41 0 -70 -14t-48 -37t-28 -54t-9 -64v-309h-70v788h70v-356h2q18 44 60.5 74.5t108.5 30.5q85 0 124.5 -45t39.5 -136v-356h-69v332z" />
    <glyph glyph-name="i" unicode="i" horiz-adv-x="265" 
d="M95 733h75v-79h-75v79zM97 524h70v-524h-70v524z" />
    <glyph glyph-name="j" unicode="j" horiz-adv-x="265" 
d="M94 733h76v-79h-76v79zM28 -197q-25 0 -52 6v59q19 -6 48 -6q39 0 56 20t17 68v574h70v-584q0 -70 -38 -103.5t-101 -33.5z" />
    <glyph glyph-name="k" unicode="k" horiz-adv-x="549" 
d="M167 0h-70v788h70v-531l239 267h83l-180 -197l210 -327h-82l-175 275l-95 -105v-170z" />
    <glyph glyph-name="l" unicode="l" horiz-adv-x="264" 
d="M97 788h70v-788h-70v788z" />
    <glyph glyph-name="m" unicode="m" horiz-adv-x="930" 
d="M97 524h65v-93h2q20 45 64 75.5t109 30.5q61 0 101.5 -26.5t54.5 -86.5h2q10 23 26.5 43.5t39 36t50.5 24.5t61 9q85 0 124.5 -45t39.5 -136v-356h-69v331q0 33 -4.5 62t-18.5 49q-26 36 -88 36q-41 0 -70 -14t-48 -37t-28 -53.5t-9 -64.5v-309h-69v332q0 32 -4.5 60.5
t-18.5 48.5q-27 37 -87 37q-41 0 -70 -13.5t-48 -37t-28 -54t-9 -63.5v-310h-70v524z" />
    <glyph glyph-name="n" unicode="n" horiz-adv-x="596" 
d="M433 331q0 33 -4.5 61.5t-18.5 48.5q-27 37 -88 37q-40 0 -69.5 -14t-48.5 -37t-28 -53.5t-9 -64.5v-309h-70v524h65v-93h2q21 45 64.5 75.5t109.5 30.5q85 0 124.5 -45t39.5 -136v-356h-69v331z" />
    <glyph glyph-name="o" unicode="o" horiz-adv-x="565" 
d="M283 -13q-59 0 -102 20.5t-71.5 57t-42.5 87t-14 110.5q0 59 15.5 109.5t45 87t72.5 57.5t97 21q59 0 102.5 -21t71.5 -57.5t41.5 -87t13.5 -109.5q0 -60 -15.5 -110.5t-44.5 -87t-71.5 -57t-97.5 -20.5zM283 483q-78 0 -118.5 -59.5t-40.5 -161.5q0 -101 38.5 -160.5
t121.5 -59.5q80 0 118 59t38 161q0 101 -37.5 161t-119.5 60z" />
    <glyph glyph-name="p" unicode="p" horiz-adv-x="605" 
d="M165 228q0 -35 9.5 -68.5t29 -59.5t49.5 -41.5t71 -15.5q78 0 117 60.5t39 164.5q0 44 -8 83t-26 68t-47.5 45.5t-72.5 16.5q-39 0 -69.5 -15t-50.5 -39.5t-30.5 -56.5t-10.5 -66v-76zM97 524h66v-93h2q25 49 69.5 77.5t105.5 28.5q41 0 79 -13.5t67.5 -45t47 -83
t17.5 -127.5q0 -71 -18 -124t-48 -88t-70.5 -52t-85.5 -17q-30 0 -56 8.5t-47 22.5t-35.5 32t-21.5 37h-2v-275h-70v712z" />
    <glyph glyph-name="q" unicode="q" horiz-adv-x="605" 
d="M508 -188h-70v274h-3q-9 -18 -23.5 -36t-34.5 -32t-46 -22.5t-58 -8.5q-39 0 -78.5 13t-71 44.5t-51 83.5t-19.5 131q0 67 16 119t45.5 87t71 53.5t92.5 18.5q59 0 101 -27t60 -74h2v88h67v-712zM280 43q40 0 70 15t50 39.5t30 56.5t10 65v82q0 37 -10.5 69.5t-30.5 57
t-48.5 39t-64.5 14.5q-41 0 -71.5 -16t-50.5 -45t-29.5 -69t-9.5 -88q0 -49 8.5 -89.5t27.5 -69.5t48 -45t71 -16z" />
    <glyph glyph-name="r" unicode="r" horiz-adv-x="378" 
d="M97 524h65v-109h2q8 23 24 44.5t37.5 38t47.5 26.5t56 10h9v-69h-14q-31 0 -59.5 -10.5t-50 -32t-34.5 -55.5t-13 -80v-287h-70v524z" />
    <glyph glyph-name="s" unicode="s" horiz-adv-x="506" 
d="M376 398q-6 38 -37 61.5t-85 23.5t-85.5 -27t-31.5 -67q0 -38 21 -57.5t61 -24.5l94 -13q75 -11 108 -48t33 -97q0 -37 -14.5 -67t-41 -51t-63 -32.5t-81.5 -11.5q-40 0 -75 8.5t-62.5 27.5t-45.5 49.5t-23 74.5h68q8 -47 40 -76t99 -29q61 0 96 28t35 73q0 18 -3.5 32
t-13.5 25.5t-28 19t-46 11.5l-86 12q-66 9 -102 42t-36 98q0 34 13.5 62.5t38 49t58.5 31.5t75 11q82 0 131 -36.5t56 -102.5h-67z" />
    <glyph glyph-name="t" unicode="t" horiz-adv-x="362" 
d="M192 681v-157h134v-54h-134v-339q0 -42 19.5 -61t64.5 -19q24 0 41 3q10 1 19 3v-58q-10 -2 -21 -4q-10 -2 -24.5 -3t-31.5 -1q-38 0 -64 9.5t-42 27t-23 42t-7 53.5v347h-100v52h23q25 0 41 4t25 15.5t12 33.5t3 58v48h65z" />
    <glyph glyph-name="u" unicode="u" horiz-adv-x="595" 
d="M164 189q0 -32 4.5 -60t18.5 -47q28 -37 91 -37q76 0 113.5 53.5t37.5 142.5v283h69v-524h-65v97h-2q-9 -22 -24.5 -42t-36.5 -35t-47.5 -24t-59.5 -9q-168 0 -168 179v358h69v-335z" />
    <glyph glyph-name="v" unicode="v" horiz-adv-x="492" 
d="M27 524h71l124 -367q5 -14 9.5 -27t7.5 -24q4 -12 7 -24h2q3 12 7 24q6 22 17 51l126 367h66l-181 -524h-74z" />
    <glyph glyph-name="w" unicode="w" horiz-adv-x="817" 
d="M31 524h71l117 -388q3 -11 5.5 -20.5t4.5 -17.5q3 -9 5 -17h2q2 7 5 17q2 8 5 18t7 21l121 387h73l121 -387q2 -9 5.5 -19t5.5 -18q3 -10 6 -19h2q1 9 4 19l4.5 18t5.5 19l117 387h68l-165 -524h-75l-109 349q-5 16 -9.5 32t-8.5 30q-4 16 -9 30h-2q-5 -14 -9 -30
q-4 -14 -8.5 -30t-9.5 -32l-109 -349h-76z" />
    <glyph glyph-name="x" unicode="x" horiz-adv-x="494" 
d="M206 271l-172 253h81l131 -198h2l133 198h76l-170 -250l188 -274h-81l-148 220h-2l-146 -220h-77z" />
    <glyph glyph-name="y" unicode="y" horiz-adv-x="493" 
d="M34 524h70l121 -359q11 -33 17 -54q4 -12 7 -22h2q3 11 7 23q3 11 7.5 24.5l9.5 28.5l120 359h69l-195 -566q-15 -44 -30.5 -73.5t-35.5 -48.5t-46 -27t-62 -8q-19 0 -33.5 3t-25.5 6v58q13 -4 27.5 -6.5t28.5 -2.5q47 0 69 24t39 72l16 44z" />
    <glyph glyph-name="z" unicode="z" horiz-adv-x="506" 
d="M63 524h390v-59l-327 -407h335v-58h-413v61l325 406h-310v57z" />
    <glyph glyph-name="braceleft" unicode="{" horiz-adv-x="334" 
d="M23 299v61h22q46 0 64.5 17.5t18.5 61.5v220q0 72 42.5 102.5t139.5 30.5v-50q-40 0 -63.5 -6t-35.5 -19t-15.5 -34.5t-3.5 -52.5v-179q0 -19 -2.5 -39t-10 -36.5t-22 -28.5t-38.5 -16v-4q24 -4 38.5 -16t22 -28.5t10 -36t2.5 -37.5v-181q0 -31 3.5 -52.5t15.5 -34.5
t35.5 -19t63.5 -6v-50q-97 0 -139.5 31.5t-42.5 105.5v217q0 44 -18.5 61.5t-64.5 17.5h-22z" />
    <glyph glyph-name="bar" unicode="|" horiz-adv-x="289" 
d="M115 788h59v-918h-59v918z" />
    <glyph glyph-name="braceright" unicode="}" horiz-adv-x="334" 
d="M311 298h-22q-47 0 -65 -17.5t-18 -61.5v-220q0 -72 -42.5 -102.5t-139.5 -30.5v50q40 0 63.5 6t35.5 19t15.5 34.5t3.5 52.5v180q0 19 2.5 38.5t10 36t22 28.5t38.5 16v4q-24 4 -38.5 16t-22 28.5t-10 36t-2.5 37.5v181q0 31 -3.5 52.5t-15.5 34.5t-35.5 19t-63.5 6v50
q97 0 139.5 -31.5t42.5 -105.5v-217q0 -44 18 -61.5t65 -17.5h22v-61z" />
    <glyph glyph-name="asciitilde" unicode="~" horiz-adv-x="390" 
d="M16 303q0 25 7 47.5t20 39t32 26.5t43 10q25 0 46.5 -10.5t40.5 -23t36.5 -23t33.5 -10.5q19 0 33 15.5t16 52.5h48q0 -25 -6.5 -47.5t-19.5 -39t-32 -26t-43 -9.5q-25 0 -46.5 10.5t-40.5 22.5t-36.5 22.5t-33.5 10.5q-19 0 -33 -15.5t-16 -52.5h-49z" />
    <glyph glyph-name="uni00A0" unicode="&#xa0;" horiz-adv-x="289" 
 />
    <glyph glyph-name="exclamdown" unicode="&#xa1;" horiz-adv-x="278" 
d="M176.006 -121.952h-74.9951l8.99902 577.965h58.9971zM186.006 666v-93.9941h-93.9941v93.9941h93.9941z" />
    <glyph glyph-name="cent" unicode="&#xa2;" horiz-adv-x="530" 
d="M487 161q-11 -80 -59 -123t-120 -50v-104h-54v104q-100 10 -150.5 82t-50.5 188q0 55 13.5 103.5t39 85t63 60t85.5 29.5v99h54v-98q33 -3 63 -13t54 -29t40 -48t21 -69h-69q-4 36 -31 66.5t-78 37.5v-438q29 4 49 16t33 28.5t20 35.5t10 37h67zM254 480
q-62 -12 -96 -68.5t-34 -148.5q0 -93 30.5 -150.5t99.5 -68.5v436z" />
    <glyph glyph-name="sterling" unicode="&#xa3;" horiz-adv-x="620" 
d="M560 0h-479v60l41 35q29 25 46 47.5t23 48.5t1 58.5t-21 77.5h-115v55h95l-16 42q-30 78 -24 139t36 103t79.5 64t107.5 22q109 0 165 -56.5t57 -159.5h-69q-1 30 -8 58.5t-24 51t-45.5 36t-73.5 13.5q-44 0 -79 -16t-54 -48t-20 -80.5t22 -112.5l20 -56h233v-55h-213
q13 -44 16.5 -78.5t-3.5 -63t-24 -52.5t-44 -47l-26 -22v-2h396v-62z" />
    <glyph glyph-name="currency" unicode="&#xa4;" horiz-adv-x="632" 
d="M139 346q0 29 8.5 55t22.5 47l-71 72l43 43l71 -72q22 15 47.5 23.5t54.5 8.5t55 -8.5t48 -24.5l72 73l42 -42l-73 -73q33 -44 33 -102q0 -29 -8.5 -54.5t-23.5 -47.5l72 -72l-42 -43l-73 73q-43 -32 -102 -32q-58 0 -102 32l-71 -72l-43 43l72 71q-15 22 -23.5 47.5
t-8.5 54.5zM315 217q27 0 49.5 10t39 27t26 41t9.5 51q0 28 -9.5 51.5t-26 41t-39 27.5t-49.5 10q-26 0 -49 -10t-39.5 -27.5t-26 -41t-9.5 -51.5q0 -27 9.5 -51t26 -41t39.5 -27t49 -10z" />
    <glyph glyph-name="yen" unicode="&#xa5;" horiz-adv-x="616" 
d="M275 183h-212v54h212v97h-214v55h192l-224 352h81l198 -321h2l201 321h76l-226 -352h189v-55h-208v-97h210v-54h-210v-183h-67v183z" />
    <glyph glyph-name="brokenbar" unicode="&#xa6;" horiz-adv-x="289" 
d="M174 388h-59v400h59v-400zM115 -130v446h59v-446h-59z" />
    <glyph glyph-name="section" unicode="&#xa7;" horiz-adv-x="550" 
d="M118 364q0 -36 19 -59.5t54 -41.5l122 -63q33 -16 51 -29q32 11 52.5 34t20.5 61q0 34 -18 57t-58 43l-118 61q-18 9 -28.5 15.5t-20.5 13.5q-34 -11 -55 -33t-21 -59zM48 356q0 51 30.5 84.5t72.5 50.5v2q-20 23 -28.5 47t-8.5 53q0 33 12.5 61t36 48.5t57 32t74.5 11.5
q78 0 123 -43t47 -117h-68q-2 21 -7.5 40t-17.5 33t-31.5 22.5t-48.5 8.5q-54 0 -81 -28t-27 -66q0 -37 18 -58.5t50 -38.5l141 -73q63 -32 88.5 -68t25.5 -86q0 -51 -28.5 -84.5t-70.5 -51.5v-2q22 -23 30 -47t8 -53q0 -66 -46 -107t-139 -41q-48 0 -83 13t-58 35.5t-35 54
t-13 68.5h68q2 -26 9.5 -47t22 -36t36.5 -23.5t54 -8.5q63 0 89 27.5t26 65.5q0 19 -5 32.5t-15 25t-25 21t-36 20.5l-127 66q-29 15 -51 30t-37.5 33t-23.5 40.5t-8 52.5z" />
    <glyph glyph-name="dieresis" unicode="&#xa8;" horiz-adv-x="369" 
d="M240 734h80v-84h-80v84zM48 734h79v-84h-79v84z" />
    <glyph glyph-name="copyright" unicode="&#xa9;" horiz-adv-x="899" 
d="M55 380q0 84 30 156.5t82.5 126t124.5 84t157 30.5t157 -30.5t125 -84t83 -126t30 -156.5t-30 -156.5t-83 -125.5t-125 -83.5t-157 -30.5t-157 30.5t-124.5 83.5t-82.5 125.5t-30 156.5zM449 28q73 0 136 27t108.5 74.5t71.5 111.5t26 139t-26 139.5t-71.5 112
t-108.5 74.5t-136 27q-74 0 -136 -27t-108 -74.5t-71.5 -112t-25.5 -139.5t25.5 -139t71.5 -111.5t108 -74.5t136 -27zM615 307q-8 -66 -51.5 -99t-110.5 -33q-91 0 -137 55t-46 149q0 45 12.5 84t36.5 67.5t58.5 44.5t78.5 16q30 0 57.5 -7t49.5 -22t35.5 -38.5t16.5 -55.5
h-58q-4 31 -27.5 54.5t-73.5 23.5q-60 0 -93.5 -43t-33.5 -120t28.5 -120t97.5 -43q29 0 48.5 8t31.5 21t17.5 28t7.5 30h55z" />
    <glyph glyph-name="ordfeminine" unicode="&#xaa;" horiz-adv-x="452" 
d="M186 362q55 0 90 39.5t35 110.5v13q-69 -5 -113 -12t-64 -23q-25 -19 -25 -54q0 -37 21 -55.5t56 -18.5zM64 624q1 55 42.5 91t113.5 36q33 0 61 -7.5t48.5 -26t31.5 -50t11 -78.5v-172q0 -26 8 -38.5t33 -12.5v-51h-7q-50 0 -69.5 19.5t-23.5 57.5h-2
q-20 -38 -54.5 -59.5t-82.5 -21.5q-61 0 -95.5 31.5t-34.5 89.5q0 35 17 62t46 42q33 17 84 23.5t120 11.5v24q0 54 -22.5 80.5t-71.5 26.5q-46 0 -68 -23.5t-24 -54.5h-61z" />
    <glyph glyph-name="guillemotleft" unicode="&#xab;" horiz-adv-x="517" 
d="M440 464l-112 -205l113 -202h-69l-116 203l115 204h69zM244 464l-111 -205l112 -202h-68l-117 203l116 204h68z" />
    <glyph glyph-name="logicalnot" unicode="&#xac;" horiz-adv-x="629" 
d="M484 131v196h-396v61h457v-257h-61z" />
    <glyph glyph-name="registered" unicode="&#xae;" horiz-adv-x="524" 
d="M46 557q0 46 16.5 86t45 69.5t68 46.5t86.5 17t86.5 -17t68.5 -46.5t45.5 -69.5t16.5 -86t-16.5 -86t-45.5 -69t-68.5 -46t-86.5 -17t-86.5 17t-68 46t-45 69t-16.5 86zM262 374q38 0 70 14t55.5 38.5t37 58t13.5 72.5t-13.5 73t-37 58.5t-55.5 38.5t-70 14t-70.5 -14
t-56 -38.5t-36.5 -58.5t-13 -73t13 -72.5t36.5 -58t56 -38.5t70.5 -14zM268 577q18 0 29 8t11 28q0 15 -10.5 23.5t-28.5 8.5h-45v-68h44zM224 452h-40v225h88q29 0 53 -14.5t24 -49.5q0 -34 -16.5 -47.5t-32.5 -16.5l52 -97h-45l-48 92h-35v-92z" />
    <glyph glyph-name="macron" unicode="&#xaf;" horiz-adv-x="369" 
d="M45 711h277v-57h-277v57z" />
    <glyph glyph-name="degree" unicode="&#xb0;" horiz-adv-x="445" 
d="M61 594q0 34 12 64t33.5 51.5t51 34t64.5 12.5t65 -12.5t51.5 -34t33.5 -51.5t12 -64q0 -35 -12 -64t-33.5 -51t-51.5 -34t-65 -12t-64.5 12t-51 34t-33.5 51t-12 64zM222 478q48 0 77.5 32.5t29.5 83.5t-29.5 84t-77.5 33t-77 -33t-29 -84t29 -83.5t77 -32.5z" />
    <glyph glyph-name="plusminus" unicode="&#xb1;" horiz-adv-x="633" 
d="M346 145h-61v196h-197v59h197v196h61v-196h198v-59h-198v-196zM88 59h456v-59h-456v59z" />
    <glyph glyph-name="twosuperior" unicode="&#xb2;" horiz-adv-x="396" 
d="M35 413v42l159 142q24 21 40.5 37t26.5 31t14 29.5t4 31.5q0 34 -22.5 54.5t-60.5 20.5q-35 0 -62.5 -22t-29.5 -76h-61q1 71 44.5 108.5t109.5 37.5q39 0 66.5 -10t45 -26.5t26 -38.5t8.5 -45q0 -22 -5 -40.5t-17 -37.5t-31 -38.5t-47 -43.5l-121 -105v-1h226v-50h-313z
" />
    <glyph glyph-name="threesuperior" unicode="&#xb3;" horiz-adv-x="406" 
d="M165 605v50h42q36 0 57.5 21t21.5 52q0 33 -23.5 52.5t-59.5 19.5q-41 0 -64.5 -20t-25.5 -62h-61q0 25 9.5 48.5t28.5 41.5t47.5 29t66.5 11q68 0 106 -32t38 -83q0 -35 -22 -61.5t-57 -37.5v-1q37 -8 64.5 -33t27.5 -74q0 -25 -11 -47t-31.5 -39t-50 -27t-67.5 -10
q-41 0 -70.5 10.5t-48 28.5t-28 41.5t-10.5 49.5h61q5 -42 32.5 -62t67.5 -20t67 21t27 56q0 40 -25.5 58.5t-64.5 18.5h-44z" />
    <glyph glyph-name="acute" unicode="&#xb4;" horiz-adv-x="369" 
d="M184 788h78l-86 -158h-54z" />
    <glyph glyph-name="paragraph" unicode="&#xb6;" horiz-adv-x="578" 
d="M465 765v-765h-64v765h64zM252 417q-42 1 -76.5 12t-59.5 33t-39 54t-14 76q0 46 15 78.5t41 53.5t61.5 31t76.5 10h60v-765h-65v417z" />
    <glyph glyph-name="periodcentered" unicode="&#xb7;" horiz-adv-x="222" 
d="M64 349h95v-95h-95v95z" />
    <glyph glyph-name="cedilla" unicode="&#xb8;" horiz-adv-x="536" 
d="M291 20l-43 -90h2q6 5 14.5 8.5t20.5 3.5q32 0 49.5 -19.5t17.5 -54.5q0 -29 -21 -53t-67 -24q-41 0 -59 18.5t-20 43.5h51q2 -10 9.5 -16.5t21.5 -6.5q33 0 33 39q0 17 -8 27.5t-25 10.5t-27 -12h-48l58 125h41z" />
    <glyph glyph-name="onesuperior" unicode="&#xb9;" horiz-adv-x="278" 
d="M127 719h-93v41h14q45 0 67 20q11 11 15.5 25.5t5.5 37.5h51v-430h-60v306z" />
    <glyph glyph-name="ordmasculine" unicode="&#xba;" horiz-adv-x="453" 
d="M225 309q-46 0 -80.5 16t-57.5 45.5t-34.5 70t-11.5 89.5q0 48 12.5 88.5t36.5 70t58.5 46t77.5 16.5q48 0 82.5 -16.5t57.5 -45.5t34 -70t11 -89q0 -49 -12.5 -89.5t-36.5 -70t-58.5 -45.5t-78.5 -16zM225 700q-56 0 -86.5 -44.5t-30.5 -125.5t29 -125t91 -44
q57 0 87 44t30 125t-29.5 125.5t-90.5 44.5z" />
    <glyph glyph-name="guillemotright" unicode="&#xbb;" horiz-adv-x="517" 
d="M78 57l111 205l-112 202h69l115 -203l-114 -204h-69zM274 57l110 205l-111 202h68l116 -203l-115 -204h-68z" />
    <glyph glyph-name="onequarter" unicode="&#xbc;" horiz-adv-x="805" 
d="M127 641h-93v41h14q45 0 67 20q11 11 15.5 25.5t5.5 37.5h51v-430h-60v306zM652 151v214h-2q-3 -6 -7 -13q-4 -6 -9 -14t-12 -18l-128 -169h158zM709 102v-102h-59v102h-218v45l212 283h65v-278h60v-50h-60zM625 785h65l-550 -825h-65z" />
    <glyph glyph-name="onehalf" unicode="&#xbd;" horiz-adv-x="871" 
d="M127 641h-93v41h14q45 0 67 20q11 11 15.5 25.5t5.5 37.5h51v-430h-60v306zM510 0v42l159 142q24 21 40.5 37t26.5 31t14 29.5t4 31.5q0 34 -22.5 54.5t-60.5 20.5q-35 0 -62.5 -22t-29.5 -76h-61q1 71 44.5 108.5t109.5 37.5q39 0 66.5 -10t45 -26.5t26 -38.5t8.5 -45
q0 -22 -5 -40.5t-17 -37.5t-31 -38.5t-47 -43.5l-121 -105v-1h226v-50h-313zM625 785h65l-550 -825h-65z" />
    <glyph glyph-name="threequarters" unicode="&#xbe;" horiz-adv-x="885" 
d="M165 528v50h42q36 0 57.5 21t21.5 52q0 33 -23.5 52.5t-59.5 19.5q-41 0 -64.5 -20t-25.5 -62h-61q0 25 9.5 48.5t28.5 41.5t47.5 29t66.5 11q68 0 106 -32t38 -83q0 -35 -22 -61.5t-57 -37.5v-1q37 -8 64.5 -33t27.5 -74q0 -25 -11 -47t-31.5 -39t-50 -27t-67.5 -10
q-41 0 -70.5 10.5t-48 28.5t-28 41.5t-10.5 49.5h61q5 -42 32.5 -62t67.5 -20t67 21t27 56q0 40 -25.5 58.5t-64.5 18.5h-44zM733 151v214h-2q-3 -6 -7 -13q-4 -6 -9 -14t-12 -18l-128 -169h158zM790 102v-102h-59v102h-218v45l212 283h65v-278h60v-50h-60zM723 785h65
l-550 -825h-65z" />
    <glyph glyph-name="questiondown" unicode="&#xbf;" horiz-adv-x="535" 
d="M110.026 67.0361q0 -63.9961 40.9971 -101.493q40.998 -37.498 112.993 -37.498q77.9951 0 123.992 49.9971t43.998 140.991h64.9951q2 -57.9961 -14.999 -104.493t-47.9971 -78.9951t-74.9951 -49.4971t-95.9941 -16.999q-57.9961 0 -99.9941 15.999
q-41.9971 15.999 -68.9951 42.9971q-26.999 26.998 -39.998 61.4961t-12.999 70.4961q0 37.998 8.49902 66.9961q8.5 28.998 23.499 52.4961q14.999 23.499 34.498 43.498q19.499 19.998 41.4971 39.9971l42.998 38.998q14.999 13.999 24.998 23.498
q9.99902 9.5 16.499 19.999t8.99902 23.999q2.5 13.499 2.5 35.4971v55.9971h62.9961v-62.9961q0 -28.998 -3.99902 -47.9971q-4 -18.999 -13 -33.998q-8.99902 -14.999 -24.998 -29.998t-39.998 -35.998l-44.9971 -38.998q-34.998 -30.998 -52.9961 -64.4961
q-17.999 -33.4971 -17.999 -79.4951zM323.013 666v-93.9941h-93.9941v93.9941h93.9941z" />
    <glyph glyph-name="Agrave" unicode="&#xc0;" horiz-adv-x="723" 
d="M360 696q-2 -4 -11 -32.5t-21 -61.5l-108 -294h279l-107 295q-7 17 -12 33.5t-9 30.5q-4 15 -9 29h-2zM520 250h-321l-91 -250h-71l283 765h84l282 -765h-75zM390 827h-57l-91 133h80z" />
    <glyph glyph-name="Aacute" unicode="&#xc1;" horiz-adv-x="723" 
d="M360 696q-2 -4 -11 -32.5t-21 -61.5l-108 -294h279l-107 295q-7 17 -12 33.5t-9 30.5q-4 15 -9 29h-2zM520 250h-321l-91 -250h-71l283 765h84l282 -765h-75zM400 960h81l-91 -133h-57z" />
    <glyph glyph-name="Acircumflex" unicode="&#xc2;" horiz-adv-x="723" 
d="M360 696q-2 -4 -11 -32.5t-21 -61.5l-108 -294h279l-107 295q-7 17 -12 33.5t-9 30.5q-4 15 -9 29h-2zM520 250h-321l-91 -250h-71l283 765h84l282 -765h-75zM512 827h-67l-83 88h-1l-83 -88h-60l110 133h71z" />
    <glyph glyph-name="Atilde" unicode="&#xc3;" horiz-adv-x="723" 
d="M360 696q-2 -4 -11 -32.5t-21 -61.5l-108 -294h279l-107 295q-7 17 -12 33.5t-9 30.5q-4 15 -9 29h-2zM520 250h-321l-91 -250h-71l283 765h84l282 -765h-75zM191 828q0 23 5.5 45t17.5 39.5t30.5 28t44.5 10.5q25 0 45.5 -10.5t38 -23t33 -23t30.5 -10.5q23 0 34.5 19
t14.5 51h48q0 -23 -6 -45.5t-18 -40t-30.5 -28t-44.5 -10.5q-25 0 -45 10.5t-37.5 23t-33 23t-31.5 10.5q-23 0 -34 -18.5t-15 -50.5h-47z" />
    <glyph glyph-name="Adieresis" unicode="&#xc4;" horiz-adv-x="723" 
d="M360 696q-2 -4 -11 -32.5t-21 -61.5l-108 -294h279l-107 295q-7 17 -12 33.5t-9 30.5q-4 15 -9 29h-2zM520 250h-321l-91 -250h-71l283 765h84l282 -765h-75zM429 923h78v-84h-78v84zM213 923h78v-84h-78v84z" />
    <glyph glyph-name="Aring" unicode="&#xc5;" horiz-adv-x="723" 
d="M360 696q-2 -4 -11 -32.5t-21 -61.5l-108 -294h279l-107 295q-7 17 -12 33.5t-9 30.5q-4 15 -9 29h-2zM520 250h-321l-91 -250h-71l283 765h84l282 -765h-75zM361 814q-48 0 -75 28t-27 73t28 73t74 28q49 0 76 -28t27 -73t-28 -73t-75 -28zM361 978q-25 0 -39.5 -18
t-14.5 -45q0 -28 14 -45t40 -17t40.5 17t14.5 45q0 27 -14.5 45t-40.5 18z" />
    <glyph glyph-name="AE" unicode="&#xc6;" horiz-adv-x="1074" 
d="M512 702h-80l-180 -394h260v394zM110 -1l-74 1l352 765h608v-63h-412v-281h375v-62h-375v-296h416v-63h-488v250h-287z" />
    <glyph glyph-name="Ccedilla" unicode="&#xc7;" horiz-adv-x="768" 
d="M402 -209q-41 0 -59 18.5t-20 43.5h51q2 -10 9.5 -16.5t21.5 -6.5q33 0 33 39q0 17 -8 27.5t-25 10.5t-27 -12h-48l42 90q-66 5 -121.5 31.5t-96 75t-63 120.5t-22.5 168q0 94 26 168t71 125t107 77.5t134 26.5q49 0 97.5 -12.5t89 -40t68.5 -72t34 -107.5h-73
q-4 31 -18 62.5t-40 56t-65 40t-93 15.5q-65 0 -114 -25.5t-82 -70.5t-49.5 -107.5t-16.5 -135.5q0 -77 17 -139t51 -106t83 -68t114 -24q54 0 93 15.5t65 41t39.5 57.5t17.5 65h71q-5 -51 -26.5 -94t-58 -74.5t-87 -50t-112.5 -19.5l-26 -54h2q6 5 14.5 8.5t20.5 3.5
q32 0 49.5 -19.5t17.5 -54.5q0 -29 -21 -53t-67 -24z" />
    <glyph glyph-name="Egrave" unicode="&#xc8;" horiz-adv-x="679" 
d="M387 827h-57l-91 133h80zM113 765h488v-63h-417v-281h380v-62h-380v-296h421v-63h-492v765z" />
    <glyph glyph-name="Eacute" unicode="&#xc9;" horiz-adv-x="679" 
d="M398 960h81l-91 -133h-57zM113 765h488v-63h-417v-281h380v-62h-380v-296h421v-63h-492v765z" />
    <glyph glyph-name="Ecircumflex" unicode="&#xca;" horiz-adv-x="679" 
d="M510 827h-67l-83 88h-1l-83 -88h-60l110 133h71zM113 765h488v-63h-417v-281h380v-62h-380v-296h421v-63h-492v765z" />
    <glyph glyph-name="Edieresis" unicode="&#xcb;" horiz-adv-x="679" 
d="M113 765h488v-63h-417v-281h380v-62h-380v-296h421v-63h-492v765zM428 923h78v-84h-78v84zM212 923h78v-84h-78v84z" />
    <glyph glyph-name="Igrave" unicode="&#xcc;" horiz-adv-x="298" 
d="M113 765h71v-765h-71v765zM177 827h-57l-91 133h80z" />
    <glyph glyph-name="Iacute" unicode="&#xcd;" horiz-adv-x="298" 
d="M113 765h71v-765h-71v765zM187 960h81l-91 -133h-57z" />
    <glyph glyph-name="Icircumflex" unicode="&#xce;" horiz-adv-x="298" 
d="M113 765h71v-765h-71v765zM299 827h-67l-83 88h-1l-83 -88h-60l110 133h71z" />
    <glyph glyph-name="Idieresis" unicode="&#xcf;" horiz-adv-x="298" 
d="M113 765h71v-765h-71v765zM217 923h78v-84h-78v84zM1 923h78v-84h-78v84z" />
    <glyph glyph-name="Eth" unicode="&#xd0;" horiz-adv-x="794" 
d="M125 0v360h-88v60h88v345h238q76 0 142 -21t115.5 -66t78 -116t28.5 -172q0 -102 -27.5 -175.5t-76 -121t-114 -70.5t-141.5 -23h-243zM361 62q62 0 115.5 16t92.5 54t61.5 100.5t22.5 154.5q0 86 -22.5 146.5t-61.5 98t-91.5 54.5t-113.5 17h-168v-283h233v-60h-233
v-298h165z" />
    <glyph glyph-name="Ntilde" unicode="&#xd1;" horiz-adv-x="801" 
d="M229 828q0 23 5.5 45t17.5 39.5t30.5 28t44.5 10.5q25 0 45.5 -10.5t38 -23t33 -23t30.5 -10.5q23 0 34.5 19t14.5 51h48q0 -23 -6 -45.5t-18 -40t-30.5 -28t-44.5 -10.5q-25 0 -45 10.5t-37.5 23t-33 23t-31.5 10.5q-23 0 -34 -18.5t-15 -50.5h-47zM113 765h88l383 -607
q8 -14 14.5 -25.5t11.5 -19.5q5 -10 8 -17h2v669h69v-765h-89l-380 605q-9 14 -15.5 26t-11.5 20q-5 10 -9 17h-2v-668h-69v765z" />
    <glyph glyph-name="Ograve" unicode="&#xd2;" horiz-adv-x="816" 
d="M435 827h-57l-91 133h80zM69 379q0 104 28 179t74.5 123.5t107.5 71.5t128 23t129 -23t108.5 -71.5t74.5 -123.5t28 -179t-27.5 -178.5t-74.5 -122.5t-108.5 -71t-129.5 -23t-129 23t-107.5 71t-74 122.5t-27.5 178.5zM407 41q57 0 106 21.5t84.5 64t55.5 106t20 146.5
q0 84 -20 147.5t-55.5 106.5t-84 64.5t-106.5 21.5q-57 0 -105.5 -21t-83.5 -63.5t-55 -106.5t-20 -149q0 -84 19.5 -147t54.5 -105.5t83.5 -64t106.5 -21.5z" />
    <glyph glyph-name="Oacute" unicode="&#xd3;" horiz-adv-x="816" 
d="M444 960h81l-91 -133h-57zM69 379q0 104 28 179t74.5 123.5t107.5 71.5t128 23t129 -23t108.5 -71.5t74.5 -123.5t28 -179t-27.5 -178.5t-74.5 -122.5t-108.5 -71t-129.5 -23t-129 23t-107.5 71t-74 122.5t-27.5 178.5zM407 41q57 0 106 21.5t84.5 64t55.5 106t20 146.5
q0 84 -20 147.5t-55.5 106.5t-84 64.5t-106.5 21.5q-57 0 -105.5 -21t-83.5 -63.5t-55 -106.5t-20 -149q0 -84 19.5 -147t54.5 -105.5t83.5 -64t106.5 -21.5z" />
    <glyph glyph-name="Ocircumflex" unicode="&#xd4;" horiz-adv-x="816" 
d="M557 827h-67l-83 88h-1l-83 -88h-60l110 133h71zM69 379q0 104 28 179t74.5 123.5t107.5 71.5t128 23t129 -23t108.5 -71.5t74.5 -123.5t28 -179t-27.5 -178.5t-74.5 -122.5t-108.5 -71t-129.5 -23t-129 23t-107.5 71t-74 122.5t-27.5 178.5zM407 41q57 0 106 21.5
t84.5 64t55.5 106t20 146.5q0 84 -20 147.5t-55.5 106.5t-84 64.5t-106.5 21.5q-57 0 -105.5 -21t-83.5 -63.5t-55 -106.5t-20 -149q0 -84 19.5 -147t54.5 -105.5t83.5 -64t106.5 -21.5z" />
    <glyph glyph-name="Otilde" unicode="&#xd5;" horiz-adv-x="816" 
d="M237 828q0 23 5.5 45t17.5 39.5t30.5 28t44.5 10.5q25 0 45.5 -10.5t38 -23t33 -23t30.5 -10.5q23 0 34.5 19t14.5 51h48q0 -23 -6 -45.5t-18 -40t-30.5 -28t-44.5 -10.5q-25 0 -45 10.5t-37.5 23t-33 23t-31.5 10.5q-23 0 -34 -18.5t-15 -50.5h-47zM69 379q0 104 28 179
t74.5 123.5t107.5 71.5t128 23t129 -23t108.5 -71.5t74.5 -123.5t28 -179t-27.5 -178.5t-74.5 -122.5t-108.5 -71t-129.5 -23t-129 23t-107.5 71t-74 122.5t-27.5 178.5zM407 41q57 0 106 21.5t84.5 64t55.5 106t20 146.5q0 84 -20 147.5t-55.5 106.5t-84 64.5t-106.5 21.5
q-57 0 -105.5 -21t-83.5 -63.5t-55 -106.5t-20 -149q0 -84 19.5 -147t54.5 -105.5t83.5 -64t106.5 -21.5z" />
    <glyph glyph-name="Odieresis" unicode="&#xd6;" horiz-adv-x="816" 
d="M476 923h78v-84h-78v84zM260 923h78v-84h-78v84zM69 379q0 104 28 179t74.5 123.5t107.5 71.5t128 23t129 -23t108.5 -71.5t74.5 -123.5t28 -179t-27.5 -178.5t-74.5 -122.5t-108.5 -71t-129.5 -23t-129 23t-107.5 71t-74 122.5t-27.5 178.5zM407 41q57 0 106 21.5
t84.5 64t55.5 106t20 146.5q0 84 -20 147.5t-55.5 106.5t-84 64.5t-106.5 21.5q-57 0 -105.5 -21t-83.5 -63.5t-55 -106.5t-20 -149q0 -84 19.5 -147t54.5 -105.5t83.5 -64t106.5 -21.5z" />
    <glyph glyph-name="multiply" unicode="&#xd7;" horiz-adv-x="632" 
d="M103 183l171 170l-171 170l43 42l170 -171l169 171l43 -42l-171 -170l172 -171l-43 -43l-171 172l-169 -170z" />
    <glyph glyph-name="Oslash" unicode="&#xd8;" horiz-adv-x="816" 
d="M407 719q-57 0 -105.5 -21t-83.5 -63.5t-55 -106.5t-20 -149q0 -72 13 -127t37 -96l384 504q-33 30 -76 44.5t-94 14.5zM407 41q57 0 106 21.5t84.5 64t55.5 106t20 146.5q0 78 -15 136.5t-43 100.5l-387 -507q34 -35 79.5 -51.5t99.5 -16.5zM747 379
q0 -104 -27.5 -178.5t-74.5 -122.5t-108.5 -71t-129.5 -23q-61 0 -116.5 18.5t-100.5 56.5l-64 -84h-71l96 125q-38 48 -60 117t-22 162q0 104 28 179t74.5 123.5t107.5 71.5t128 23q57 0 110 -16t98 -51l64 84h71l-94 -124q42 -48 66.5 -120t24.5 -170z" />
    <glyph glyph-name="Ugrave" unicode="&#xd9;" horiz-adv-x="765" 
d="M411 827h-57l-91 133h80zM99 765h72v-436q0 -29 0.5 -59t4.5 -58.5t12.5 -54.5t23.5 -45q29 -36 72.5 -52.5t100.5 -16.5t99.5 16.5t71.5 52.5q15 19 23.5 45t12 54.5t4 58.5t0.5 59v436h70v-510q0 -72 -20.5 -123t-57.5 -84t-89.5 -48t-115.5 -15q-64 0 -116.5 15
t-89.5 47.5t-57.5 84t-20.5 123.5v510z" />
    <glyph glyph-name="Uacute" unicode="&#xda;" horiz-adv-x="765" 
d="M421 960h81l-91 -133h-57zM99 765h72v-436q0 -29 0.5 -59t4.5 -58.5t12.5 -54.5t23.5 -45q29 -36 72.5 -52.5t100.5 -16.5t99.5 16.5t71.5 52.5q15 19 23.5 45t12 54.5t4 58.5t0.5 59v436h70v-510q0 -72 -20.5 -123t-57.5 -84t-89.5 -48t-115.5 -15q-64 0 -116.5 15
t-89.5 47.5t-57.5 84t-20.5 123.5v510z" />
    <glyph glyph-name="Ucircumflex" unicode="&#xdb;" horiz-adv-x="765" 
d="M534 827h-67l-83 88h-1l-83 -88h-60l110 133h71zM99 765h72v-436q0 -29 0.5 -59t4.5 -58.5t12.5 -54.5t23.5 -45q29 -36 72.5 -52.5t100.5 -16.5t99.5 16.5t71.5 52.5q15 19 23.5 45t12 54.5t4 58.5t0.5 59v436h70v-510q0 -72 -20.5 -123t-57.5 -84t-89.5 -48t-115.5 -15
q-64 0 -116.5 15t-89.5 47.5t-57.5 84t-20.5 123.5v510z" />
    <glyph glyph-name="Udieresis" unicode="&#xdc;" horiz-adv-x="765" 
d="M99 765h72v-436q0 -29 0.5 -59t4.5 -58.5t12.5 -54.5t23.5 -45q29 -36 72.5 -52.5t100.5 -16.5t99.5 16.5t71.5 52.5q15 19 23.5 45t12 54.5t4 58.5t0.5 59v436h70v-510q0 -72 -20.5 -123t-57.5 -84t-89.5 -48t-115.5 -15q-64 0 -116.5 15t-89.5 47.5t-57.5 84
t-20.5 123.5v510zM450 923h78v-84h-78v84zM234 923h78v-84h-78v84z" />
    <glyph glyph-name="Yacute" unicode="&#xdd;" horiz-adv-x="640" 
d="M285 335l-272 430h82l225 -365h2l229 365h77l-272 -426v-339h-71v335zM360 960h81l-91 -133h-57z" />
    <glyph glyph-name="Thorn" unicode="&#xde;" horiz-adv-x="633" 
d="M184 177v-177h-71v765h71v-166h155q53 0 98 -11.5t78 -37t51.5 -65t18.5 -96.5q0 -54 -18.5 -94t-52 -66t-80 -39t-102.5 -13h-148zM342 236q83 2 127 38.5t44 114.5q0 83 -45.5 117t-127.5 34h-156v-304h158z" />
    <glyph glyph-name="germandbls" unicode="&#xdf;" horiz-adv-x="596" 
d="M97 566q0 60 17 101.5t45 67t64 37t74 11.5q44 0 81.5 -11.5t64.5 -35.5t42 -60t15 -85q0 -59 -27.5 -103.5t-83.5 -65.5v-2q30 -6 57.5 -19.5t48.5 -37t33.5 -58t12.5 -81.5q0 -56 -17.5 -98t-49.5 -70t-77 -42t-100 -14h-37v58h38q76 0 124 39.5t48 123.5
q0 75 -42.5 119.5t-126.5 44.5h-22v61h21q60 0 94 38.5t34 103.5q0 70 -36 104t-95 34q-27 0 -51 -9t-41.5 -28.5t-27.5 -52t-10 -78.5v-558h-70v566z" />
    <glyph glyph-name="agrave" unicode="&#xe0;" horiz-adv-x="552" 
d="M229 48q28 0 56.5 11t52 34.5t38 59t14.5 83.5v22q-98 -6 -151 -14t-78 -26q-36 -26 -36 -76q0 -47 28 -70.5t76 -23.5zM81 385q0 31 13.5 58.5t38 48.5t59.5 33t79 12q54 0 90 -14.5t57.5 -40t30 -61t8.5 -77.5v-228q0 -36 11.5 -50.5t39.5 -15.5v-55h-9q-57 0 -80 25
t-26 78h-2q-24 -51 -70 -78.5t-106 -27.5q-74 0 -117.5 38.5t-43.5 108.5q0 45 18.5 77t53.5 51q39 22 104 31t161 14v33q0 31 -6 56.5t-20 44t-37.5 28.5t-58.5 10q-60 0 -89.5 -29t-32.5 -70h-66zM294 630h-54l-87 158h77z" />
    <glyph glyph-name="aacute" unicode="&#xe1;" horiz-adv-x="552" 
d="M229 48q28 0 56.5 11t52 34.5t38 59t14.5 83.5v22q-98 -6 -151 -14t-78 -26q-36 -26 -36 -76q0 -47 28 -70.5t76 -23.5zM81 385q0 31 13.5 58.5t38 48.5t59.5 33t79 12q54 0 90 -14.5t57.5 -40t30 -61t8.5 -77.5v-228q0 -36 11.5 -50.5t39.5 -15.5v-55h-9q-57 0 -80 25
t-26 78h-2q-24 -51 -70 -78.5t-106 -27.5q-74 0 -117.5 38.5t-43.5 108.5q0 45 18.5 77t53.5 51q39 22 104 31t161 14v33q0 31 -6 56.5t-20 44t-37.5 28.5t-58.5 10q-60 0 -89.5 -29t-32.5 -70h-66zM304 788h78l-86 -158h-54z" />
    <glyph glyph-name="acircumflex" unicode="&#xe2;" horiz-adv-x="552" 
d="M229 48q28 0 56.5 11t52 34.5t38 59t14.5 83.5v22q-98 -6 -151 -14t-78 -26q-36 -26 -36 -76q0 -47 28 -70.5t76 -23.5zM81 385q0 31 13.5 58.5t38 48.5t59.5 33t79 12q54 0 90 -14.5t57.5 -40t30 -61t8.5 -77.5v-228q0 -36 11.5 -50.5t39.5 -15.5v-55h-9q-57 0 -80 25
t-26 78h-2q-24 -51 -70 -78.5t-106 -27.5q-74 0 -117.5 38.5t-43.5 108.5q0 45 18.5 77t53.5 51q39 22 104 31t161 14v33q0 31 -6 56.5t-20 44t-37.5 28.5t-58.5 10q-60 0 -89.5 -29t-32.5 -70h-66zM420 630h-66l-85 111h-1l-85 -111h-59l111 158h71z" />
    <glyph glyph-name="atilde" unicode="&#xe3;" horiz-adv-x="552" 
d="M229 48q28 0 56.5 11t52 34.5t38 59t14.5 83.5v22q-98 -6 -151 -14t-78 -26q-36 -26 -36 -76q0 -47 28 -70.5t76 -23.5zM81 385q0 31 13.5 58.5t38 48.5t59.5 33t79 12q54 0 90 -14.5t57.5 -40t30 -61t8.5 -77.5v-228q0 -36 11.5 -50.5t39.5 -15.5v-55h-9q-57 0 -80 25
t-26 78h-2q-24 -51 -70 -78.5t-106 -27.5q-74 0 -117.5 38.5t-43.5 108.5q0 45 18.5 77t53.5 51q39 22 104 31t161 14v33q0 31 -6 56.5t-20 44t-37.5 28.5t-58.5 10q-60 0 -89.5 -29t-32.5 -70h-66zM99 628q0 24 5.5 46t17.5 39.5t30.5 28t44.5 10.5q25 0 45.5 -10.5
t38 -23.5t33 -23.5t30.5 -10.5q23 0 34.5 19t14.5 51h48q0 -23 -6 -45.5t-18 -40t-30.5 -28t-44.5 -10.5q-25 0 -45 10.5t-37.5 23t-33 23t-31.5 10.5q-23 0 -34 -18.5t-15 -50.5h-47z" />
    <glyph glyph-name="adieresis" unicode="&#xe4;" horiz-adv-x="552" 
d="M229 48q28 0 56.5 11t52 34.5t38 59t14.5 83.5v22q-98 -6 -151 -14t-78 -26q-36 -26 -36 -76q0 -47 28 -70.5t76 -23.5zM81 385q0 31 13.5 58.5t38 48.5t59.5 33t79 12q54 0 90 -14.5t57.5 -40t30 -61t8.5 -77.5v-228q0 -36 11.5 -50.5t39.5 -15.5v-55h-9q-57 0 -80 25
t-26 78h-2q-24 -51 -70 -78.5t-106 -27.5q-74 0 -117.5 38.5t-43.5 108.5q0 45 18.5 77t53.5 51q39 22 104 31t161 14v33q0 31 -6 56.5t-20 44t-37.5 28.5t-58.5 10q-60 0 -89.5 -29t-32.5 -70h-66zM326 734h80v-84h-80v84zM134 734h79v-84h-79v84z" />
    <glyph glyph-name="aring" unicode="&#xe5;" horiz-adv-x="552" 
d="M229 48q28 0 56.5 11t52 34.5t38 59t14.5 83.5v22q-98 -6 -151 -14t-78 -26q-36 -26 -36 -76q0 -47 28 -70.5t76 -23.5zM81 385q0 31 13.5 58.5t38 48.5t59.5 33t79 12q54 0 90 -14.5t57.5 -40t30 -61t8.5 -77.5v-228q0 -36 11.5 -50.5t39.5 -15.5v-55h-9q-57 0 -80 25
t-26 78h-2q-24 -51 -70 -78.5t-106 -27.5q-74 0 -117.5 38.5t-43.5 108.5q0 45 18.5 77t53.5 51q39 22 104 31t161 14v33q0 31 -6 56.5t-20 44t-37.5 28.5t-58.5 10q-60 0 -89.5 -29t-32.5 -70h-66zM279 632q-48 0 -75 28t-27 73t28 73t74 28q49 0 76 -28t27 -73t-28 -73
t-75 -28zM279 796q-25 0 -39.5 -18t-14.5 -45t14 -44.5t40 -17.5t40.5 17.5t14.5 44.5t-14.5 45t-40.5 18z" />
    <glyph glyph-name="ae" unicode="&#xe6;" horiz-adv-x="863" 
d="M744 311q0 33 -8 64.5t-24.5 55.5t-42.5 38.5t-64 14.5q-37 0 -64.5 -14.5t-46 -39.5t-29 -57t-13.5 -67h292v5zM227 48q29 0 58 11.5t52.5 35t38 60.5t14.5 88v11q-92 -1 -147.5 -7.5t-86.5 -29.5q-32 -24 -32 -73q0 -47 28 -71.5t75 -24.5zM807 131q-8 -31 -25.5 -57
t-43 -45.5t-58.5 -30.5t-72 -11q-80 0 -129 37.5t-65 91.5h-4q-27 -54 -73 -89t-122 -35q-75 0 -118.5 39.5t-43.5 109.5q0 89 74 128q20 11 44 18t55.5 11.5t71.5 6.5t93 2v38q0 30 -6 55t-20.5 44t-38 29.5t-58.5 10.5q-60 0 -89.5 -29t-32.5 -70h-66q0 32 13 60
t37.5 48.5t60 32t81.5 11.5q72 0 109.5 -26.5t53.5 -70.5h4q24 45 65.5 71t105.5 26q56 0 95 -21.5t63 -56t35 -79t11 -90.5v-40l-363 -1q2 -103 40 -155t121 -52q33 0 56 9.5t38 23t23 29t11 27.5h67z" />
    <glyph glyph-name="ccedilla" unicode="&#xe7;" horiz-adv-x="530" 
d="M274 -209q-41 0 -59 18.5t-20 43.5h51q2 -10 9.5 -16.5t21.5 -6.5q33 0 33 39q0 17 -8 27.5t-25 10.5t-27 -12h-48l44 94q-96 12 -144.5 84t-48.5 185q0 60 15.5 111t45.5 88.5t73 59t98 21.5q36 0 70 -8.5t61.5 -28t46 -50t23.5 -73.5h-69q-2 20 -11.5 38.5t-25.5 33
t-39.5 23.5t-54.5 9q-76 0 -118.5 -58t-42.5 -161q0 -51 9 -91.5t28 -69t49 -44t72 -15.5q37 0 61.5 11t40.5 28t24 38t11 41h67q-12 -86 -67.5 -130t-134.5 -44l-27 -57h2q6 5 14.5 8.5t20.5 3.5q32 0 49.5 -19.5t17.5 -54.5q0 -29 -21 -53t-67 -24z" />
    <glyph glyph-name="egrave" unicode="&#xe8;" horiz-adv-x="545" 
d="M423 304q0 31 -6.5 62.5t-22.5 57.5t-42.5 42.5t-68.5 16.5q-37 0 -65 -13.5t-48 -38t-31.5 -58.5t-14.5 -74h299v5zM485 131q-7 -30 -24.5 -56.5t-43.5 -46t-59 -30.5t-72 -11q-60 0 -104 19.5t-72.5 54.5t-42.5 85t-14 112q0 60 15 111t44 88.5t72 58.5t99 21
q58 0 98 -21.5t65 -56t36 -79.5t11 -91v-43h-370q3 -96 42 -150t122 -54q34 0 58 10t39 24t23.5 29t11.5 26h66zM311 630h-54l-87 158h77z" />
    <glyph glyph-name="eacute" unicode="&#xe9;" horiz-adv-x="545" 
d="M318 788h78l-86 -158h-54zM423 304q0 31 -6.5 62.5t-22.5 57.5t-42.5 42.5t-68.5 16.5q-37 0 -65 -13.5t-48 -38t-31.5 -58.5t-14.5 -74h299v5zM485 131q-7 -30 -24.5 -56.5t-43.5 -46t-59 -30.5t-72 -11q-60 0 -104 19.5t-72.5 54.5t-42.5 85t-14 112q0 60 15 111
t44 88.5t72 58.5t99 21q58 0 98 -21.5t65 -56t36 -79.5t11 -91v-43h-370q3 -96 42 -150t122 -54q34 0 58 10t39 24t23.5 29t11.5 26h66z" />
    <glyph glyph-name="ecircumflex" unicode="&#xea;" horiz-adv-x="545" 
d="M435 630h-66l-85 111h-1l-85 -111h-59l111 158h71zM423 304q0 31 -6.5 62.5t-22.5 57.5t-42.5 42.5t-68.5 16.5q-37 0 -65 -13.5t-48 -38t-31.5 -58.5t-14.5 -74h299v5zM485 131q-7 -30 -24.5 -56.5t-43.5 -46t-59 -30.5t-72 -11q-60 0 -104 19.5t-72.5 54.5t-42.5 85
t-14 112q0 60 15 111t44 88.5t72 58.5t99 21q58 0 98 -21.5t65 -56t36 -79.5t11 -91v-43h-370q3 -96 42 -150t122 -54q34 0 58 10t39 24t23.5 29t11.5 26h66z" />
    <glyph glyph-name="edieresis" unicode="&#xeb;" horiz-adv-x="545" 
d="M339 734h80v-84h-80v84zM147 734h79v-84h-79v84zM423 304q0 31 -6.5 62.5t-22.5 57.5t-42.5 42.5t-68.5 16.5q-37 0 -65 -13.5t-48 -38t-31.5 -58.5t-14.5 -74h299v5zM485 131q-7 -30 -24.5 -56.5t-43.5 -46t-59 -30.5t-72 -11q-60 0 -104 19.5t-72.5 54.5t-42.5 85
t-14 112q0 60 15 111t44 88.5t72 58.5t99 21q58 0 98 -21.5t65 -56t36 -79.5t11 -91v-43h-370q3 -96 42 -150t122 -54q34 0 58 10t39 24t23.5 29t11.5 26h66z" />
    <glyph glyph-name="igrave" unicode="&#xec;" horiz-adv-x="265" 
d="M97 524h70v-524h-70v524zM159 630h-54l-87 158h77z" />
    <glyph glyph-name="iacute" unicode="&#xed;" horiz-adv-x="265" 
d="M167 788h78l-86 -158h-54zM97 524h70v-524h-70v524z" />
    <glyph glyph-name="icircumflex" unicode="&#xee;" horiz-adv-x="265" 
d="M263.009 630h-58.668l-75.5576 111h-0.889648l-75.5576 -111h-52.4463l98.6699 158h63.1133zM97 524h70v-524h-70v524z" />
    <glyph glyph-name="idieresis" unicode="&#xef;" horiz-adv-x="265" 
d="M183.006 734h72.002v-84h-72.002v84zM10.2012 734h71.1016v-84h-71.1016v84zM97 524h70v-524h-70v524z" />
    <glyph glyph-name="eth" unicode="&#xf0;" horiz-adv-x="567" 
d="M284 -13q-60 0 -103 20.5t-71.5 57t-42 87t-13.5 110.5t15.5 110t44 87t70 57.5t93.5 20.5q42 0 70 -11t46 -31h2q-37 79 -106 150l-145 -55l-17 45l123 47q-26 23 -55 45.5t-61 42.5l66 20q27 -17 55.5 -37.5t57.5 -46.5l113 43l16 -45l-92 -35q33 -35 62.5 -77.5
t51.5 -91.5t35 -105.5t13 -120.5q0 -133 -58 -210t-170 -77zM285 483q-79 0 -119.5 -59.5t-40.5 -161.5t38.5 -161t120.5 -59q79 0 117.5 60t38.5 161q0 114 -38.5 167t-116.5 53z" />
    <glyph glyph-name="ntilde" unicode="&#xf1;" horiz-adv-x="596" 
d="M433 331q0 33 -4.5 61.5t-18.5 48.5q-27 37 -88 37q-40 0 -69.5 -14t-48.5 -37t-28 -53.5t-9 -64.5v-309h-70v524h65v-93h2q21 45 64.5 75.5t109.5 30.5q85 0 124.5 -45t39.5 -136v-356h-69v331zM133 627q0 24 5.5 46t17.5 39.5t30.5 28t44.5 10.5q25 0 45.5 -10.5
t38 -23.5t33 -23.5t30.5 -10.5q23 0 34.5 19t14.5 51h48q0 -23 -6 -45.5t-18 -40t-30.5 -28t-44.5 -10.5q-25 0 -45 10.5t-37.5 23t-33 23t-31.5 10.5q-23 0 -34 -18.5t-15 -50.5h-47z" />
    <glyph glyph-name="ograve" unicode="&#xf2;" horiz-adv-x="565" 
d="M283 -13q-59 0 -102 20.5t-71.5 57t-42.5 87t-14 110.5q0 59 15.5 109.5t45 87t72.5 57.5t97 21q59 0 102.5 -21t71.5 -57.5t41.5 -87t13.5 -109.5q0 -60 -15.5 -110.5t-44.5 -87t-71.5 -57t-97.5 -20.5zM283 483q-78 0 -118.5 -59.5t-40.5 -161.5q0 -101 38.5 -160.5
t121.5 -59.5q80 0 118 59t38 161q0 101 -37.5 161t-119.5 60zM310 630h-54l-87 158h77z" />
    <glyph glyph-name="oacute" unicode="&#xf3;" horiz-adv-x="565" 
d="M318 788h78l-86 -158h-54zM283 -13q-59 0 -102 20.5t-71.5 57t-42.5 87t-14 110.5q0 59 15.5 109.5t45 87t72.5 57.5t97 21q59 0 102.5 -21t71.5 -57.5t41.5 -87t13.5 -109.5q0 -60 -15.5 -110.5t-44.5 -87t-71.5 -57t-97.5 -20.5zM283 483q-78 0 -118.5 -59.5
t-40.5 -161.5q0 -101 38.5 -160.5t121.5 -59.5q80 0 118 59t38 161q0 101 -37.5 161t-119.5 60z" />
    <glyph glyph-name="ocircumflex" unicode="&#xf4;" horiz-adv-x="565" 
d="M434 630h-66l-85 111h-1l-85 -111h-59l111 158h71zM283 -13q-59 0 -102 20.5t-71.5 57t-42.5 87t-14 110.5q0 59 15.5 109.5t45 87t72.5 57.5t97 21q59 0 102.5 -21t71.5 -57.5t41.5 -87t13.5 -109.5q0 -60 -15.5 -110.5t-44.5 -87t-71.5 -57t-97.5 -20.5zM283 483
q-78 0 -118.5 -59.5t-40.5 -161.5q0 -101 38.5 -160.5t121.5 -59.5q80 0 118 59t38 161q0 101 -37.5 161t-119.5 60z" />
    <glyph glyph-name="otilde" unicode="&#xf5;" horiz-adv-x="565" 
d="M283 -13q-59 0 -102 20.5t-71.5 57t-42.5 87t-14 110.5q0 59 15.5 109.5t45 87t72.5 57.5t97 21q59 0 102.5 -21t71.5 -57.5t41.5 -87t13.5 -109.5q0 -60 -15.5 -110.5t-44.5 -87t-71.5 -57t-97.5 -20.5zM283 483q-78 0 -118.5 -59.5t-40.5 -161.5q0 -101 38.5 -160.5
t121.5 -59.5q80 0 118 59t38 161q0 101 -37.5 161t-119.5 60zM112 628q0 24 5.5 46t17.5 39.5t30.5 28t44.5 10.5q25 0 45.5 -10.5t38 -23.5t33 -23.5t30.5 -10.5q23 0 34.5 19t14.5 51h48q0 -23 -6 -45.5t-18 -40t-30.5 -28t-44.5 -10.5q-25 0 -45 10.5t-37.5 23t-33 23
t-31.5 10.5q-23 0 -34 -18.5t-15 -50.5h-47z" />
    <glyph glyph-name="odieresis" unicode="&#xf6;" horiz-adv-x="565" 
d="M338 734h80v-84h-80v84zM146 734h79v-84h-79v84zM283 -13q-59 0 -102 20.5t-71.5 57t-42.5 87t-14 110.5q0 59 15.5 109.5t45 87t72.5 57.5t97 21q59 0 102.5 -21t71.5 -57.5t41.5 -87t13.5 -109.5q0 -60 -15.5 -110.5t-44.5 -87t-71.5 -57t-97.5 -20.5zM283 483
q-78 0 -118.5 -59.5t-40.5 -161.5q0 -101 38.5 -160.5t121.5 -59.5q80 0 118 59t38 161q0 101 -37.5 161t-119.5 60z" />
    <glyph glyph-name="divide" unicode="&#xf7;" horiz-adv-x="633" 
d="M276 579h78v-78h-78v78zM88 387h456v-59h-456v59zM276 136v79h78v-79h-78z" />
    <glyph glyph-name="oslash" unicode="&#xf8;" horiz-adv-x="565" 
d="M283 483q-78 0 -118.5 -59.5t-40.5 -161.5q0 -85 23 -137l243 317q-38 41 -107 41zM284 42q80 0 118 59t38 161q0 81 -21 134l-243 -314q40 -40 108 -40zM512 262q0 -60 -15.5 -110.5t-44.5 -87t-71.5 -57t-97.5 -20.5q-88 0 -144 47l-42 -55h-62l70 91q-26 36 -39 85
t-13 107q0 59 15.5 109.5t45 87t72.5 57.5t97 21q88 0 144 -47l40 52h64l-69 -90q26 -36 38 -84.5t12 -105.5z" />
    <glyph glyph-name="ugrave" unicode="&#xf9;" horiz-adv-x="595" 
d="M164 189q0 -32 4.5 -60t18.5 -47q28 -37 91 -37q76 0 113.5 53.5t37.5 142.5v283h69v-524h-65v97h-2q-9 -22 -24.5 -42t-36.5 -35t-47.5 -24t-59.5 -9q-168 0 -168 179v358h69v-335zM324 630h-54l-87 158h77z" />
    <glyph glyph-name="uacute" unicode="&#xfa;" horiz-adv-x="595" 
d="M332 788h78l-86 -158h-54zM164 189q0 -32 4.5 -60t18.5 -47q28 -37 91 -37q76 0 113.5 53.5t37.5 142.5v283h69v-524h-65v97h-2q-9 -22 -24.5 -42t-36.5 -35t-47.5 -24t-59.5 -9q-168 0 -168 179v358h69v-335z" />
    <glyph glyph-name="ucircumflex" unicode="&#xfb;" horiz-adv-x="595" 
d="M448 630h-66l-85 111h-1l-85 -111h-59l111 158h71zM164 189q0 -32 4.5 -60t18.5 -47q28 -37 91 -37q76 0 113.5 53.5t37.5 142.5v283h69v-524h-65v97h-2q-9 -22 -24.5 -42t-36.5 -35t-47.5 -24t-59.5 -9q-168 0 -168 179v358h69v-335z" />
    <glyph glyph-name="udieresis" unicode="&#xfc;" horiz-adv-x="595" 
d="M352 734h80v-84h-80v84zM160 734h79v-84h-79v84zM164 189q0 -32 4.5 -60t18.5 -47q28 -37 91 -37q76 0 113.5 53.5t37.5 142.5v283h69v-524h-65v97h-2q-9 -22 -24.5 -42t-36.5 -35t-47.5 -24t-59.5 -9q-168 0 -168 179v358h69v-335z" />
    <glyph glyph-name="yacute" unicode="&#xfd;" horiz-adv-x="493" 
d="M34 524h70l121 -359q11 -33 17 -54q4 -12 7 -22h2q3 11 7 23q3 11 7.5 24.5l9.5 28.5l120 359h69l-195 -566q-15 -44 -30.5 -73.5t-35.5 -48.5t-46 -27t-62 -8q-19 0 -33.5 3t-25.5 6v58q13 -4 27.5 -6.5t28.5 -2.5q47 0 69 24t39 72l16 44zM286 788h78l-86 -158h-54z
" />
    <glyph glyph-name="thorn" unicode="&#xfe;" horiz-adv-x="605" 
d="M165 228q0 -35 9.5 -68.5t29 -59.5t49.5 -41.5t71 -15.5q78 0 117 60.5t39 164.5q0 44 -8 83t-26 68t-47.5 45.5t-72.5 16.5q-40 0 -70 -15t-50.5 -39.5t-30.5 -56.5t-10 -66v-76zM97 788h70v-355h2q22 48 66 76t105 28q41 0 79 -13.5t67.5 -45t47 -83t17.5 -127.5
q0 -71 -18 -124t-48 -88t-70 -52t-85 -17q-30 0 -56.5 8.5t-47.5 22.5t-35.5 32t-21.5 37h-2v-275h-70v976z" />
    <glyph glyph-name="ydieresis" unicode="&#xff;" horiz-adv-x="493" 
d="M34 524h70l121 -359q11 -33 17 -54q4 -12 7 -22h2q3 11 7 23q3 11 7.5 24.5l9.5 28.5l120 359h69l-195 -566q-15 -44 -30.5 -73.5t-35.5 -48.5t-46 -27t-62 -8q-19 0 -33.5 3t-25.5 6v58q13 -4 27.5 -6.5t28.5 -2.5q47 0 69 24t39 72l16 44zM307 734h80v-84h-80v84z
M115 734h79v-84h-79v84z" />
    <glyph glyph-name="Amacron" unicode="&#x100;" horiz-adv-x="723" 
d="M360 696q-2 -4 -11 -32.5t-21 -61.5l-108 -294h279l-107 295q-7 17 -12 33.5t-9 30.5q-4 15 -9 29h-2zM520 250h-321l-91 -250h-71l283 765h84l282 -765h-75zM223 916h277v-57h-277v57z" />
    <glyph glyph-name="amacron" unicode="&#x101;" horiz-adv-x="552" 
d="M229 48q28 0 56.5 11t52 34.5t38 59t14.5 83.5v22q-98 -6 -151 -14t-78 -26q-36 -26 -36 -76q0 -47 28 -70.5t76 -23.5zM81 385q0 31 13.5 58.5t38 48.5t59.5 33t79 12q54 0 90 -14.5t57.5 -40t30 -61t8.5 -77.5v-228q0 -36 11.5 -50.5t39.5 -15.5v-55h-9q-57 0 -80 25
t-26 78h-2q-24 -51 -70 -78.5t-106 -27.5q-74 0 -117.5 38.5t-43.5 108.5q0 45 18.5 77t53.5 51q39 22 104 31t161 14v33q0 31 -6 56.5t-20 44t-37.5 28.5t-58.5 10q-60 0 -89.5 -29t-32.5 -70h-66zM131 711h277v-57h-277v57z" />
    <glyph glyph-name="Abreve" unicode="&#x102;" horiz-adv-x="723" 
d="M360 696q-2 -4 -11 -32.5t-21 -61.5l-108 -294h279l-107 295q-7 17 -12 33.5t-9 30.5q-4 15 -9 29h-2zM520 250h-321l-91 -250h-71l283 765h84l282 -765h-75zM275 969q5 -42 29 -62t60 -20q35 0 59.5 19.5t29.5 62.5h51q-2 -35 -14 -60.5t-31 -41.5t-44.5 -23.5
t-53.5 -7.5q-29 0 -53.5 7.5t-43.5 23.5t-30.5 41.5t-14.5 60.5h56z" />
    <glyph glyph-name="abreve" unicode="&#x103;" horiz-adv-x="552" 
d="M229 48q28 0 56.5 11t52 34.5t38 59t14.5 83.5v22q-98 -6 -151 -14t-78 -26q-36 -26 -36 -76q0 -47 28 -70.5t76 -23.5zM81 385q0 31 13.5 58.5t38 48.5t59.5 33t79 12q54 0 90 -14.5t57.5 -40t30 -61t8.5 -77.5v-228q0 -36 11.5 -50.5t39.5 -15.5v-55h-9q-57 0 -80 25
t-26 78h-2q-24 -51 -70 -78.5t-106 -27.5q-74 0 -117.5 38.5t-43.5 108.5q0 45 18.5 77t53.5 51q39 22 104 31t161 14v33q0 31 -6 56.5t-20 44t-37.5 28.5t-58.5 10q-60 0 -89.5 -29t-32.5 -70h-66zM269 625q-30 0 -56 8.5t-45 27t-30 47t-11 69.5h55q0 -53 25.5 -77
t64.5 -24t64.5 24t25.5 77h51q0 -41 -11 -69.5t-30.5 -47t-46 -27t-56.5 -8.5z" />
    <glyph glyph-name="Aogonek" unicode="&#x104;" horiz-adv-x="723" 
d="M663 -188q-51 0 -84.5 20.5t-33.5 68.5q0 34 21 57.5t47 37.5l-93 254h-321l-91 -250h-71l283 765h84l282 -762q-31 -20 -54.5 -42.5t-23.5 -50.5q0 -27 19.5 -37t54.5 -11v-50h-19zM220 308h278l-106 295q-6 17 -11.5 33.5t-9.5 30.5q-5 15 -9 29h-2l-10 -30
q-5 -14 -10.5 -30.5t-11.5 -33.5z" />
    <glyph glyph-name="aogonek" unicode="&#x105;" horiz-adv-x="552" 
d="M81 385q0 30 13.5 57.5t38 48.5t59.5 33.5t79 12.5q54 0 90 -14.5t57.5 -40t30 -61t8.5 -77.5v-228q0 -36 11.5 -50.5t39.5 -15.5v-50q-33 -20 -55 -42.5t-22 -48.5t19 -36t55 -11v-50h-19q-51 0 -84.5 20.5t-33.5 68.5q0 36 25.5 61t55.5 39v1q-28 10 -41 33.5t-15 62.5
h-2q-24 -51 -70 -78.5t-106 -27.5q-74 0 -117.5 38.5t-43.5 108.5q0 45 18.5 77t53.5 51q39 22 104 31t161 14v33q0 31 -6 56.5t-20 44t-37.5 28.5t-58.5 10q-60 0 -89.5 -29t-32.5 -70h-66zM229 48q28 0 56.5 11t52 34.5t38 59t14.5 83.5v22q-98 -6 -151 -14t-78 -26
q-36 -26 -36 -76q0 -47 28 -70.5t76 -23.5z" />
    <glyph glyph-name="Cacute" unicode="&#x106;" horiz-adv-x="768" 
d="M407 719q-65 0 -114 -25.5t-82 -70.5t-49.5 -107.5t-16.5 -135.5q0 -77 17 -139t51 -106t83 -68t114 -24q54 0 93 15.5t65 41t39.5 57.5t17.5 65h71q-5 -51 -27 -95t-59.5 -75.5t-89.5 -49.5t-116 -18q-72 0 -133.5 23.5t-106 72.5t-70 123.5t-25.5 176.5q0 94 26 168
t71 125t107 77.5t134 26.5q49 0 97.5 -12.5t89 -40t68.5 -72t34 -107.5h-73q-4 31 -18 62.5t-40 56t-65 40t-93 15.5zM445 960h81l-91 -133h-57z" />
    <glyph glyph-name="cacute" unicode="&#x107;" horiz-adv-x="530" 
d="M321 788h78l-86 -158h-54zM417 378q-2 20 -11.5 38.5t-25.5 33t-39.5 23.5t-54.5 9q-76 0 -118.5 -58t-42.5 -161q0 -51 9 -91.5t28 -69t49 -44t72 -15.5q37 0 61.5 11t40.5 28t24 38t11 41h67q-12 -87 -68 -130.5t-137 -43.5q-57 0 -100 19.5t-71.5 54.5t-43 85
t-14.5 112q0 60 15.5 111t45.5 88.5t73 59t98 21.5q36 0 70 -8.5t61.5 -28t46 -50t23.5 -73.5h-69z" />
    <glyph glyph-name="Ccircumflex" unicode="&#x108;" horiz-adv-x="768" 
d="M557 827h-67l-83 88h-1l-83 -88h-60l110 133h71zM407 719q-65 0 -114 -25.5t-82 -70.5t-49.5 -107.5t-16.5 -135.5q0 -77 17 -139t51 -106t83 -68t114 -24q54 0 93 15.5t65 41t39.5 57.5t17.5 65h71q-5 -51 -27 -95t-59.5 -75.5t-89.5 -49.5t-116 -18q-72 0 -133.5 23.5
t-106 72.5t-70 123.5t-25.5 176.5q0 94 26 168t71 125t107 77.5t134 26.5q49 0 97.5 -12.5t89 -40t68.5 -72t34 -107.5h-73q-4 31 -18 62.5t-40 56t-65 40t-93 15.5z" />
    <glyph glyph-name="ccircumflex" unicode="&#x109;" horiz-adv-x="530" 
d="M438 630h-66l-85 111h-1l-85 -111h-59l111 158h71zM417 378q-2 20 -11.5 38.5t-25.5 33t-39.5 23.5t-54.5 9q-76 0 -118.5 -58t-42.5 -161q0 -51 9 -91.5t28 -69t49 -44t72 -15.5q37 0 61.5 11t40.5 28t24 38t11 41h67q-12 -87 -68 -130.5t-137 -43.5q-57 0 -100 19.5
t-71.5 54.5t-43 85t-14.5 112q0 60 15.5 111t45.5 88.5t73 59t98 21.5q36 0 70 -8.5t61.5 -28t46 -50t23.5 -73.5h-69z" />
    <glyph glyph-name="Cdotaccent" unicode="&#x10a;" horiz-adv-x="768" 
d="M407 719q-65 0 -114 -25.5t-82 -70.5t-49.5 -107.5t-16.5 -135.5q0 -77 17 -139t51 -106t83 -68t114 -24q54 0 93 15.5t65 41t39.5 57.5t17.5 65h71q-5 -51 -27 -95t-59.5 -75.5t-89.5 -49.5t-116 -18q-72 0 -133.5 23.5t-106 72.5t-70 123.5t-25.5 176.5q0 94 26 168
t71 125t107 77.5t134 26.5q49 0 97.5 -12.5t89 -40t68.5 -72t34 -107.5h-73q-4 31 -18 62.5t-40 56t-65 40t-93 15.5zM368 918h76v-79h-76v79z" />
    <glyph glyph-name="cdotaccent" unicode="&#x10b;" horiz-adv-x="530" 
d="M417 378q-2 20 -11.5 38.5t-25.5 33t-39.5 23.5t-54.5 9q-76 0 -118.5 -58t-42.5 -161q0 -51 9 -91.5t28 -69t49 -44t72 -15.5q37 0 61.5 11t40.5 28t24 38t11 41h67q-12 -87 -68 -130.5t-137 -43.5q-57 0 -100 19.5t-71.5 54.5t-43 85t-14.5 112q0 60 15.5 111
t45.5 88.5t73 59t98 21.5q36 0 70 -8.5t61.5 -28t46 -50t23.5 -73.5h-69zM248 733h76v-79h-76v79z" />
    <glyph glyph-name="Ccaron" unicode="&#x10c;" horiz-adv-x="768" 
d="M253 960h67l83 -88h1l83 88h60l-110 -133h-71zM407 719q-65 0 -114 -25.5t-82 -70.5t-49.5 -107.5t-16.5 -135.5q0 -77 17 -139t51 -106t83 -68t114 -24q54 0 93 15.5t65 41t39.5 57.5t17.5 65h71q-5 -51 -27 -95t-59.5 -75.5t-89.5 -49.5t-116 -18q-72 0 -133.5 23.5
t-106 72.5t-70 123.5t-25.5 176.5q0 94 26 168t71 125t107 77.5t134 26.5q49 0 97.5 -12.5t89 -40t68.5 -72t34 -107.5h-73q-4 31 -18 62.5t-40 56t-65 40t-93 15.5z" />
    <glyph glyph-name="ccaron" unicode="&#x10d;" horiz-adv-x="530" 
d="M132 788h66l85 -110h1l85 110h59l-111 -158h-71zM417 378q-2 20 -11.5 38.5t-25.5 33t-39.5 23.5t-54.5 9q-76 0 -118.5 -58t-42.5 -161q0 -51 9 -91.5t28 -69t49 -44t72 -15.5q37 0 61.5 11t40.5 28t24 38t11 41h67q-12 -87 -68 -130.5t-137 -43.5q-57 0 -100 19.5
t-71.5 54.5t-43 85t-14.5 112q0 60 15.5 111t45.5 88.5t73 59t98 21.5q36 0 70 -8.5t61.5 -28t46 -50t23.5 -73.5h-69z" />
    <glyph glyph-name="Dcaron" unicode="&#x10e;" horiz-adv-x="782" 
d="M202 960h67l83 -88h1l83 88h60l-110 -133h-71zM113 765h238q76 0 142 -21t115.5 -66t78 -116t28.5 -172q0 -102 -28 -175.5t-76.5 -121t-114 -70.5t-140.5 -23h-243v765zM349 62q62 0 115.5 16t92.5 54t61.5 100.5t22.5 154.5q0 86 -22.5 146.5t-61.5 98t-91.5 54.5
t-113.5 17h-168v-641h165z" />
    <glyph glyph-name="dcaron" unicode="&#x10f;" horiz-adv-x="605" 
d="M579 788h69l-37 -164h-47zM440 301q0 37 -10.5 69.5t-30.5 57t-48.5 39t-64.5 14.5q-41 0 -71.5 -16t-50.5 -45t-29.5 -69t-9.5 -88q0 -49 8.5 -89.5t27.5 -69.5t48 -45t71 -16q40 0 70 15t50 39.5t30 56.5t10 65v82zM508 0h-66v91h-3q-10 -20 -25.5 -39t-36 -33.5
t-46.5 -23t-58 -8.5q-39 0 -78.5 13t-71 44.5t-51 84t-19.5 130.5q0 67 16 119t45.5 87t71 53.5t92.5 18.5q59 0 99.5 -27.5t58.5 -71.5h2v350h70v-788z" />
    <glyph glyph-name="Dcroat" unicode="&#x110;" horiz-adv-x="794" 
d="M125 0v360h-88v60h88v345h238q76 0 142 -21t115.5 -66t78 -116t28.5 -172q0 -102 -27.5 -175.5t-76 -121t-114 -70.5t-141.5 -23h-243zM361 62q62 0 115.5 16t92.5 54t61.5 100.5t22.5 154.5q0 86 -22.5 146.5t-61.5 98t-91.5 54.5t-113.5 17h-168v-283h233v-60h-233
v-298h165z" />
    <glyph glyph-name="dcroat" unicode="&#x111;" horiz-adv-x="605" 
d="M440 301q0 37 -10.5 69.5t-30.5 57t-48.5 39t-64.5 14.5q-41 0 -71.5 -16t-50.5 -45t-29.5 -69t-9.5 -88q0 -49 8.5 -89.5t27.5 -69.5t48 -45t71 -16q40 0 70 15t50 39.5t30 56.5t10 65v82zM439 91q-10 -20 -25.5 -39t-36 -33.5t-46.5 -23t-58 -8.5q-39 0 -78.5 13
t-71 44.5t-51 84t-19.5 130.5q0 67 16 119t45.5 87t71 53.5t92.5 18.5q59 0 99.5 -27.5t58.5 -71.5h2v193h-171v51h171v106h70v-106h65v-51h-65v-631h-66v91h-3z" />
    <glyph glyph-name="Emacron" unicode="&#x112;" horiz-adv-x="679" 
d="M113 765h488v-63h-417v-281h380v-62h-380v-296h421v-63h-492v765zM220 916h277v-57h-277v57z" />
    <glyph glyph-name="emacron" unicode="&#x113;" horiz-adv-x="545" 
d="M423 304q0 31 -6.5 62.5t-22.5 57.5t-42.5 42.5t-68.5 16.5q-37 0 -65 -13.5t-48 -38t-31.5 -58.5t-14.5 -74h299v5zM485 131q-7 -30 -24.5 -56.5t-43.5 -46t-59 -30.5t-72 -11q-60 0 -104 19.5t-72.5 54.5t-42.5 85t-14 112q0 60 15 111t44 88.5t72 58.5t99 21
q58 0 98 -21.5t65 -56t36 -79.5t11 -91v-43h-370q3 -96 42 -150t122 -54q34 0 58 10t39 24t23.5 29t11.5 26h66zM144 711h277v-57h-277v57z" />
    <glyph glyph-name="Ebreve" unicode="&#x114;" horiz-adv-x="679" 
d="M113 765h488v-63h-417v-281h380v-62h-380v-296h421v-63h-492v765zM272 969q5 -42 29 -62t60 -20q35 0 59.5 19.5t29.5 62.5h51q-2 -35 -14 -60.5t-31 -41.5t-44.5 -23.5t-53.5 -7.5q-29 0 -53.5 7.5t-43.5 23.5t-30.5 41.5t-14.5 60.5h56z" />
    <glyph glyph-name="ebreve" unicode="&#x115;" horiz-adv-x="545" 
d="M423 304q0 31 -6.5 62.5t-22.5 57.5t-42.5 42.5t-68.5 16.5q-37 0 -65 -13.5t-48 -38t-31.5 -58.5t-14.5 -74h299v5zM485 131q-7 -30 -24.5 -56.5t-43.5 -46t-59 -30.5t-72 -11q-60 0 -104 19.5t-72.5 54.5t-42.5 85t-14 112q0 60 15 111t44 88.5t72 58.5t99 21
q58 0 98 -21.5t65 -56t36 -79.5t11 -91v-43h-370q3 -96 42 -150t122 -54q34 0 58 10t39 24t23.5 29t11.5 26h66zM282 625q-30 0 -56 8.5t-45 27t-30 47t-11 69.5h55q0 -53 25.5 -77t64.5 -24t64.5 24t25.5 77h51q0 -41 -11 -69.5t-30.5 -47t-46 -27t-56.5 -8.5z" />
    <glyph glyph-name="Edotaccent" unicode="&#x116;" horiz-adv-x="679" 
d="M321 918h76v-79h-76v79zM113 765h488v-63h-417v-281h380v-62h-380v-296h421v-63h-492v765z" />
    <glyph glyph-name="edotaccent" unicode="&#x117;" horiz-adv-x="545" 
d="M423 304q0 31 -6.5 62.5t-22.5 57.5t-42.5 42.5t-68.5 16.5q-37 0 -65 -13.5t-48 -38t-31.5 -58.5t-14.5 -74h299v5zM485 131q-7 -30 -24.5 -56.5t-43.5 -46t-59 -30.5t-72 -11q-60 0 -104 19.5t-72.5 54.5t-42.5 85t-14 112q0 60 15 111t44 88.5t72 58.5t99 21
q58 0 98 -21.5t65 -56t36 -79.5t11 -91v-43h-370q3 -96 42 -150t122 -54q34 0 58 10t39 24t23.5 29t11.5 26h66zM245 733h76v-79h-76v79z" />
    <glyph glyph-name="Eogonek" unicode="&#x118;" horiz-adv-x="679" 
d="M605 -188h-19q-51 0 -84 20.5t-33 68.5q0 18 7 33.5t17.5 28t24 22t25.5 15.5h-430v765h488v-63h-417v-281h380v-62h-380v-296h421v-63q-28 -18 -51 -40t-23 -50q0 -27 19.5 -37t54.5 -11v-50z" />
    <glyph glyph-name="eogonek" unicode="&#x119;" horiz-adv-x="545" 
d="M485 131q-9 -37 -30 -63.5t-45 -43.5q-42 -29 -70 -55t-28 -59q0 -27 19.5 -37t54.5 -11v-50h-19q-51 0 -84 20t-33 64q0 32 20 55.5t44 37.5v1q-5 -1 -12.5 -2t-15.5 -1q-60 0 -103.5 19.5t-72.5 54.5t-43 85t-14 112q0 60 15 111t44 88.5t72 58.5t99 21q58 0 98 -21.5
t65 -56.5t36 -79.5t11 -90.5v-43h-370q3 -95 41.5 -149.5t122.5 -54.5q34 0 58 10t39 24t23.5 29t11.5 26h66zM424 299q0 31 -6.5 64t-22 59.5t-43 43.5t-69.5 17q-37 0 -65.5 -13.5t-48 -38t-31 -58.5t-14.5 -74h300z" />
    <glyph glyph-name="Ecaron" unicode="&#x11a;" horiz-adv-x="679" 
d="M206 960h67l83 -88h1l83 88h60l-110 -133h-71zM113 765h488v-63h-417v-281h380v-62h-380v-296h421v-63h-492v765z" />
    <glyph glyph-name="ecaron" unicode="&#x11b;" horiz-adv-x="545" 
d="M129 788h66l85 -110h1l85 110h59l-111 -158h-71zM423 304q0 31 -6.5 62.5t-22.5 57.5t-42.5 42.5t-68.5 16.5q-37 0 -65 -13.5t-48 -38t-31.5 -58.5t-14.5 -74h299v5zM485 131q-7 -30 -24.5 -56.5t-43.5 -46t-59 -30.5t-72 -11q-60 0 -104 19.5t-72.5 54.5t-42.5 85
t-14 112q0 60 15 111t44 88.5t72 58.5t99 21q58 0 98 -21.5t65 -56t36 -79.5t11 -91v-43h-370q3 -96 42 -150t122 -54q34 0 58 10t39 24t23.5 29t11.5 26h66z" />
    <glyph glyph-name="Gcircumflex" unicode="&#x11c;" horiz-adv-x="818" 
d="M564 827h-67l-83 88h-1l-83 -88h-60l110 133h71zM412 719q-65 0 -115 -25t-84.5 -70t-52 -108.5t-17.5 -140.5q0 -78 18 -140t52 -104.5t83.5 -65.5t112.5 -23q56 0 100.5 17t75.5 47.5t47.5 73t16.5 94.5v41h-234v63h303v-378h-64v121h-3q-13 -27 -34.5 -52t-52 -43.5
t-70.5 -30t-91 -11.5q-69 0 -129.5 22.5t-106 70t-72 122.5t-26.5 180q0 96 26.5 170t72.5 124.5t108.5 76.5t135.5 26q60 0 110 -15.5t87 -43.5t60.5 -67.5t30.5 -87.5h-73q-7 36 -26 65.5t-47 49.5t-64 31t-78 11z" />
    <glyph glyph-name="gcircumflex" unicode="&#x11d;" horiz-adv-x="607" 
d="M431 630h-66l-85 111h-1l-85 -111h-59l111 158h71zM442 303q0 34 -10 66.5t-30.5 57t-51 39.5t-70.5 15q-39 0 -68.5 -15.5t-48.5 -44t-28.5 -67.5t-9.5 -85q0 -45 8 -84t27 -67t49.5 -44t74.5 -16q37 0 66.5 14t50 38t31 55t10.5 65v73zM281 -199q-84 0 -141 37.5
t-67 105.5h68q7 -35 41.5 -61.5t100.5 -26.5q33 0 62 8t50 27.5t33.5 51.5t12.5 79v83h-1q-23 -45 -68.5 -73.5t-106.5 -28.5q-38 0 -75.5 13.5t-68 44.5t-49.5 82t-19 126q0 66 16.5 116t46.5 83.5t71.5 51t91.5 17.5q33 0 59.5 -9t46.5 -23t34.5 -32.5t22.5 -37.5h2v89h65
v-503q0 -57 -17 -98.5t-47.5 -68.5t-72.5 -40t-91 -13z" />
    <glyph glyph-name="Gbreve" unicode="&#x11e;" horiz-adv-x="818" 
d="M326 969q5 -42 29 -62t60 -20q35 0 59.5 19.5t29.5 62.5h51q-2 -35 -14 -60.5t-31 -41.5t-44.5 -23.5t-53.5 -7.5q-29 0 -53.5 7.5t-43.5 23.5t-30.5 41.5t-14.5 60.5h56zM412 719q-65 0 -115 -25t-84.5 -70t-52 -108.5t-17.5 -140.5q0 -78 18 -140t52 -104.5t83.5 -65.5
t112.5 -23q56 0 100.5 17t75.5 47.5t47.5 73t16.5 94.5v41h-234v63h303v-378h-64v121h-3q-13 -27 -34.5 -52t-52 -43.5t-70.5 -30t-91 -11.5q-69 0 -129.5 22.5t-106 70t-72 122.5t-26.5 180q0 96 26.5 170t72.5 124.5t108.5 76.5t135.5 26q60 0 110 -15.5t87 -43.5
t60.5 -67.5t30.5 -87.5h-73q-7 36 -26 65.5t-47 49.5t-64 31t-78 11z" />
    <glyph glyph-name="gbreve" unicode="&#x11f;" horiz-adv-x="607" 
d="M442 303q0 34 -10 66.5t-30.5 57t-51 39.5t-70.5 15q-39 0 -68.5 -15.5t-48.5 -44t-28.5 -67.5t-9.5 -85q0 -45 8 -84t27 -67t49.5 -44t74.5 -16q37 0 66.5 14t50 38t31 55t10.5 65v73zM281 -199q-84 0 -141 37.5t-67 105.5h68q7 -35 41.5 -61.5t100.5 -26.5q33 0 62 8
t50 27.5t33.5 51.5t12.5 79v83h-1q-23 -45 -68.5 -73.5t-106.5 -28.5q-38 0 -75.5 13.5t-68 44.5t-49.5 82t-19 126q0 66 16.5 116t46.5 83.5t71.5 51t91.5 17.5q33 0 59.5 -9t46.5 -23t34.5 -32.5t22.5 -37.5h2v89h65v-503q0 -57 -17 -98.5t-47.5 -68.5t-72.5 -40t-91 -13z
M278 625q-30 0 -56 8.5t-45 27t-30 47t-11 69.5h55q0 -53 25.5 -77t64.5 -24t64.5 24t25.5 77h51q0 -41 -11 -69.5t-30.5 -47t-46 -27t-56.5 -8.5z" />
    <glyph glyph-name="Gdotaccent" unicode="&#x120;" horiz-adv-x="818" 
d="M373 918h76v-79h-76v79zM412 719q-65 0 -115 -25t-84.5 -70t-52 -108.5t-17.5 -140.5q0 -78 18 -140t52 -104.5t83.5 -65.5t112.5 -23q56 0 100.5 17t75.5 47.5t47.5 73t16.5 94.5v41h-234v63h303v-378h-64v121h-3q-13 -27 -34.5 -52t-52 -43.5t-70.5 -30t-91 -11.5
q-69 0 -129.5 22.5t-106 70t-72 122.5t-26.5 180q0 96 26.5 170t72.5 124.5t108.5 76.5t135.5 26q60 0 110 -15.5t87 -43.5t60.5 -67.5t30.5 -87.5h-73q-7 36 -26 65.5t-47 49.5t-64 31t-78 11z" />
    <glyph glyph-name="gdotaccent" unicode="&#x121;" horiz-adv-x="607" 
d="M442 303q0 34 -10 66.5t-30.5 57t-51 39.5t-70.5 15q-39 0 -68.5 -15.5t-48.5 -44t-28.5 -67.5t-9.5 -85q0 -45 8 -84t27 -67t49.5 -44t74.5 -16q37 0 66.5 14t50 38t31 55t10.5 65v73zM281 -199q-84 0 -141 37.5t-67 105.5h68q7 -35 41.5 -61.5t100.5 -26.5q33 0 62 8
t50 27.5t33.5 51.5t12.5 79v83h-1q-23 -45 -68.5 -73.5t-106.5 -28.5q-38 0 -75.5 13.5t-68 44.5t-49.5 82t-19 126q0 66 16.5 116t46.5 83.5t71.5 51t91.5 17.5q33 0 59.5 -9t46.5 -23t34.5 -32.5t22.5 -37.5h2v89h65v-503q0 -57 -17 -98.5t-47.5 -68.5t-72.5 -40t-91 -13z
M241 733h76v-79h-76v79z" />
    <glyph glyph-name="Gcommaaccent" unicode="&#x122;" horiz-adv-x="818" 
d="M381 -76h73l-55 -135h-45zM412 719q-65 0 -115 -25t-84.5 -70t-52 -108.5t-17.5 -140.5q0 -78 18 -140t52 -104.5t83.5 -65.5t112.5 -23q56 0 100.5 17t75.5 47.5t47.5 73t16.5 94.5v41h-234v63h303v-378h-64v121h-3q-13 -27 -34.5 -52t-52 -43.5t-70.5 -30t-91 -11.5
q-69 0 -129.5 22.5t-106 70t-72 122.5t-26.5 180q0 96 26.5 170t72.5 124.5t108.5 76.5t135.5 26q60 0 110 -15.5t87 -43.5t60.5 -67.5t30.5 -87.5h-73q-7 36 -26 65.5t-47 49.5t-64 31t-78 11z" />
    <glyph glyph-name="gcommaaccent" unicode="&#x123;" horiz-adv-x="607" 
d="M310 641h-73l56 132h43zM442 303q0 34 -10 66.5t-30.5 57t-51 39.5t-70.5 15q-39 0 -68.5 -15.5t-48.5 -44t-28.5 -67.5t-9.5 -85q0 -45 8 -84t27 -67t49.5 -44t74.5 -16q37 0 66.5 14t50 38t31 55t10.5 65v73zM281 -199q-84 0 -141 37.5t-67 105.5h68q7 -35 41.5 -61.5
t100.5 -26.5q33 0 62 8t50 27.5t33.5 51.5t12.5 79v83h-1q-23 -45 -68.5 -73.5t-106.5 -28.5q-38 0 -75.5 13.5t-68 44.5t-49.5 82t-19 126q0 66 16.5 116t46.5 83.5t71.5 51t91.5 17.5q33 0 59.5 -9t46.5 -23t34.5 -32.5t22.5 -37.5h2v89h65v-503q0 -57 -17 -98.5
t-47.5 -68.5t-72.5 -40t-91 -13z" />
    <glyph glyph-name="Hcircumflex" unicode="&#x124;" horiz-adv-x="798" 
d="M184 0h-71v765h71v-344h430v344h71v-765h-71v359h-430v-359zM550 827h-67l-83 88h-1l-83 -88h-60l110 133h71z" />
    <glyph glyph-name="hcircumflex" unicode="&#x125;" horiz-adv-x="596" 
d="M433 332q0 32 -4.5 60.5t-18.5 48.5q-27 37 -88 37q-41 0 -70 -14t-48 -37t-28 -54t-9 -64v-309h-70v788h70v-356h2q18 44 60.5 74.5t108.5 30.5q85 0 124.5 -45t39.5 -136v-356h-69v332zM449 827h-67l-83 88h-1l-83 -88h-60l110 133h71z" />
    <glyph glyph-name="Hbar" unicode="&#x126;" horiz-adv-x="798" 
d="M614 577h-430v-156h430v156zM184 0h-71v577h-92v52h92v136h71v-136h430v136h71v-136h90v-52h-90v-577h-71v359h-430v-359z" />
    <glyph glyph-name="hbar" unicode="&#x127;" horiz-adv-x="596" 
d="M167 0h-70v631h-65v51h65v106h68v-106h173v-51h-173v-199h2q19 44 62 74.5t109 30.5q85 0 124.5 -45t39.5 -136v-356h-69v332q0 32 -4.5 60.5t-18.5 48.5q-27 37 -88 37q-41 0 -70 -14t-48 -37t-28 -54t-9 -64v-309z" />
    <glyph glyph-name="Itilde" unicode="&#x128;" horiz-adv-x="298" 
d="M113 765h71v-765h-71v765zM-22 828q0 23 5.5 45t17.5 39.5t30.5 28t44.5 10.5q25 0 45.5 -10.5t38 -23t33 -23t30.5 -10.5q23 0 34.5 19t14.5 51h48q0 -23 -6 -45.5t-18 -40t-30.5 -28t-44.5 -10.5q-25 0 -45 10.5t-37.5 23t-33 23t-31.5 10.5q-23 0 -34 -18.5t-15 -50.5
h-47z" />
    <glyph glyph-name="itilde" unicode="&#x129;" horiz-adv-x="265" 
d="M97 524h70v-524h-70v524zM-12.9502 628q0 24 4.6748 46t14.875 39.5q10.1992 17.5 25.9238 28t37.8242 10.5q21.249 0 38.6738 -10.5q17.4238 -10.5 32.2988 -23.5t28.0488 -23.5q13.1748 -10.5 25.9248 -10.5q19.5488 0 29.3242 19q9.77441 19 12.3242 51h40.7988
q0 -23 -5.09961 -45.5t-15.2998 -40q-10.1992 -17.5 -25.9238 -28t-37.8242 -10.5q-21.249 0 -38.249 10.5q-16.999 10.5 -31.874 23t-28.0488 23q-13.1748 10.5 -26.7744 10.5q-19.5498 0 -28.8994 -18.5t-12.75 -50.5h-39.9482z" />
    <glyph glyph-name="Imacron" unicode="&#x12a;" horiz-adv-x="298" 
d="M113 765h71v-765h-71v765zM10 916h277v-57h-277v57z" />
    <glyph glyph-name="imacron" unicode="&#x12b;" horiz-adv-x="265" 
d="M97 524h70v-524h-70v524zM17.249 711h229.289v-57h-229.289v57z" />
    <glyph glyph-name="Ibreve" unicode="&#x12c;" horiz-adv-x="298" 
d="M113 765h71v-765h-71v765zM62 969q5 -42 29 -62t60 -20q35 0 59.5 19.5t29.5 62.5h51q-2 -35 -14 -60.5t-31 -41.5t-44.5 -23.5t-53.5 -7.5q-29 0 -53.5 7.5t-43.5 23.5t-30.5 41.5t-14.5 60.5h56z" />
    <glyph glyph-name="ibreve" unicode="&#x12d;" horiz-adv-x="265" 
d="M97 524h70v-524h-70v524zM131.604 625q-27.001 0 -50.4014 8.5t-40.501 27t-27.001 47t-9.90039 69.5h49.502q0 -53 22.9502 -77t58.0518 -24q35.1006 0 58.0518 24q22.9502 24 22.9502 77h45.9014q0 -41 -9.90039 -69.5t-27.4502 -47q-17.5508 -18.5 -41.4014 -27
t-50.8516 -8.5z" />
    <glyph glyph-name="Iogonek" unicode="&#x12e;" horiz-adv-x="298" 
d="M161 -188q-51 0 -84 20.5t-33 68.5q0 35 21.5 58.5t47.5 37.5v768h71v-762q-31 -20 -54.5 -42t-23.5 -51q0 -27 19.5 -37t54.5 -11v-50h-19z" />
    <glyph glyph-name="iogonek" unicode="&#x12f;" horiz-adv-x="265" 
d="M94 733h76v-79h-76v79zM138 -188q-51 0 -84.5 20.5t-33.5 68.5q0 19 7.5 34.5t18.5 28.5t25 22t26 15v523h70v-517q-38 -25 -61 -47t-23 -50q0 -27 19 -37t55 -11v-50h-19z" />
    <glyph glyph-name="Idotaccent" unicode="&#x130;" horiz-adv-x="298" 
d="M113 765h71v-765h-71v765zM110 918h76v-79h-76v79z" />
    <glyph glyph-name="dotlessi" unicode="&#x131;" horiz-adv-x="264" 
d="M97 524h70v-524h-70v524z" />
    <glyph glyph-name="IJ" unicode="&#x132;" horiz-adv-x="687" 
d="M314 -1v60h11q57 0 93.5 9.5t57.5 30.5t28.5 55.5t7.5 84.5v526h71v-536q0 -119 -57.5 -174.5t-187.5 -55.5h-24zM113 765h71v-765h-71v765z" />
    <glyph glyph-name="ij" unicode="&#x133;" horiz-adv-x="534" 
d="M99 733h75v-79h-75v79zM101 524h70v-524h-70v524zM364 733h76v-79h-76v79zM298 -197q-25 0 -52 6v59q19 -6 48 -6q39 0 56 20t17 68v574h70v-584q0 -70 -38 -103.5t-101 -33.5z" />
    <glyph glyph-name="Jcircumflex" unicode="&#x134;" horiz-adv-x="423" 
d="M435 827h-67l-83 88h-1l-83 -88h-60l110 133h71zM25 -1v60h26q60 0 98 9.5t60 30.5t30 55.5t8 84.5v526h72v-536q0 -119 -61 -174.5t-193 -55.5h-40z" />
    <glyph glyph-name="jcircumflex" unicode="&#x135;" horiz-adv-x="265" 
d="M-24 -132q19 -6 48 -6q39 0 56 20t17 68v574h70v-584q0 -70 -38 -103.5t-101 -33.5q-25 0 -52 6v59zM264.009 630h-58.668l-75.5576 111h-0.889648l-75.5576 -111h-52.4463l98.6699 158h63.1133z" />
    <glyph glyph-name="Kcommaaccent" unicode="&#x136;" horiz-adv-x="715" 
d="M339 -76h73l-55 -135h-45zM184 0h-71v765h71v-414l397 414h88l-309 -322l329 -443h-86l-295 395l-124 -131v-264z" />
    <glyph glyph-name="kcommaaccent" unicode="&#x137;" horiz-adv-x="549" 
d="M261 -76h73l-55 -135h-45zM167 0h-70v788h70v-531l239 267h83l-180 -197l210 -327h-82l-175 275l-95 -105v-170z" />
    <glyph glyph-name="kgreenlandic" unicode="&#x138;" horiz-adv-x="546" 
d="M167 0h-70v524h70v-267l239 267h83l-180 -197l210 -327h-83l-175 273l-94 -103v-170z" />
    <glyph glyph-name="Lacute" unicode="&#x139;" horiz-adv-x="616" 
d="M191 960h81l-91 -133h-57zM113 765h71v-702h395v-63h-466v765z" />
    <glyph glyph-name="lacute" unicode="&#x13a;" horiz-adv-x="264" 
d="M170 962h81l-91 -133h-57zM97 788h70v-788h-70v788z" />
    <glyph glyph-name="Lcommaaccent" unicode="&#x13b;" horiz-adv-x="616" 
d="M312 -76h73l-55 -135h-45zM113 765h71v-702h395v-63h-466v765z" />
    <glyph glyph-name="lcommaaccent" unicode="&#x13c;" horiz-adv-x="264" 
d="M94 -76h73l-55 -135h-45zM97 788h70v-788h-70v788z" />
    <glyph glyph-name="Lcaron" unicode="&#x13d;" horiz-adv-x="616" 
d="M322 788h75l-54 -195h-53zM112 765h71v-702h395v-63h-466v765z" />
    <glyph glyph-name="lcaron" unicode="&#x13e;" horiz-adv-x="264" 
d="M238 788h69l-37 -164h-47zM97 788h70v-788h-70v788z" />
    <glyph glyph-name="Ldot" unicode="&#x13f;" horiz-adv-x="616" 
d="M113 765h71v-702h395v-63h-466v765zM413.242 431.508h89.4219v-89.4219h-89.4219v89.4219z" />
    <glyph glyph-name="ldot" unicode="&#x140;" horiz-adv-x="344" 
d="M97 788h70v-788h-70v788zM265.84 433.236h75.4658v-75.4658h-75.4658v75.4658z" />
    <glyph glyph-name="Lslash" unicode="&#x141;" horiz-adv-x="616" 
d="M113 289l-82 -33v63l82 33v413h71v-384l254 103v-63l-254 -103v-255h395v-63h-466v289z" />
    <glyph glyph-name="lslash" unicode="&#x142;" horiz-adv-x="281" 
d="M106 0v333l-85 -65v67l85 65v388h70v-334l88 67v-68l-88 -67v-386h-70z" />
    <glyph glyph-name="Nacute" unicode="&#x143;" horiz-adv-x="801" 
d="M439 960h81l-91 -133h-57zM113 765h88l383 -607q8 -14 14.5 -25.5t11.5 -19.5q5 -10 8 -17h2v669h69v-765h-89l-380 605q-9 14 -15.5 26t-11.5 20q-5 10 -9 17h-2v-668h-69v765z" />
    <glyph glyph-name="nacute" unicode="&#x144;" horiz-adv-x="596" 
d="M349 788h78l-86 -158h-54zM433 331q0 33 -4.5 61.5t-18.5 48.5q-27 37 -88 37q-40 0 -69.5 -14t-48.5 -37t-28 -53.5t-9 -64.5v-309h-70v524h65v-93h2q21 45 64.5 75.5t109.5 30.5q85 0 124.5 -45t39.5 -136v-356h-69v331z" />
    <glyph glyph-name="Ncommaaccent" unicode="&#x145;" horiz-adv-x="801" 
d="M366 -76h73l-55 -135h-45zM113 765h88l383 -607q8 -14 14.5 -25.5t11.5 -19.5q5 -10 8 -17h2v669h69v-765h-89l-380 605q-9 14 -15.5 26t-11.5 20q-5 10 -9 17h-2v-668h-69v765z" />
    <glyph glyph-name="ncommaaccent" unicode="&#x146;" horiz-adv-x="596" 
d="M266 -76h73l-55 -135h-45zM433 331q0 33 -4.5 61.5t-18.5 48.5q-27 37 -88 37q-40 0 -69.5 -14t-48.5 -37t-28 -53.5t-9 -64.5v-309h-70v524h65v-93h2q21 45 64.5 75.5t109.5 30.5q85 0 124.5 -45t39.5 -136v-356h-69v331z" />
    <glyph glyph-name="Ncaron" unicode="&#x147;" horiz-adv-x="801" 
d="M247 960h67l83 -88h1l83 88h60l-110 -133h-71zM113 765h88l383 -607q8 -14 14.5 -25.5t11.5 -19.5q5 -10 8 -17h2v669h69v-765h-89l-380 605q-9 14 -15.5 26t-11.5 20q-5 10 -9 17h-2v-668h-69v765z" />
    <glyph glyph-name="ncaron" unicode="&#x148;" horiz-adv-x="596" 
d="M149 788h66l85 -110h1l85 110h59l-111 -158h-71zM433 331q0 33 -4.5 61.5t-18.5 48.5q-27 37 -88 37q-40 0 -69.5 -14t-48.5 -37t-28 -53.5t-9 -64.5v-309h-70v524h65v-93h2q21 45 64.5 75.5t109.5 30.5q85 0 124.5 -45t39.5 -136v-356h-69v331z" />
    <glyph glyph-name="napostrophe" unicode="&#x149;" horiz-adv-x="596" 
d="M75 788h73l-55 -135h-45zM433 331q0 33 -4.5 61.5t-18.5 48.5q-27 37 -88 37q-40 0 -69.5 -14t-48.5 -37t-28 -53.5t-9 -64.5v-309h-70v524h65v-93h2q21 45 64.5 75.5t109.5 30.5q85 0 124.5 -45t39.5 -136v-356h-69v331z" />
    <glyph glyph-name="Eng" unicode="&#x14a;" horiz-adv-x="801" 
d="M689 17q0 -46 -11.5 -83.5t-39.5 -64.5t-74 -42t-116 -15h-19v61h11q51 0 84.5 7.5t54 22t29.5 36t11 50.5l-398 616q-9 14 -16 26t-12 20q-5 10 -9 17h-2v-668h-69v765h86l383 -590q8 -14 15 -25.5t12 -19.5l9 -18h2v653h69v-748z" />
    <glyph glyph-name="eng" unicode="&#x14b;" horiz-adv-x="596" 
d="M364 -197q-25 0 -50 6v58q9 -2 20 -3.5t26 -1.5q38 0 55.5 20t17.5 68v381q0 33 -4.5 61.5t-18.5 48.5q-27 37 -88 37q-40 0 -69.5 -14t-48.5 -37t-28 -53.5t-9 -64.5v-309h-70v524h65v-93h2q21 45 64.5 75.5t109.5 30.5q85 0 124.5 -45t39.5 -136v-416q0 -70 -38 -103.5
t-100 -33.5z" />
    <glyph glyph-name="Omacron" unicode="&#x14c;" horiz-adv-x="816" 
d="M269 916h277v-57h-277v57zM69 379q0 104 28 179t74.5 123.5t107.5 71.5t128 23t129 -23t108.5 -71.5t74.5 -123.5t28 -179t-27.5 -178.5t-74.5 -122.5t-108.5 -71t-129.5 -23t-129 23t-107.5 71t-74 122.5t-27.5 178.5zM407 41q57 0 106 21.5t84.5 64t55.5 106t20 146.5
q0 84 -20 147.5t-55.5 106.5t-84 64.5t-106.5 21.5q-57 0 -105.5 -21t-83.5 -63.5t-55 -106.5t-20 -149q0 -84 19.5 -147t54.5 -105.5t83.5 -64t106.5 -21.5z" />
    <glyph glyph-name="omacron" unicode="&#x14d;" horiz-adv-x="565" 
d="M144 711h277v-57h-277v57zM283 -13q-59 0 -102 20.5t-71.5 57t-42.5 87t-14 110.5q0 59 15.5 109.5t45 87t72.5 57.5t97 21q59 0 102.5 -21t71.5 -57.5t41.5 -87t13.5 -109.5q0 -60 -15.5 -110.5t-44.5 -87t-71.5 -57t-97.5 -20.5zM283 483q-78 0 -118.5 -59.5
t-40.5 -161.5q0 -101 38.5 -160.5t121.5 -59.5q80 0 118 59t38 161q0 101 -37.5 161t-119.5 60z" />
    <glyph glyph-name="Obreve" unicode="&#x14e;" horiz-adv-x="816" 
d="M321 969q5 -42 29 -62t60 -20q35 0 59.5 19.5t29.5 62.5h51q-2 -35 -14 -60.5t-31 -41.5t-44.5 -23.5t-53.5 -7.5q-29 0 -53.5 7.5t-43.5 23.5t-30.5 41.5t-14.5 60.5h56zM69 379q0 104 28 179t74.5 123.5t107.5 71.5t128 23t129 -23t108.5 -71.5t74.5 -123.5t28 -179
t-27.5 -178.5t-74.5 -122.5t-108.5 -71t-129.5 -23t-129 23t-107.5 71t-74 122.5t-27.5 178.5zM407 41q57 0 106 21.5t84.5 64t55.5 106t20 146.5q0 84 -20 147.5t-55.5 106.5t-84 64.5t-106.5 21.5q-57 0 -105.5 -21t-83.5 -63.5t-55 -106.5t-20 -149q0 -84 19.5 -147
t54.5 -105.5t83.5 -64t106.5 -21.5z" />
    <glyph glyph-name="obreve" unicode="&#x14f;" horiz-adv-x="565" 
d="M283 -13q-59 0 -102 20.5t-71.5 57t-42.5 87t-14 110.5q0 59 15.5 109.5t45 87t72.5 57.5t97 21q59 0 102.5 -21t71.5 -57.5t41.5 -87t13.5 -109.5q0 -60 -15.5 -110.5t-44.5 -87t-71.5 -57t-97.5 -20.5zM283 483q-78 0 -118.5 -59.5t-40.5 -161.5q0 -101 38.5 -160.5
t121.5 -59.5q80 0 118 59t38 161q0 101 -37.5 161t-119.5 60zM282 625q-30 0 -56 8.5t-45 27t-30 47t-11 69.5h55q0 -53 25.5 -77t64.5 -24t64.5 24t25.5 77h51q0 -41 -11 -69.5t-30.5 -47t-46 -27t-56.5 -8.5z" />
    <glyph glyph-name="Ohungarumlaut" unicode="&#x150;" horiz-adv-x="816" 
d="M484 973h74l-66 -133h-47zM356 973h73l-70 -133h-46zM69 379q0 104 28 179t74.5 123.5t107.5 71.5t128 23t129 -23t108.5 -71.5t74.5 -123.5t28 -179t-27.5 -178.5t-74.5 -122.5t-108.5 -71t-129.5 -23t-129 23t-107.5 71t-74 122.5t-27.5 178.5zM407 41q57 0 106 21.5
t84.5 64t55.5 106t20 146.5q0 84 -20 147.5t-55.5 106.5t-84 64.5t-106.5 21.5q-57 0 -105.5 -21t-83.5 -63.5t-55 -106.5t-20 -149q0 -84 19.5 -147t54.5 -105.5t83.5 -64t106.5 -21.5z" />
    <glyph glyph-name="ohungarumlaut" unicode="&#x151;" horiz-adv-x="565" 
d="M382 788h72l-85 -158h-49zM249 788h72l-86 -158h-48zM283 -13q-59 0 -102 20.5t-71.5 57t-42.5 87t-14 110.5q0 59 15.5 109.5t45 87t72.5 57.5t97 21q59 0 102.5 -21t71.5 -57.5t41.5 -87t13.5 -109.5q0 -60 -15.5 -110.5t-44.5 -87t-71.5 -57t-97.5 -20.5zM283 483
q-78 0 -118.5 -59.5t-40.5 -161.5q0 -101 38.5 -160.5t121.5 -59.5q80 0 118 59t38 161q0 101 -37.5 161t-119.5 60z" />
    <glyph glyph-name="OE" unicode="&#x152;" horiz-adv-x="1221" 
d="M660 438q0 63 -17.5 115t-50 89t-79.5 57t-107 20q-57 0 -105 -21t-83.5 -63.5t-55 -106.5t-19.5 -149q0 -83 19.5 -146t54.5 -105.5t83.5 -64.5t105.5 -22q61 0 108.5 20.5t79.5 59t49 93t17 123.5v101zM658 124q-43 -72 -103.5 -106t-147.5 -34q-68 0 -129 23
t-107.5 71t-74 123t-27.5 179t28 179t74.5 123t107.5 71t128 23q94 0 156.5 -38t94.5 -101h2v128h483v-63h-412v-281h375v-62h-375v-296h416v-63h-487v124h-2z" />
    <glyph glyph-name="oe" unicode="&#x153;" horiz-adv-x="931" 
d="M810 304q0 31 -6.5 63t-22.5 57.5t-43 42t-69 16.5q-37 0 -65 -13.5t-48 -38t-31.5 -58.5t-14.5 -74h300v5zM283 483q-78 0 -118.5 -59.5t-40.5 -161.5q0 -101 38.5 -160.5t121.5 -59.5q80 0 118 59t38 161q0 101 -37.5 161t-119.5 60zM871 131q-14 -63 -66 -103.5
t-133 -40.5t-129 35t-70 98q-23 -62 -69.5 -97.5t-120.5 -35.5q-59 0 -102 20.5t-71.5 57t-42.5 87t-14 110.5q0 59 15.5 109.5t45 87t72.5 57.5t97 21q80 0 126.5 -36.5t67.5 -99.5q23 63 70 99.5t122 36.5q58 0 98 -21.5t65 -56.5t36 -79.5t11 -90.5v-43h-370
q3 -95 42 -149.5t123 -54.5q34 0 57.5 10t38.5 24t23.5 29t11.5 26h66z" />
    <glyph glyph-name="Racute" unicode="&#x154;" horiz-adv-x="708" 
d="M377 960h81l-91 -133h-57zM385 385q37 0 69 9.5t56 29.5t38 51.5t14 75.5q0 76 -47.5 115t-127.5 39h-203v-320h201zM394 326h-210v-326h-71v765h274q42 0 80 -8.5t70 -25.5q45 -25 71.5 -69t26.5 -110q0 -48 -14 -84.5t-37.5 -63t-53.5 -42.5t-62 -24v-2l174 -336h-82z
" />
    <glyph glyph-name="racute" unicode="&#x155;" horiz-adv-x="378" 
d="M253 788h78l-86 -158h-54zM97 524h65v-109h2q8 23 24 44.5t37.5 38t47.5 26.5t56 10h9v-69h-14q-31 0 -59.5 -10.5t-50 -32t-34.5 -55.5t-13 -80v-287h-70v524z" />
    <glyph glyph-name="Rcommaaccent" unicode="&#x156;" horiz-adv-x="705" 
d="M324 -76h73l-55 -135h-45zM385 385q37 0 69 9.5t56 29.5t38 51.5t14 75.5q0 76 -47.5 115t-127.5 39h-203v-320h201zM394 326h-210v-326h-71v765h274q42 0 80 -8.5t70 -25.5q45 -25 71.5 -69t26.5 -110q0 -48 -14 -84.5t-37.5 -63t-53.5 -42.5t-62 -24v-2l174 -336h-82z
" />
    <glyph glyph-name="rcommaaccent" unicode="&#x157;" horiz-adv-x="378" 
d="M95 -76h73l-55 -135h-45zM97 524h65v-109h2q8 23 24 44.5t37.5 38t47.5 26.5t56 10h9v-69h-14q-31 0 -59.5 -10.5t-50 -32t-34.5 -55.5t-13 -80v-287h-70v524z" />
    <glyph glyph-name="Rcaron" unicode="&#x158;" horiz-adv-x="708" 
d="M185 960h67l83 -88h1l83 88h60l-110 -133h-71zM385 385q37 0 69 9.5t56 29.5t38 51.5t14 75.5q0 76 -47.5 115t-127.5 39h-203v-320h201zM394 326h-210v-326h-71v765h274q42 0 80 -8.5t70 -25.5q45 -25 71.5 -69t26.5 -110q0 -48 -14 -84.5t-37.5 -63t-53.5 -42.5
t-62 -24v-2l174 -336h-82z" />
    <glyph glyph-name="rcaron" unicode="&#x159;" horiz-adv-x="378" 
d="M63 788h66l85 -110h1l85 110h59l-111 -158h-71zM97 524h65v-109h2q8 23 24 44.5t37.5 38t47.5 26.5t56 10h9v-69h-14q-31 0 -59.5 -10.5t-50 -32t-34.5 -55.5t-13 -80v-287h-70v524z" />
    <glyph glyph-name="Sacute" unicode="&#x15a;" horiz-adv-x="712" 
d="M547 561q-3 32 -13.5 60.5t-31.5 50.5t-54 34.5t-81 12.5q-84 0 -134 -39t-50 -108q0 -62 31.5 -93t106.5 -45l128 -23q191 -35 191 -198q0 -51 -18 -93t-53.5 -72t-87 -47t-118.5 -17q-66 0 -117.5 19t-87.5 50.5t-56.5 73t-23.5 86.5h72q4 -32 18 -62.5t39.5 -54.5
t64 -39t92.5 -15q55 0 94 13.5t63.5 36t35.5 52.5t11 63q0 55 -30 88.5t-104 47.5l-123 22q-56 10 -94.5 28t-62 43.5t-34 58.5t-10.5 73q0 47 19 85.5t53 65.5t81.5 42t103.5 15q118 0 182 -58t68 -157h-70zM398 960h81l-91 -133h-57z" />
    <glyph glyph-name="sacute" unicode="&#x15b;" horiz-adv-x="506" 
d="M291 788h78l-86 -158h-54zM376 398q-6 38 -37 61.5t-85 23.5t-85.5 -27t-31.5 -67q0 -38 21 -57.5t61 -24.5l94 -13q75 -11 108 -48t33 -97q0 -37 -14.5 -67t-41 -51t-63 -32.5t-81.5 -11.5q-40 0 -75 8.5t-62.5 27.5t-45.5 49.5t-23 74.5h68q8 -47 40 -76t99 -29
q61 0 96 28t35 73q0 18 -3.5 32t-13.5 25.5t-28 19t-46 11.5l-86 12q-66 9 -102 42t-36 98q0 34 13.5 62.5t38 49t58.5 31.5t75 11q82 0 131 -36.5t56 -102.5h-67z" />
    <glyph glyph-name="Scircumflex" unicode="&#x15c;" horiz-adv-x="712" 
d="M510 827h-67l-83 88h-1l-83 -88h-60l110 133h71zM547 561q-3 32 -13.5 60.5t-31.5 50.5t-54 34.5t-81 12.5q-84 0 -134 -39t-50 -108q0 -62 31.5 -93t106.5 -45l128 -23q191 -35 191 -198q0 -51 -18 -93t-53.5 -72t-87 -47t-118.5 -17q-66 0 -117.5 19t-87.5 50.5
t-56.5 73t-23.5 86.5h72q4 -32 18 -62.5t39.5 -54.5t64 -39t92.5 -15q55 0 94 13.5t63.5 36t35.5 52.5t11 63q0 55 -30 88.5t-104 47.5l-123 22q-56 10 -94.5 28t-62 43.5t-34 58.5t-10.5 73q0 47 19 85.5t53 65.5t81.5 42t103.5 15q118 0 182 -58t68 -157h-70z" />
    <glyph glyph-name="scircumflex" unicode="&#x15d;" horiz-adv-x="506" 
d="M408 630h-66l-85 111h-1l-85 -111h-59l111 158h71zM376 398q-6 38 -37 61.5t-85 23.5t-85.5 -27t-31.5 -67q0 -38 21 -57.5t61 -24.5l94 -13q75 -11 108 -48t33 -97q0 -37 -14.5 -67t-41 -51t-63 -32.5t-81.5 -11.5q-40 0 -75 8.5t-62.5 27.5t-45.5 49.5t-23 74.5h68
q8 -47 40 -76t99 -29q61 0 96 28t35 73q0 18 -3.5 32t-13.5 25.5t-28 19t-46 11.5l-86 12q-66 9 -102 42t-36 98q0 34 13.5 62.5t38 49t58.5 31.5t75 11q82 0 131 -36.5t56 -102.5h-67z" />
    <glyph glyph-name="Scedilla" unicode="&#x15e;" horiz-adv-x="712" 
d="M354 -209q-41 0 -59 18.5t-20 43.5h51q2 -10 9.5 -16.5t21.5 -6.5q33 0 33 39q0 17 -8 27.5t-25 10.5t-27 -12h-48l42 91q-57 6 -101.5 26.5t-75.5 51t-48.5 69t-20.5 80.5h72q4 -32 18 -62.5t39.5 -54.5t64 -39t92.5 -15q55 0 94 13.5t63.5 36t35.5 52.5t11 63
q0 55 -30 88.5t-104 47.5l-123 22q-56 10 -94.5 28t-62 43.5t-34 58.5t-10.5 73q0 47 19 85.5t53 65.5t81.5 42t103.5 15q118 0 182 -58t68 -157h-70q-3 32 -13.5 60.5t-31.5 50.5t-54 34.5t-81 12.5q-84 0 -134 -39t-50 -108q0 -62 31.5 -93t106.5 -45l128 -23
q191 -35 191 -198q0 -51 -18 -93t-53 -72t-86.5 -47t-118.5 -17l-26 -54h2q6 5 14.5 8.5t20.5 3.5q32 0 49.5 -19.5t17.5 -54.5q0 -29 -21 -53t-67 -24z" />
    <glyph glyph-name="scedilla" unicode="&#x15f;" horiz-adv-x="506" 
d="M251 -209q-41 0 -59 18.5t-20 43.5h51q2 -10 9.5 -16.5t21.5 -6.5q33 0 33 39q0 17 -8 27.5t-25 10.5t-27 -12h-48l43 93q-34 3 -63.5 13.5t-52.5 30t-38 48t-20 67.5h68q8 -47 40 -76t99 -29q61 0 96 28t35 73q0 18 -3.5 32t-13.5 25.5t-28 19t-46 11.5l-86 12
q-66 9 -102 42t-36 98q0 34 13.5 62.5t38 49t58.5 31.5t75 11q82 0 131 -36.5t56 -102.5h-67q-6 38 -37 61.5t-85 23.5t-85.5 -27t-31.5 -67q0 -38 21 -57.5t61 -24.5l94 -13q75 -11 108 -48t33 -97q0 -36 -14 -65.5t-39 -50.5t-60.5 -33t-78.5 -13l-27 -57h2q6 5 14.5 8.5
t20.5 3.5q32 0 49.5 -19.5t17.5 -54.5q0 -29 -21 -53t-67 -24z" />
    <glyph glyph-name="Scaron" unicode="&#x160;" horiz-adv-x="712" 
d="M208 960h67l83 -88h1l83 88h60l-110 -133h-71zM547 561q-3 32 -13.5 60.5t-31.5 50.5t-54 34.5t-81 12.5q-84 0 -134 -39t-50 -108q0 -62 31.5 -93t106.5 -45l128 -23q191 -35 191 -198q0 -51 -18 -93t-53.5 -72t-87 -47t-118.5 -17q-66 0 -117.5 19t-87.5 50.5t-56.5 73
t-23.5 86.5h72q4 -32 18 -62.5t39.5 -54.5t64 -39t92.5 -15q55 0 94 13.5t63.5 36t35.5 52.5t11 63q0 55 -30 88.5t-104 47.5l-123 22q-56 10 -94.5 28t-62 43.5t-34 58.5t-10.5 73q0 47 19 85.5t53 65.5t81.5 42t103.5 15q118 0 182 -58t68 -157h-70z" />
    <glyph glyph-name="scaron" unicode="&#x161;" horiz-adv-x="506" 
d="M102 788h66l85 -110h1l85 110h59l-111 -158h-71zM376 398q-6 38 -37 61.5t-85 23.5t-85.5 -27t-31.5 -67q0 -38 21 -57.5t61 -24.5l94 -13q75 -11 108 -48t33 -97q0 -37 -14.5 -67t-41 -51t-63 -32.5t-81.5 -11.5q-40 0 -75 8.5t-62.5 27.5t-45.5 49.5t-23 74.5h68
q8 -47 40 -76t99 -29q61 0 96 28t35 73q0 18 -3.5 32t-13.5 25.5t-28 19t-46 11.5l-86 12q-66 9 -102 42t-36 98q0 34 13.5 62.5t38 49t58.5 31.5t75 11q82 0 131 -36.5t56 -102.5h-67z" />
    <glyph glyph-name="Tcommaaccent" unicode="&#x162;" horiz-adv-x="651" 
d="M288 -76h73l-55 -135h-45zM636 703h-275v-703h-71v703h-274v62h620v-62z" />
    <glyph glyph-name="tcommaaccent" unicode="&#x163;" horiz-adv-x="362" 
d="M192 -76h73l-55 -135h-45zM192 681v-157h134v-54h-134v-339q0 -42 19.5 -61t64.5 -19q24 0 41 3q10 1 19 3v-58q-10 -2 -21 -4q-10 -2 -24.5 -3t-31.5 -1q-38 0 -64 9.5t-42 27t-23 42t-7 53.5v347h-100v52h23q25 0 41 4t25 15.5t12 33.5t3 58v48h65z" />
    <glyph glyph-name="Tcaron" unicode="&#x164;" horiz-adv-x="651" 
d="M172 960h67l83 -88h1l83 88h60l-110 -133h-71zM636 703h-275v-703h-71v703h-274v62h620v-62z" />
    <glyph glyph-name="tcaron" unicode="&#x165;" horiz-adv-x="362" 
d="M280 788h69l-37 -164h-47zM192 681v-157h134v-54h-134v-339q0 -42 19.5 -61t64.5 -19q24 0 41 3q10 1 19 3v-58q-10 -2 -21 -4q-10 -2 -24.5 -3t-31.5 -1q-38 0 -64 9.5t-42 27t-23 42t-7 53.5v347h-100v52h23q25 0 41 4t25 15.5t12 33.5t3 58v48h65z" />
    <glyph glyph-name="Tbar" unicode="&#x166;" horiz-adv-x="651" 
d="M360 0h-71v441h-206v53h206v209h-274v62h620v-62h-275v-209h208v-53h-208v-441z" />
    <glyph glyph-name="tbar" unicode="&#x167;" horiz-adv-x="362" 
d="M336 -1q-10 -2 -21 -4q-10 -2 -24.5 -3t-31.5 -1q-38 0 -64 9.5t-42 27t-23 42t-7 53.5v137h-100v55h100v155h-100v52h23q25 0 41 4t25 15.5t12 33.5t3 58v48h65v-157h134v-54h-134v-155h134v-55h-134v-129q0 -42 19.5 -61t64.5 -19q24 0 41 3q10 1 19 3v-58z" />
    <glyph glyph-name="Utilde" unicode="&#x168;" horiz-adv-x="765" 
d="M99 765h72v-436q0 -29 0.5 -59t4.5 -58.5t12.5 -54.5t23.5 -45q29 -36 72.5 -52.5t100.5 -16.5t99.5 16.5t71.5 52.5q15 19 23.5 45t12 54.5t4 58.5t0.5 59v436h70v-510q0 -72 -20.5 -123t-57.5 -84t-89.5 -48t-115.5 -15q-64 0 -116.5 15t-89.5 47.5t-57.5 84
t-20.5 123.5v510zM212 828q0 23 5.5 45t17.5 39.5t30.5 28t44.5 10.5q25 0 45.5 -10.5t38 -23t33 -23t30.5 -10.5q23 0 34.5 19t14.5 51h48q0 -23 -6 -45.5t-18 -40t-30.5 -28t-44.5 -10.5q-25 0 -45 10.5t-37.5 23t-33 23t-31.5 10.5q-23 0 -34 -18.5t-15 -50.5h-47z" />
    <glyph glyph-name="utilde" unicode="&#x169;" horiz-adv-x="595" 
d="M164 189q0 -32 4.5 -60t18.5 -47q28 -37 91 -37q76 0 113.5 53.5t37.5 142.5v283h69v-524h-65v97h-2q-9 -22 -24.5 -42t-36.5 -35t-47.5 -24t-59.5 -9q-168 0 -168 179v358h69v-335zM126 628q0 24 5.5 46t17.5 39.5t30.5 28t44.5 10.5q25 0 45.5 -10.5t38 -23.5t33 -23.5
t30.5 -10.5q23 0 34.5 19t14.5 51h48q0 -23 -6 -45.5t-18 -40t-30.5 -28t-44.5 -10.5q-25 0 -45 10.5t-37.5 23t-33 23t-31.5 10.5q-23 0 -34 -18.5t-15 -50.5h-47z" />
    <glyph glyph-name="Umacron" unicode="&#x16a;" horiz-adv-x="765" 
d="M99 765h72v-436q0 -29 0.5 -59t4.5 -58.5t12.5 -54.5t23.5 -45q29 -36 72.5 -52.5t100.5 -16.5t99.5 16.5t71.5 52.5q15 19 23.5 45t12 54.5t4 58.5t0.5 59v436h70v-510q0 -72 -20.5 -123t-57.5 -84t-89.5 -48t-115.5 -15q-64 0 -116.5 15t-89.5 47.5t-57.5 84
t-20.5 123.5v510zM244 916h277v-57h-277v57z" />
    <glyph glyph-name="umacron" unicode="&#x16b;" horiz-adv-x="595" 
d="M164 189q0 -32 4.5 -60t18.5 -47q28 -37 91 -37q76 0 113.5 53.5t37.5 142.5v283h69v-524h-65v97h-2q-9 -22 -24.5 -42t-36.5 -35t-47.5 -24t-59.5 -9q-168 0 -168 179v358h69v-335zM158 711h277v-57h-277v57z" />
    <glyph glyph-name="Ubreve" unicode="&#x16c;" horiz-adv-x="765" 
d="M99 765h72v-436q0 -29 0.5 -59t4.5 -58.5t12.5 -54.5t23.5 -45q29 -36 72.5 -52.5t100.5 -16.5t99.5 16.5t71.5 52.5q15 19 23.5 45t12 54.5t4 58.5t0.5 59v436h70v-510q0 -72 -20.5 -123t-57.5 -84t-89.5 -48t-115.5 -15q-64 0 -116.5 15t-89.5 47.5t-57.5 84
t-20.5 123.5v510zM296 969q5 -42 29 -62t60 -20q35 0 59.5 19.5t29.5 62.5h51q-2 -35 -14 -60.5t-31 -41.5t-44.5 -23.5t-53.5 -7.5q-29 0 -53.5 7.5t-43.5 23.5t-30.5 41.5t-14.5 60.5h56z" />
    <glyph glyph-name="ubreve" unicode="&#x16d;" horiz-adv-x="595" 
d="M164 189q0 -32 4.5 -60t18.5 -47q28 -37 91 -37q76 0 113.5 53.5t37.5 142.5v283h69v-524h-65v97h-2q-9 -22 -24.5 -42t-36.5 -35t-47.5 -24t-59.5 -9q-168 0 -168 179v358h69v-335zM296 625q-30 0 -56 8.5t-45 27t-30 47t-11 69.5h55q0 -53 25.5 -77t64.5 -24t64.5 24
t25.5 77h51q0 -41 -11 -69.5t-30.5 -47t-46 -27t-56.5 -8.5z" />
    <glyph glyph-name="Uring" unicode="&#x16e;" horiz-adv-x="765" 
d="M99 765h72v-436q0 -29 0.5 -59t4.5 -58.5t12.5 -54.5t23.5 -45q29 -36 72.5 -52.5t100.5 -16.5t99.5 16.5t71.5 52.5q15 19 23.5 45t12 54.5t4 58.5t0.5 59v436h70v-510q0 -72 -20.5 -123t-57.5 -84t-89.5 -48t-115.5 -15q-64 0 -116.5 15t-89.5 47.5t-57.5 84
t-20.5 123.5v510zM383 814q-48 0 -75 28t-27 73t28 73t74 28q49 0 76 -28t27 -73t-28 -73t-75 -28zM383 978q-25 0 -39.5 -18t-14.5 -45q0 -28 14 -45t40 -17t40.5 17t14.5 45q0 27 -14.5 45t-40.5 18z" />
    <glyph glyph-name="uring" unicode="&#x16f;" horiz-adv-x="595" 
d="M296 632q-48 0 -75 28t-27 73t28 73t74 28q49 0 76 -28t27 -73t-28 -73t-75 -28zM296 796q-25 0 -39.5 -18t-14.5 -45t14 -44.5t40 -17.5t40.5 17.5t14.5 44.5t-14.5 45t-40.5 18zM164 189q0 -32 4.5 -60t18.5 -47q28 -37 91 -37q76 0 113.5 53.5t37.5 142.5v283h69v-524
h-65v97h-2q-9 -22 -24.5 -42t-36.5 -35t-47.5 -24t-59.5 -9q-168 0 -168 179v358h69v-335z" />
    <glyph glyph-name="Uhungarumlaut" unicode="&#x170;" horiz-adv-x="765" 
d="M460 973h74l-66 -133h-47zM332 973h73l-70 -133h-46zM99 765h72v-436q0 -29 0.5 -59t4.5 -58.5t12.5 -54.5t23.5 -45q29 -36 72.5 -52.5t100.5 -16.5t99.5 16.5t71.5 52.5q15 19 23.5 45t12 54.5t4 58.5t0.5 59v436h70v-510q0 -72 -20.5 -123t-57.5 -84t-89.5 -48
t-115.5 -15q-64 0 -116.5 15t-89.5 47.5t-57.5 84t-20.5 123.5v510z" />
    <glyph glyph-name="uhungarumlaut" unicode="&#x171;" horiz-adv-x="595" 
d="M164 189q0 -32 4.5 -60t18.5 -47q28 -37 91 -37q76 0 113.5 53.5t37.5 142.5v283h69v-524h-65v97h-2q-9 -22 -24.5 -42t-36.5 -35t-47.5 -24t-59.5 -9q-168 0 -168 179v358h69v-335zM396 788h72l-85 -158h-49zM263 788h72l-86 -158h-48z" />
    <glyph glyph-name="Uogonek" unicode="&#x172;" horiz-adv-x="765" 
d="M99 765h72v-436q0 -29 0.5 -59t4 -59t12 -54.5t24.5 -44.5q29 -37 72.5 -53t100.5 -16t99.5 16.5t71.5 52.5q15 19 23.5 45t12 54.5t4 58.5t0.5 59v436h70v-510q0 -64 -15.5 -109t-41.5 -75.5t-59.5 -48t-69.5 -26.5q-44 -11 -70 -34t-26 -52q0 -27 19.5 -37t54.5 -11
v-50h-19q-51 0 -84.5 20.5t-33.5 68.5q0 29 15.5 49.5t35.5 34.5q-62 1 -112.5 17t-86 48.5t-55 83t-19.5 121.5v510z" />
    <glyph glyph-name="uogonek" unicode="&#x173;" horiz-adv-x="595" 
d="M479 -188q-26 0 -48 4.5t-38.5 15t-26 27.5t-9.5 42q0 19 7 35t18 28.5t24.5 22.5t26.5 16v94h-2q-9 -22 -24.5 -42t-36.5 -35t-47.5 -24t-59.5 -9q-168 0 -168 179v358h69v-335q0 -32 4.5 -60t18.5 -47q28 -37 91 -37q76 0 113.5 53.5t37.5 142.5v283h69v-519
q-35 -22 -56.5 -44.5t-21.5 -50.5q0 -29 21.5 -38t56.5 -10v-50h-19z" />
    <glyph glyph-name="Wcircumflex" unicode="&#x174;" horiz-adv-x="1047" 
d="M674 827h-67l-83 88h-1l-83 -88h-60l110 133h71zM255 0l-221 765h72l166 -584q6 -21 10 -38t6 -29q3 -14 5 -25h2q1 11 4 25q2 12 6.5 29t10.5 38l165 584h85l165 -583q5 -20 9.5 -37t7.5 -30q4 -15 6 -28h2q1 12 5 27q3 13 7 30t10 37l165 584h70l-220 -765h-79
l-162 566q-17 58 -23 89q-4 18 -6 31h-2q-3 -13 -7 -31q-4 -15 -9.5 -36.5t-13.5 -50.5l-161 -568h-75z" />
    <glyph glyph-name="wcircumflex" unicode="&#x175;" horiz-adv-x="817" 
d="M560 630h-66l-85 111h-1l-85 -111h-59l111 158h71zM31 524h71l117 -388q3 -11 5.5 -20.5t4.5 -17.5q3 -9 5 -17h2q2 7 5 17q2 8 5 18t7 21l121 387h73l121 -387q2 -9 5.5 -19t5.5 -18q3 -10 6 -19h2q1 9 4 19l4.5 18t5.5 19l117 387h68l-165 -524h-75l-109 349
q-5 16 -9.5 32t-8.5 30q-4 16 -9 30h-2q-5 -14 -9 -30q-4 -14 -8.5 -30t-9.5 -32l-109 -349h-76z" />
    <glyph glyph-name="Ycircumflex" unicode="&#x176;" horiz-adv-x="640" 
d="M285 335l-272 430h82l225 -365h2l229 365h77l-272 -426v-339h-71v335zM472 827h-67l-83 88h-1l-83 -88h-60l110 133h71z" />
    <glyph glyph-name="ycircumflex" unicode="&#x177;" horiz-adv-x="493" 
d="M34 524h70l121 -359q11 -33 17 -54q4 -12 7 -22h2q3 11 7 23q3 11 7.5 24.5l9.5 28.5l120 359h69l-195 -566q-15 -44 -30.5 -73.5t-35.5 -48.5t-46 -27t-62 -8q-19 0 -33.5 3t-25.5 6v58q13 -4 27.5 -6.5t28.5 -2.5q47 0 69 24t39 72l16 44zM403 630h-66l-85 111h-1
l-85 -111h-59l111 158h71z" />
    <glyph glyph-name="Ydieresis" unicode="&#x178;" horiz-adv-x="640" 
d="M285 335l-272 430h82l225 -365h2l229 365h77l-272 -426v-339h-71v335zM390 923h78v-84h-78v84zM174 923h78v-84h-78v84z" />
    <glyph glyph-name="Zacute" unicode="&#x179;" horiz-adv-x="653" 
d="M377 960h81l-91 -133h-57zM66 765h535v-55l-469 -649h469v-61h-556v55l469 649h-448v61z" />
    <glyph glyph-name="zacute" unicode="&#x17a;" horiz-adv-x="506" 
d="M298 788h78l-86 -158h-54zM63 524h390v-59l-327 -407h335v-58h-413v61l325 406h-310v57z" />
    <glyph glyph-name="Zdotaccent" unicode="&#x17b;" horiz-adv-x="653" 
d="M66 765h535v-55l-469 -649h469v-61h-556v55l469 649h-448v61zM300 918h76v-79h-76v79z" />
    <glyph glyph-name="zdotaccent" unicode="&#x17c;" horiz-adv-x="506" 
d="M63 524h390v-59l-327 -407h335v-58h-413v61l325 406h-310v57zM224 733h76v-79h-76v79z" />
    <glyph glyph-name="Zcaron" unicode="&#x17d;" horiz-adv-x="653" 
d="M185 960h67l83 -88h1l83 88h60l-110 -133h-71zM66 765h535v-55l-469 -649h469v-61h-556v55l469 649h-448v61z" />
    <glyph glyph-name="zcaron" unicode="&#x17e;" horiz-adv-x="506" 
d="M108 788h66l85 -110h1l85 110h59l-111 -158h-71zM63 524h390v-59l-327 -407h335v-58h-413v61l325 406h-310v57z" />
    <glyph glyph-name="florin" unicode="&#x192;" horiz-adv-x="403" 
d="M114 -189h-70l77 563h-104v54h111l27 199q11 81 56.5 118.5t111.5 37.5q15 0 25.5 -1t25.5 -4v-58q-9 2 -19 3.5t-29 1.5q-39 0 -67 -22t-36 -83l-26 -192h135v-54h-142z" />
    <glyph glyph-name="Aringacute" unicode="&#x1fa;" horiz-adv-x="723" 
d="M360 696q-2 -4 -11 -32.5t-21 -61.5l-108 -294h279l-107 295q-7 17 -12 33.5t-9 30.5q-4 15 -9 29h-2zM520 250h-321l-91 -250h-71l283 765h84l282 -765h-75zM405 1165h81l-91 -133h-57zM361 802q-48 0 -75 28t-27 73t28 73t74 28q49 0 76 -28t27 -73t-28 -73t-75 -28z
M361 966q-25 0 -39.5 -18t-14.5 -45q0 -28 14 -45t40 -17t40.5 17t14.5 45q0 27 -14.5 45t-40.5 18z" />
    <glyph glyph-name="aringacute" unicode="&#x1fb;" horiz-adv-x="552" 
d="M229 48q28 0 56.5 11t52 34.5t38 59t14.5 83.5v22q-98 -6 -151 -14t-78 -26q-36 -26 -36 -76q0 -47 28 -70.5t76 -23.5zM81 385q0 31 13.5 58.5t38 48.5t59.5 33t79 12q54 0 90 -14.5t57.5 -40t30 -61t8.5 -77.5v-228q0 -36 11.5 -50.5t39.5 -15.5v-55h-9q-57 0 -80 25
t-26 78h-2q-24 -51 -70 -78.5t-106 -27.5q-74 0 -117.5 38.5t-43.5 108.5q0 45 18.5 77t53.5 51q39 22 104 31t161 14v33q0 31 -6 56.5t-20 44t-37.5 28.5t-58.5 10q-60 0 -89.5 -29t-32.5 -70h-66zM279 589q-48 0 -75 28t-27 73t28 73t74 28q49 0 76 -28t27 -73t-28 -73
t-75 -28zM279 753q-25 0 -39.5 -18t-14.5 -45t14 -44.5t40 -17.5t40.5 17.5t14.5 44.5t-14.5 45t-40.5 18zM323 965h81l-91 -133h-57z" />
    <glyph glyph-name="AEacute" unicode="&#x1fc;" horiz-adv-x="1074" 
d="M579 960h81l-91 -133h-57zM512 702h-80l-180 -394h260v394zM110 -1l-74 1l352 765h608v-63h-412v-281h375v-62h-375v-296h416v-63h-488v250h-287z" />
    <glyph glyph-name="aeacute" unicode="&#x1fd;" horiz-adv-x="863" 
d="M491 788h78l-86 -158h-54zM744 311q0 33 -8 64.5t-24.5 55.5t-42.5 38.5t-64 14.5q-37 0 -64.5 -14.5t-46 -39.5t-29 -57t-13.5 -67h292v5zM227 48q29 0 58 11.5t52.5 35t38 60.5t14.5 88v11q-92 -1 -147.5 -7.5t-86.5 -29.5q-32 -24 -32 -73q0 -47 28 -71.5t75 -24.5z
M807 131q-8 -31 -25.5 -57t-43 -45.5t-58.5 -30.5t-72 -11q-80 0 -129 37.5t-65 91.5h-4q-27 -54 -73 -89t-122 -35q-75 0 -118.5 39.5t-43.5 109.5q0 89 74 128q20 11 44 18t55.5 11.5t71.5 6.5t93 2v38q0 30 -6 55t-20.5 44t-38 29.5t-58.5 10.5q-60 0 -89.5 -29
t-32.5 -70h-66q0 32 13 60t37.5 48.5t60 32t81.5 11.5q72 0 109.5 -26.5t53.5 -70.5h4q24 45 65.5 71t105.5 26q56 0 95 -21.5t63 -56t35 -79t11 -90.5v-40l-363 -1q2 -103 40 -155t121 -52q33 0 56 9.5t38 23t23 29t11 27.5h67z" />
    <glyph glyph-name="Oslashacute" unicode="&#x1fe;" horiz-adv-x="816" 
d="M407 719q-57 0 -105.5 -21t-83.5 -63.5t-55 -106.5t-20 -149q0 -72 13 -127t37 -96l384 504q-33 30 -76 44.5t-94 14.5zM407 41q57 0 106 21.5t84.5 64t55.5 106t20 146.5q0 78 -15 136.5t-43 100.5l-387 -507q34 -35 79.5 -51.5t99.5 -16.5zM747 379
q0 -104 -27.5 -178.5t-74.5 -122.5t-108.5 -71t-129.5 -23q-61 0 -116.5 18.5t-100.5 56.5l-64 -84h-71l96 125q-38 48 -60 117t-22 162q0 104 28 179t74.5 123.5t107.5 71.5t128 23q57 0 110 -16t98 -51l64 84h71l-94 -124q42 -48 66.5 -120t24.5 -170zM441 960h81
l-91 -133h-57z" />
    <glyph glyph-name="oslashacute" unicode="&#x1ff;" horiz-adv-x="565" 
d="M283 483q-78 0 -118.5 -59.5t-40.5 -161.5q0 -85 23 -137l243 317q-38 41 -107 41zM284 42q80 0 118 59t38 161q0 81 -21 134l-243 -314q40 -40 108 -40zM512 262q0 -60 -15.5 -110.5t-44.5 -87t-71.5 -57t-97.5 -20.5q-88 0 -144 47l-42 -55h-62l70 91q-26 36 -39 85
t-13 107q0 59 15.5 109.5t45 87t72.5 57.5t97 21q88 0 144 -47l40 52h64l-69 -90q26 -36 38 -84.5t12 -105.5zM317 788h78l-86 -158h-54z" />
    <glyph glyph-name="Scommaaccent" unicode="&#x218;" horiz-adv-x="712" 
d="M325 -76h73l-55 -135h-45zM547 561q-3 32 -13.5 60.5t-31.5 50.5t-54 34.5t-81 12.5q-84 0 -134 -39t-50 -108q0 -62 31.5 -93t106.5 -45l128 -23q191 -35 191 -198q0 -51 -18 -93t-53.5 -72t-87 -47t-118.5 -17q-66 0 -117.5 19t-87.5 50.5t-56.5 73t-23.5 86.5h72
q4 -32 18 -62.5t39.5 -54.5t64 -39t92.5 -15q55 0 94 13.5t63.5 36t35.5 52.5t11 63q0 55 -30 88.5t-104 47.5l-123 22q-56 10 -94.5 28t-62 43.5t-34 58.5t-10.5 73q0 47 19 85.5t53 65.5t81.5 42t103.5 15q118 0 182 -58t68 -157h-70z" />
    <glyph glyph-name="scommaaccent" unicode="&#x219;" horiz-adv-x="506" 
d="M222 -76h73l-55 -135h-45zM376 398q-6 38 -37 61.5t-85 23.5t-85.5 -27t-31.5 -67q0 -38 21 -57.5t61 -24.5l94 -13q75 -11 108 -48t33 -97q0 -37 -14.5 -67t-41 -51t-63 -32.5t-81.5 -11.5q-40 0 -75 8.5t-62.5 27.5t-45.5 49.5t-23 74.5h68q8 -47 40 -76t99 -29
q61 0 96 28t35 73q0 18 -3.5 32t-13.5 25.5t-28 19t-46 11.5l-86 12q-66 9 -102 42t-36 98q0 34 13.5 62.5t38 49t58.5 31.5t75 11q82 0 131 -36.5t56 -102.5h-67z" />
    <glyph glyph-name="uni021A" unicode="&#x21a;" horiz-adv-x="651" 
d="M288 -76h73l-55 -135h-45zM636 703h-275v-703h-71v703h-274v62h620v-62z" />
    <glyph glyph-name="uni021B" unicode="&#x21b;" horiz-adv-x="362" 
d="M192 -76h73l-55 -135h-45zM192 681v-157h134v-54h-134v-339q0 -42 19.5 -61t64.5 -19q24 0 41 3q10 1 19 3v-58q-10 -2 -21 -4q-10 -2 -24.5 -3t-31.5 -1q-38 0 -64 9.5t-42 27t-23 42t-7 53.5v347h-100v52h23q25 0 41 4t25 15.5t12 33.5t3 58v48h65z" />
    <glyph glyph-name="uni0237" unicode="&#x237;" horiz-adv-x="265" 
d="M-24 -132q19 -6 48 -6q39 0 56 20t17 68v574h70v-584q0 -70 -38 -103.5t-101 -33.5q-25 0 -52 6v59z" />
    <glyph glyph-name="circumflex" unicode="&#x2c6;" horiz-adv-x="369" 
d="M333 630h-66l-85 111h-1l-85 -111h-59l111 158h71z" />
    <glyph glyph-name="caron" unicode="&#x2c7;" horiz-adv-x="369" 
d="M37 788h66l85 -110h1l85 110h59l-111 -158h-71z" />
    <glyph glyph-name="breve" unicode="&#x2d8;" horiz-adv-x="369" 
d="M184 625q-30 0 -56 8.5t-45 27t-30 47t-11 69.5h55q0 -53 25.5 -77t64.5 -24t64.5 24t25.5 77h51q0 -41 -11 -69.5t-30.5 -47t-46 -27t-56.5 -8.5z" />
    <glyph glyph-name="dotaccent" unicode="&#x2d9;" horiz-adv-x="369" 
d="M146 733h76v-79h-76v79z" />
    <glyph glyph-name="ring" unicode="&#x2da;" horiz-adv-x="369" 
d="M188 632q-48 0 -75 28t-27 73t28 73t74 28q49 0 76 -28t27 -73t-28 -73t-75 -28zM188 796q-25 0 -39.5 -18t-14.5 -45t14 -44.5t40 -17.5t40.5 17.5t14.5 44.5t-14.5 45t-40.5 18z" />
    <glyph glyph-name="ogonek" unicode="&#x2db;" horiz-adv-x="369" 
d="M267 0q-28 -18 -51 -40t-23 -50q0 -27 19.5 -37t54.5 -11v-50h-19q-51 0 -84 20.5t-33 68.5q0 19 7.5 35t19 29t25.5 22t26 15z" />
    <glyph glyph-name="tilde" unicode="&#x2dc;" horiz-adv-x="369" 
d="M13 628q0 24 5.5 46t17.5 39.5t30.5 28t44.5 10.5q25 0 45.5 -10.5t38 -23.5t33 -23.5t30.5 -10.5q23 0 34.5 19t14.5 51h48q0 -23 -6 -45.5t-18 -40t-30.5 -28t-44.5 -10.5q-25 0 -45 10.5t-37.5 23t-33 23t-31.5 10.5q-23 0 -34 -18.5t-15 -50.5h-47z" />
    <glyph glyph-name="hungarumlaut" unicode="&#x2dd;" horiz-adv-x="356" 
d="M243 788h72l-85 -158h-49zM110 788h72l-86 -158h-48z" />
    <glyph glyph-name="Wgrave" unicode="&#x1e80;" horiz-adv-x="1047" 
d="M552 827h-57l-91 133h80zM255 0l-221 765h72l166 -584q6 -21 10 -38t6 -29q3 -14 5 -25h2q1 11 4 25q2 12 6.5 29t10.5 38l165 584h85l165 -583q5 -20 9.5 -37t7.5 -30q4 -15 6 -28h2q1 12 5 27q3 13 7 30t10 37l165 584h70l-220 -765h-79l-162 566q-17 58 -23 89
q-4 18 -6 31h-2q-3 -13 -7 -31q-4 -15 -9.5 -36.5t-13.5 -50.5l-161 -568h-75z" />
    <glyph glyph-name="wgrave" unicode="&#x1e81;" horiz-adv-x="817" 
d="M31 524h71l117 -388q3 -11 5.5 -20.5t4.5 -17.5q3 -9 5 -17h2q2 7 5 17q2 8 5 18t7 21l121 387h73l121 -387q2 -9 5.5 -19t5.5 -18q3 -10 6 -19h2q1 9 4 19l4.5 18t5.5 19l117 387h68l-165 -524h-75l-109 349q-5 16 -9.5 32t-8.5 30q-4 16 -9 30h-2q-5 -14 -9 -30
q-4 -14 -8.5 -30t-9.5 -32l-109 -349h-76zM436 630h-54l-87 158h77z" />
    <glyph glyph-name="Wacute" unicode="&#x1e82;" horiz-adv-x="1047" 
d="M562 960h81l-91 -133h-57zM255 0l-221 765h72l166 -584q6 -21 10 -38t6 -29q3 -14 5 -25h2q1 11 4 25q2 12 6.5 29t10.5 38l165 584h85l165 -583q5 -20 9.5 -37t7.5 -30q4 -15 6 -28h2q1 12 5 27q3 13 7 30t10 37l165 584h70l-220 -765h-79l-162 566q-17 58 -23 89
q-4 18 -6 31h-2q-3 -13 -7 -31q-4 -15 -9.5 -36.5t-13.5 -50.5l-161 -568h-75z" />
    <glyph glyph-name="wacute" unicode="&#x1e83;" horiz-adv-x="817" 
d="M444 788h78l-86 -158h-54zM31 524h71l117 -388q3 -11 5.5 -20.5t4.5 -17.5q3 -9 5 -17h2q2 7 5 17q2 8 5 18t7 21l121 387h73l121 -387q2 -9 5.5 -19t5.5 -18q3 -10 6 -19h2q1 9 4 19l4.5 18t5.5 19l117 387h68l-165 -524h-75l-109 349q-5 16 -9.5 32t-8.5 30
q-4 16 -9 30h-2q-5 -14 -9 -30q-4 -14 -8.5 -30t-9.5 -32l-109 -349h-76z" />
    <glyph glyph-name="Wdieresis" unicode="&#x1e84;" horiz-adv-x="1047" 
d="M592 923h78v-84h-78v84zM376 923h78v-84h-78v84zM255 0l-221 765h72l166 -584q6 -21 10 -38t6 -29q3 -14 5 -25h2q1 11 4 25q2 12 6.5 29t10.5 38l165 584h85l165 -583q5 -20 9.5 -37t7.5 -30q4 -15 6 -28h2q1 12 5 27q3 13 7 30t10 37l165 584h70l-220 -765h-79
l-162 566q-17 58 -23 89q-4 18 -6 31h-2q-3 -13 -7 -31q-4 -15 -9.5 -36.5t-13.5 -50.5l-161 -568h-75z" />
    <glyph glyph-name="wdieresis" unicode="&#x1e85;" horiz-adv-x="817" 
d="M464 734h80v-84h-80v84zM272 734h79v-84h-79v84zM31 524h71l117 -388q3 -11 5.5 -20.5t4.5 -17.5q3 -9 5 -17h2q2 7 5 17q2 8 5 18t7 21l121 387h73l121 -387q2 -9 5.5 -19t5.5 -18q3 -10 6 -19h2q1 9 4 19l4.5 18t5.5 19l117 387h68l-165 -524h-75l-109 349
q-5 16 -9.5 32t-8.5 30q-4 16 -9 30h-2q-5 -14 -9 -30q-4 -14 -8.5 -30t-9.5 -32l-109 -349h-76z" />
    <glyph glyph-name="Ygrave" unicode="&#x1ef2;" horiz-adv-x="640" 
d="M285 335l-272 430h82l225 -365h2l229 365h77l-272 -426v-339h-71v335zM349 827h-57l-91 133h80z" />
    <glyph glyph-name="ygrave" unicode="&#x1ef3;" horiz-adv-x="493" 
d="M34 524h70l121 -359q11 -33 17 -54q4 -12 7 -22h2q3 11 7 23q3 11 7.5 24.5l9.5 28.5l120 359h69l-195 -566q-15 -44 -30.5 -73.5t-35.5 -48.5t-46 -27t-62 -8q-19 0 -33.5 3t-25.5 6v58q13 -4 27.5 -6.5t28.5 -2.5q47 0 69 24t39 72l16 44zM278 630h-54l-87 158h77z" />
    <glyph glyph-name="uni2009" unicode="&#x2009;" horiz-adv-x="61" 
 />
    <glyph glyph-name="endash" unicode="&#x2013;" horiz-adv-x="539" 
d="M60 362h419v-56h-419v56z" />
    <glyph glyph-name="emdash" unicode="&#x2014;" horiz-adv-x="900" 
d="M60 362h780v-56h-780v56z" />
    <glyph glyph-name="quoteleft" unicode="&#x2018;" horiz-adv-x="210" 
d="M124 560h-83l79 205h51z" />
    <glyph glyph-name="quoteright" unicode="&#x2019;" horiz-adv-x="210" 
d="M91 765h84l-79 -205h-51z" />
    <glyph glyph-name="quotesinglbase" unicode="&#x201a;" horiz-adv-x="210" 
d="M97 93h83l-79 -205h-51z" />
    <glyph glyph-name="quotedblleft" unicode="&#x201c;" horiz-adv-x="362" 
d="M276 560h-83l79 205h51zM124 560h-83l79 205h51z" />
    <glyph glyph-name="quotedblright" unicode="&#x201d;" horiz-adv-x="362" 
d="M243 765h83l-78 -205h-52zM91 765h84l-79 -205h-51z" />
    <glyph glyph-name="quotedblbase" unicode="&#x201e;" horiz-adv-x="362" 
d="M249 93h83l-79 -205h-51zM97 93h83l-79 -205h-51z" />
    <glyph glyph-name="dagger" unicode="&#x2020;" horiz-adv-x="323" 
d="M190 290h-58v321h-96v52h96v102h58v-102h96v-52h-96v-321z" />
    <glyph glyph-name="daggerdbl" unicode="&#x2021;" horiz-adv-x="323" 
d="M190 290h-58v105h-96v52h96v164h-96v52h96v102h58v-102h97v-52h-97v-164h97v-52h-97v-105z" />
    <glyph glyph-name="bullet" unicode="&#x2022;" horiz-adv-x="335" 
d="M166 208q-43 0 -70 27.5t-27 72.5q0 44 28.5 72t69.5 28q45 0 72 -28t27 -72q0 -45 -29 -72.5t-71 -27.5z" />
    <glyph glyph-name="ellipsis" unicode="&#x2026;" horiz-adv-x="710" 
d="M550 95h95v-95h-95v95zM307 95h95v-95h-95v95zM65 95h95v-95h-95v95z" />
    <glyph glyph-name="perthousand" unicode="&#x2030;" horiz-adv-x="1271" 
d="M684 781h67l-551 -821h-66zM224 382q-35 0 -65.5 12t-52.5 35t-34.5 56.5t-12.5 76.5t13 76.5t35.5 56t52.5 34.5t64 12t64.5 -12t52.5 -34.5t35 -56t13 -76.5t-13 -76.5t-35 -56.5t-52.5 -35t-64.5 -12zM224 432q42 0 71 32t29 97q0 66 -29 98.5t-71 32.5
q-43 0 -72 -31.5t-29 -99.5q0 -66 29 -97.5t72 -31.5zM1044 -6q-36 0 -66 12t-52 35t-34.5 56.5t-12.5 76.5t13 76.5t35 56t52 34.5t65 12q34 0 64.5 -12t52.5 -34.5t35 -56t13 -76.5t-13 -76.5t-35 -56.5t-52.5 -35t-64.5 -12zM653 -6q-35 0 -65 12t-52 35t-34.5 56.5
t-12.5 76.5t13 76.5t35 56t52 34.5t64 12q35 0 65 -12t52.5 -34.5t35 -56t12.5 -76.5t-12.5 -76.5t-35 -56.5t-52.5 -35t-65 -12zM1043 44q42 0 71.5 32t29.5 97q0 66 -29.5 98.5t-71.5 32.5t-71 -31.5t-29 -99.5q0 -66 29 -97.5t71 -31.5zM653 44q42 0 71 32t29 97
q0 66 -29 98.5t-71 32.5t-71 -31.5t-29 -99.5q0 -66 29 -97.5t71 -31.5z" />
    <glyph glyph-name="uni2032" unicode="&#x2032;" horiz-adv-x="211" 
d="M69 765h86l-40 -205h-52z" />
    <glyph glyph-name="uni2033" unicode="&#x2033;" horiz-adv-x="363" 
d="M223 765h85l-39 -205h-54zM69 765h86l-40 -205h-52z" />
    <glyph glyph-name="guilsinglleft" unicode="&#x2039;" horiz-adv-x="322" 
d="M244 464l-111 -205l112 -202h-68l-117 203l116 204h68z" />
    <glyph glyph-name="guilsinglright" unicode="&#x203a;" horiz-adv-x="322" 
d="M78 57l111 205l-112 202h69l115 -203l-114 -204h-69z" />
    <glyph glyph-name="fraction" unicode="&#x2044;" horiz-adv-x="231" 
d="M359 785h65l-550 -825h-65z" />
    <glyph glyph-name="Euro" unicode="&#x20ac;" horiz-adv-x="654" 
d="M600 204q-3 -50 -19.5 -90.5t-45.5 -69t-70.5 -44.5t-93.5 -16q-116 0 -179.5 74.5t-79.5 204.5h-84v57h79q-1 11 -1 23.5v24.5v24t1 23h-80v56h86q9 64 29.5 116t53 89t76.5 56.5t99 19.5q41 0 81 -13t71.5 -40t52 -68.5t23.5 -98.5h-69q-2 31 -13.5 60t-32 52t-49 37
t-64.5 14q-44 0 -76 -17.5t-54.5 -47.5t-36 -71t-19.5 -88h252v-56h-258q-1 -12 -1 -23.5v-23.5v-24t1 -24h260v-57h-254q7 -49 21 -90t36.5 -71t54 -46.5t73.5 -16.5q39 0 68.5 12.5t49 34.5t30.5 52.5t14 65.5h68z" />
    <glyph glyph-name="trademark" unicode="&#x2122;" horiz-adv-x="722" 
d="M273 724h-99v-265h-50v265h-98v41h247v-41zM334 765h72l68 -192q4 -11 5.5 -19t3.5 -14q1 -7 2 -12h3l3 12q2 6 3.5 14t5.5 19l68 192h71v-306h-47v250h-4q-2 -8 -5 -18q-2 -8 -5 -19.5t-8 -24.5l-65 -188h-39l-68 190q-5 13 -8 24t-5 19q-3 10 -3 17h-3v-250h-45v306z
" />
    <glyph glyph-name="onethird" unicode="&#x2153;" horiz-adv-x="862" 
d="M127 641h-93v41h14q45 0 67 20q11 11 15.5 25.5t5.5 37.5h51v-430h-60v306zM621 193v50h42q36 0 57.5 21t21.5 52q0 33 -23.5 52.5t-59.5 19.5q-41 0 -64.5 -20t-25.5 -62h-61q0 25 9.5 48.5t28.5 41.5t47.5 29t66.5 11q68 0 106 -32t38 -83q0 -35 -22 -61.5t-57 -37.5
v-1q37 -8 64.5 -33t27.5 -74q0 -25 -11 -47t-31.5 -39t-50 -27t-67.5 -10q-41 0 -70.5 10.5t-48 28.5t-28 41.5t-10.5 49.5h61q5 -42 32.5 -62t67.5 -20t67 21t27 56q0 40 -25.5 58.5t-64.5 18.5h-44zM614 785h65l-550 -825h-65z" />
    <glyph glyph-name="twothirds" unicode="&#x2154;" horiz-adv-x="955" 
d="M35 335v42l159 142q24 21 40.5 37t26.5 31t14 29.5t4 31.5q0 34 -22.5 54.5t-60.5 20.5q-35 0 -62.5 -22t-29.5 -76h-61q1 71 44.5 108.5t109.5 37.5q39 0 66.5 -10t45 -26.5t26 -38.5t8.5 -45q0 -22 -5 -40.5t-17 -37.5t-31 -38.5t-47 -43.5l-121 -105v-1h226v-50h-313z
M714 193v50h42q36 0 57.5 21t21.5 52q0 33 -23.5 52.5t-59.5 19.5q-41 0 -64.5 -20t-25.5 -62h-61q0 25 9.5 48.5t28.5 41.5t47.5 29t66.5 11q68 0 106 -32t38 -83q0 -35 -22 -61.5t-57 -37.5v-1q37 -8 64.5 -33t27.5 -74q0 -25 -11 -47t-31.5 -39t-50 -27t-67.5 -10
q-41 0 -70.5 10.5t-48 28.5t-28 41.5t-10.5 49.5h61q5 -42 32.5 -62t67.5 -20t67 21t27 56q0 40 -25.5 58.5t-64.5 18.5h-44zM721 785h65l-550 -825h-65z" />
    <glyph glyph-name="oneeighth" unicode="&#x215b;" horiz-adv-x="867" 
d="M127 641h-93v41h14q45 0 67 20q11 11 15.5 25.5t5.5 37.5h51v-430h-60v306zM518 319q0 49 38 83t107 34q70 0 108.5 -34t38.5 -83q0 -40 -22 -65t-51 -34v-2q16 -3 31.5 -11t27.5 -20.5t19.5 -30.5t7.5 -42q0 -53 -42.5 -88t-117.5 -35q-77 0 -118 34.5t-41 88.5
q0 23 8 41t20 31t27 21t30 11v2q-28 9 -49.5 34t-21.5 65zM663 391q-35 0 -60 -18.5t-25 -57.5q0 -38 25.5 -56.5t59.5 -18.5t59.5 18.5t25.5 56.5q0 39 -25 57.5t-60 18.5zM663 36q41 0 70 19t29 60q0 21 -8 36t-21.5 24.5t-31.5 14.5t-38 5q-19 0 -36.5 -5t-31 -14.5
t-21.5 -24.5t-8 -36q0 -41 29 -60t68 -19zM621 785h65l-550 -825h-65z" />
    <glyph glyph-name="threeeighths" unicode="&#x215c;" horiz-adv-x="948" 
d="M165 528v50h42q36 0 57.5 21t21.5 52q0 33 -23.5 52.5t-59.5 19.5q-41 0 -64.5 -20t-25.5 -62h-61q0 25 9.5 48.5t28.5 41.5t47.5 29t66.5 11q68 0 106 -32t38 -83q0 -35 -22 -61.5t-57 -37.5v-1q37 -8 64.5 -33t27.5 -74q0 -25 -11 -47t-31.5 -39t-50 -27t-67.5 -10
q-41 0 -70.5 10.5t-48 28.5t-28 41.5t-10.5 49.5h61q5 -42 32.5 -62t67.5 -20t67 21t27 56q0 40 -25.5 58.5t-64.5 18.5h-44zM599 324q0 49 38 83t107 34q70 0 108.5 -34t38.5 -83q0 -40 -22 -65t-51 -34v-2q16 -3 31.5 -11t27.5 -20.5t19.5 -30.5t7.5 -42q0 -53 -42.5 -88
t-117.5 -35q-77 0 -118 34.5t-41 88.5q0 23 8 41t20 31t27 21t30 11v2q-28 9 -49.5 34t-21.5 65zM744 396q-35 0 -60 -18.5t-25 -57.5q0 -38 25.5 -56.5t59.5 -18.5t59.5 18.5t25.5 56.5q0 39 -25 57.5t-60 18.5zM744 41q41 0 70 19t29 60q0 21 -8 36t-21.5 24.5t-31.5 14.5
t-38 5q-19 0 -36.5 -5t-31 -14.5t-21.5 -24.5t-8 -36q0 -41 29 -60t68 -19zM718 785h65l-550 -825h-65z" />
    <glyph glyph-name="fiveeighths" unicode="&#x215d;" horiz-adv-x="935" 
d="M290 472q0 48 -27 73t-66 25q-30 0 -51.5 -10t-35.5 -28h-52l20 233h255v-52h-207l-11 -132h1q15 14 39 25t57 11q27 0 52 -8.5t44.5 -26t31.5 -44.5t12 -65q0 -66 -43 -106.5t-118 -40.5q-40 0 -67.5 10.5t-45.5 28t-26.5 39.5t-10.5 45h61q4 -38 28.5 -57t62.5 -19
q18 0 35.5 6t31 18t22 30.5t8.5 44.5zM587 319q0 49 38 83t107 34q70 0 108.5 -34t38.5 -83q0 -40 -22 -65t-51 -34v-2q16 -3 31.5 -11t27.5 -20.5t19.5 -30.5t7.5 -42q0 -53 -42.5 -88t-117.5 -35q-77 0 -118 34.5t-41 88.5q0 23 8 41t20 31t27 21t30 11v2q-28 9 -49.5 34
t-21.5 65zM732 391q-35 0 -60 -18.5t-25 -57.5q0 -38 25.5 -56.5t59.5 -18.5t59.5 18.5t25.5 56.5q0 39 -25 57.5t-60 18.5zM732 36q41 0 70 19t29 60q0 21 -8 36t-21.5 24.5t-31.5 14.5t-38 5q-19 0 -36.5 -5t-31 -14.5t-21.5 -24.5t-8 -36q0 -41 29 -60t68 -19zM702 785
h65l-550 -825h-65z" />
    <glyph glyph-name="seveneighths" unicode="&#x215e;" horiz-adv-x="867" 
d="M257 713h-229v52h298v-38l-194 -392h-62zM519 319q0 49 38 83t107 34q70 0 108.5 -34t38.5 -83q0 -40 -22 -65t-51 -34v-2q16 -3 31.5 -11t27.5 -20.5t19.5 -30.5t7.5 -42q0 -53 -42.5 -88t-117.5 -35q-77 0 -118 34.5t-41 88.5q0 23 8 41t20 31t27 21t30 11v2
q-28 9 -49.5 34t-21.5 65zM664 391q-35 0 -60 -18.5t-25 -57.5q0 -38 25.5 -56.5t59.5 -18.5t59.5 18.5t25.5 56.5q0 39 -25 57.5t-60 18.5zM664 36q41 0 70 19t29 60q0 21 -8 36t-21.5 24.5t-31.5 14.5t-38 5q-19 0 -36.5 -5t-31 -14.5t-21.5 -24.5t-8 -36q0 -41 29 -60
t68 -19zM616 785h65l-550 -825h-65z" />
    <glyph glyph-name="minus" unicode="&#x2212;" horiz-adv-x="629" 
d="M88 388h457v-61h-457v61z" />
    <glyph glyph-name="approxequal" unicode="&#x2248;" horiz-adv-x="616" 
d="M98 389q1 25 8 46.5t21.5 38t35 26t48.5 9.5t53 -9.5t48.5 -21.5t45 -21.5t44.5 -9.5q24 0 39 14.5t19 48.5h52q-1 -25 -9 -46.5t-22 -38t-34 -26t-46 -9.5q-30 0 -55.5 10t-49 22t-45.5 22t-44 10q-24 0 -39.5 -15t-18.5 -50h-51zM98 221q1 25 8 46.5t21.5 38t35 26
t48.5 9.5t53 -10t48.5 -21.5t45 -21.5t44.5 -10q24 0 39 14.5t19 49.5h52q-1 -25 -9 -46.5t-22 -38t-34 -26t-46 -9.5q-30 0 -55.5 10t-49 21.5t-45.5 21.5t-44 10q-24 0 -39.5 -14.5t-18.5 -49.5h-51z" />
    <glyph glyph-name="notequal" unicode="&#x2260;" horiz-adv-x="633" 
d="M223 117h-60l64 125h-139v61h170l57 111h-227v61h258l63 124h60l-63 -124h139v-61h-170l-57 -111h227v-61h-258z" />
    <glyph glyph-name="lessequal" unicode="&#x2264;" horiz-adv-x="633" 
d="M85 329v56l459 196v-68l-376 -156l376 -157v-68zM85 0v59h459v-59h-459z" />
    <glyph glyph-name="greaterequal" unicode="&#x2265;" horiz-adv-x="633" 
d="M548 385v-56l-459 -197v68l376 156l-376 157v68zM89 0v59h459v-59h-459z" />
    <glyph glyph-name="uni24C5" unicode="&#x24c5;" horiz-adv-x="899" 
d="M55 380q0 84 30 156.5t82.5 126t124.5 84t157 30.5t157 -30.5t125 -84t83 -126t30 -156.5t-30 -156.5t-83 -125.5t-125 -83.5t-157 -30.5t-157 30.5t-124.5 83.5t-82.5 125.5t-30 156.5zM449 28q73 0 136 27t108.5 74.5t71.5 111.5t26 139t-26 139.5t-71.5 112
t-108.5 74.5t-136 27q-74 0 -136 -27t-108 -74.5t-71.5 -112t-25.5 -139.5t25.5 -139t71.5 -111.5t108 -74.5t136 -27zM340 182v404h127q66 0 103.5 -31.5t37.5 -91.5q0 -61 -38.5 -94t-104.5 -33h-72v-154h-53zM469 379q37 0 61.5 19.5t24.5 63.5q0 41 -22 61t-64 20h-76
v-164h76z" />
    <glyph glyph-name="quotedblright.sc" horiz-adv-x="362" 
d="M243 644h83l-78 -205h-52zM91 644h84l-79 -205h-51z" />
    <glyph glyph-name="Ibreve.sc" horiz-adv-x="295" 
d="M113 644h69v-644h-69v644zM147 726q-30 0 -56 8.5t-45 27t-30 47t-11 69.5h55q0 -53 25.5 -77t64.5 -24t64.5 24t25.5 77h51q0 -41 -11 -69.5t-30.5 -47t-46 -27t-56.5 -8.5z" />
    <glyph glyph-name="exclamdown.uc" horiz-adv-x="278" 
d="M176.006 -22.9521h-74.9951l8.99902 577.965h58.9971zM186.006 765v-93.9941h-93.9941v93.9941h93.9941z" />
    <glyph glyph-name="hyphen.uc" horiz-adv-x="405" 
d="M60 407h285v-62h-285v62z" />
    <glyph glyph-name="endash.uc" horiz-adv-x="539" 
d="M60 404h419v-56h-419v56z" />
    <glyph glyph-name="emdash.uc" horiz-adv-x="900" 
d="M60 404h780v-56h-780v56z" />
    <glyph glyph-name="guilsinglleft.uc" horiz-adv-x="322" 
d="M244 524l-111 -205l112 -202h-68l-117 203l116 204h68z" />
    <glyph glyph-name="guilsinglright.uc" horiz-adv-x="322" 
d="M78 117l111 205l-112 202h69l115 -203l-114 -204h-69z" />
    <glyph glyph-name="guillemotleft.uc" horiz-adv-x="517" 
d="M440 524l-112 -205l113 -202h-69l-116 203l115 204h69zM244 524l-111 -205l112 -202h-68l-117 203l116 204h68z" />
    <glyph glyph-name="guillemotright.uc" horiz-adv-x="517" 
d="M78 117l111 205l-112 202h69l115 -203l-114 -204h-69zM274 117l110 205l-111 202h68l116 -203l-115 -204h-68z" />
    <glyph glyph-name="parenleft.uc" horiz-adv-x="312" 
d="M209 -100q-22 44 -44 93.5t-40 105.5t-29.5 120.5t-11.5 139.5t11.5 139.5t29.5 121t40 105.5t44 93h56q-20 -46 -39.5 -94t-35.5 -103t-25.5 -119.5t-9.5 -142.5t9.5 -142t25.5 -119t35.5 -103.5t39.5 -94.5h-56z" />
    <glyph glyph-name="parenright.uc" horiz-adv-x="312" 
d="M47 -100q20 46 39.5 94t35.5 103t25.5 119.5t9.5 142.5t-9.5 142t-25.5 119t-35.5 103.5t-39.5 94.5h57q21 -44 43 -93.5t40 -105.5t29.5 -120.5t11.5 -139.5t-11.5 -139.5t-29.5 -121t-40 -105.5t-43 -93h-57z" />
    <glyph glyph-name="space_uni0326" horiz-adv-x="369" 
d="M181 -76h73l-55 -135h-45z" />
    <glyph glyph-name="grave.uc" horiz-adv-x="366" 
d="M243 827h-57l-91 133h80z" />
    <glyph glyph-name="bracketleft.uc" horiz-adv-x="342" 
d="M114 820h204v-52h-138v-818h138v-52h-204v922z" />
    <glyph glyph-name="bracketright.uc" horiz-adv-x="342" 
d="M228 -102h-204v52h138v818h-138v52h204v-922z" />
    <glyph glyph-name="braceleft.uc" horiz-adv-x="334" 
d="M23 329v61h22q46 0 64.5 17.5t18.5 61.5v220q0 72 42.5 102.5t139.5 30.5v-50q-40 0 -63.5 -6t-35.5 -19t-15.5 -34.5t-3.5 -52.5v-179q0 -19 -2.5 -39t-10 -36.5t-22 -28.5t-38.5 -16v-4q24 -4 38.5 -16t22 -28.5t10 -36t2.5 -37.5v-181q0 -31 3.5 -52.5t15.5 -34.5
t35.5 -19t63.5 -6v-50q-97 0 -139.5 31.5t-42.5 105.5v217q0 44 -18.5 61.5t-64.5 17.5h-22z" />
    <glyph glyph-name="braceright.uc" horiz-adv-x="334" 
d="M311 328h-22q-47 0 -65 -17.5t-18 -61.5v-220q0 -72 -42.5 -102.5t-139.5 -30.5v50q40 0 63.5 6t35.5 19t15.5 34.5t3.5 52.5v180q0 19 2.5 38.5t10 36t22 28.5t38.5 16v4q-24 4 -38.5 16t-22 28.5t-10 36t-2.5 37.5v181q0 31 -3.5 52.5t-15.5 34.5t-35.5 19t-63.5 6v50
q97 0 139.5 -31.5t42.5 -105.5v-217q0 -44 18 -61.5t65 -17.5h22v-61z" />
    <glyph glyph-name="slash.uc" horiz-adv-x="506" 
d="M424 792h66l-407 -859h-66z" />
    <glyph glyph-name="backslash.uc" horiz-adv-x="506" 
d="M17 792h66l407 -859h-66z" />
    <glyph glyph-name="bar.uc" horiz-adv-x="289" 
d="M115 792h59v-859h-59v859z" />
    <glyph glyph-name="acute.uc" horiz-adv-x="366" 
d="M160 960h81l-91 -133h-57z" />
    <glyph glyph-name="at.uc" horiz-adv-x="1005" 
d="M733 132q-48 0 -82 20t-41 74h-3q-26 -50 -67.5 -75t-90.5 -25q-38 0 -66 12.5t-47 34.5t-29 52.5t-10 65.5q0 59 15 112t43.5 92.5t70 63t94.5 23.5q51 0 83.5 -25t43.5 -63h3l13 72h62l-54 -273q-10 -50 5 -80.5t63 -30.5q25 0 53 12t51.5 39.5t39 72t15.5 110.5
q0 73 -26.5 136t-75.5 109.5t-118 72.5t-153 26q-86 0 -159.5 -32.5t-127.5 -89.5t-84.5 -135t-30.5 -168q0 -91 28 -164.5t78.5 -125t120.5 -79t153 -27.5q86 0 155.5 25.5t115.5 61.5l32 -37q-50 -41 -126.5 -71.5t-182.5 -30.5q-97 0 -177.5 32.5t-139 91t-91 141
t-32.5 183.5q0 103 36 190t99 150.5t149 99t185 35.5q96 0 175.5 -28.5t136.5 -80t88.5 -123.5t31.5 -159q0 -83 -23.5 -138t-57.5 -88t-73.5 -47t-70.5 -14zM463 183q28 0 53 12t45 33t34 50t20 63l5 26q5 27 3.5 55t-12 51t-32 37.5t-55.5 14.5q-41 0 -70.5 -20.5t-49 -53
t-28.5 -73t-9 -80.5q0 -51 22.5 -83t73.5 -32z" />
    <glyph glyph-name="f.short" horiz-adv-x="346" 
d="M191 0h-70v470h-102v54h102v132q0 68 39.5 101.5t106.5 33.5q13 0 26 -1t27 -4v-58q-9 2 -21 3.5t-29 1.5q-41 0 -60 -20.5t-19 -68.5v-120h133v-54h-133v-470z" />
    <glyph glyph-name="f_f.short" horiz-adv-x="674" 
d="M191 0h-70v470h-102v54h102v126q0 68 39.5 101.5t106.5 33.5q13 0 26 -1t27 -4v-58q-9 2 -21 3.5t-29 1.5q-41 0 -60 -20.5t-19 -68.5v-114h258v132q0 68 39.5 101.5t106.5 33.5q13 0 26 -1t27 -4v-58q-9 2 -21 3.5t-29 1.5q-41 0 -60 -20.5t-19 -68.5v-120h133v-54h-133
v-470h-70v470h-258v-470z" />
    <glyph glyph-name="macron.uc" horiz-adv-x="369" 
d="M45 916h277v-57h-277v57z" />
    <glyph glyph-name="circumflex.uc" horiz-adv-x="369" 
d="M332 827h-67l-83 88h-1l-83 -88h-60l110 133h71z" />
    <glyph glyph-name="caron.uc" horiz-adv-x="369" 
d="M38 960h67l83 -88h1l83 88h60l-110 -133h-71z" />
    <glyph glyph-name="breve.uc" horiz-adv-x="369" 
d="M98 969q5 -42 29 -62t60 -20q35 0 59.5 19.5t29.5 62.5h51q-2 -35 -14 -60.5t-31 -41.5t-44.5 -23.5t-53.5 -7.5q-29 0 -53.5 7.5t-43.5 23.5t-30.5 41.5t-14.5 60.5h56z" />
    <glyph glyph-name="caron.alt" horiz-adv-x="369" 
d="M165 788h69l-37 -164h-47z" />
    <glyph glyph-name="dotaccent.uc" horiz-adv-x="369" 
d="M146 918h76v-79h-76v79z" />
    <glyph glyph-name="ring.uc" horiz-adv-x="369" 
d="M188 814q-48 0 -75 28t-27 73t28 73t74 28q49 0 76 -28t27 -73t-28 -73t-75 -28zM188 978q-25 0 -39.5 -18t-14.5 -45q0 -28 14 -45t40 -17t40.5 17t14.5 45q0 27 -14.5 45t-40.5 18z" />
    <glyph glyph-name="sterling.tab" 
d="M554 0h-480v60l40 33q30 25 48.5 48t24.5 49.5t0.5 59t-21.5 77.5h-107v55h85l-16 42q-31 79 -25.5 140t36.5 103t80.5 63.5t107.5 21.5q107 0 161.5 -56.5t56.5 -159.5h-70q-1 30 -7.5 58.5t-23 51t-45 36t-72.5 13.5t-78 -16t-53.5 -48t-20.5 -80t23 -113l20 -56h233
v-55h-213q14 -44 17.5 -78.5t-3.5 -63t-24.5 -53t-45.5 -46.5l-27 -22v-2h399v-62z" />
    <glyph glyph-name="tilde.uc" horiz-adv-x="369" 
d="M13 828q0 23 5.5 45t17.5 39.5t30.5 28t44.5 10.5q25 0 45.5 -10.5t38 -23t33 -23t30.5 -10.5q23 0 34.5 19t14.5 51h48q0 -23 -6 -45.5t-18 -40t-30.5 -28t-44.5 -10.5q-25 0 -45 10.5t-37.5 23t-33 23t-31.5 10.5q-23 0 -34 -18.5t-15 -50.5h-47z" />
    <glyph glyph-name="cent.tab" 
d="M518 161q-11 -80 -59 -123t-120 -50v-104h-54v104q-100 10 -150.5 82t-50.5 188q0 55 13.5 103.5t39 85t63 60t85.5 29.5v99h54v-98q33 -3 63 -13t54 -29t40 -48t21 -69h-68q-5 36 -32 66.5t-78 37.5v-438q29 4 49 16t33 28.5t20.5 35.5t10.5 37h66zM285 480
q-62 -12 -96 -68.5t-34 -148.5q0 -93 30.5 -150.5t99.5 -68.5v436z" />
    <glyph glyph-name="plus.tab" 
d="M330 131h-61v197h-197v59h197v196h61v-196h198v-59h-198v-197z" />
    <glyph glyph-name="minus.tab" 
d="M71 388h457v-61h-457v61z" />
    <glyph glyph-name="multiply.tab" 
d="M87 183l171 170l-171 170l43 42l170 -171l169 171l43 -42l-171 -170l172 -171l-43 -43l-171 172l-169 -170z" />
    <glyph glyph-name="divide.tab" 
d="M260 579h78v-78h-78v78zM72 387h456v-59h-456v59zM260 136v79h78v-79h-78z" />
    <glyph glyph-name="equal.tab" 
d="M71 475h457v-61h-457v61zM71 242v61h457v-61h-457z" />
    <glyph glyph-name="less.tab" 
d="M69 305v53l459 223v-68l-379 -181l379 -181v-68z" />
    <glyph glyph-name="greater.tab" 
d="M531 347v-51l-459 -223v67l379 181l-379 181v68z" />
    <glyph glyph-name="florin.tab" 
d="M246 -189h-69l76 563h-103v54h110l27 199q11 81 56.5 118.5t111.5 37.5q16 0 26.5 -1t24.5 -4v-58q-9 2 -19 3.5t-29 1.5t-36 -5t-30 -17t-22.5 -32t-13.5 -51l-26 -192h134v-54h-141z" />
    <glyph glyph-name="plusminus.tab" 
d="M330 145h-61v196h-197v59h197v196h61v-196h198v-59h-198v-196zM72 59h456v-59h-456v59z" />
    <glyph glyph-name="notequal.tab" 
d="M206 117h-60l64 125h-139v61h170l57 111h-227v61h258l63 124h60l-63 -124h139v-61h-170l-57 -111h227v-61h-258z" />
    <glyph glyph-name="approxequal.tab" 
d="M98 389q0 48 25 82.5t80 34.5q28 0 54 -9.5t50.5 -21.5t47.5 -21.5t44 -9.5q24 0 36.5 14.5t15.5 47.5h50q0 -48 -26 -82t-77 -34q-29 0 -55.5 9.5t-51 21t-47.5 21t-45 9.5q-23 0 -36 -14.5t-15 -47.5h-50zM98 225q0 48 25 82.5t80 34.5q28 0 54 -9.5t50.5 -21t47.5 -21
t44 -9.5q24 0 36.5 14t15.5 48h50q0 -49 -26 -83t-77 -34q-29 0 -55.5 9.5t-51 21t-47.5 21t-45 9.5q-23 0 -36 -14t-15 -48h-50z" />
    <glyph glyph-name="lessequal.tab" 
d="M69 329v56l459 196v-68l-377 -156l377 -157v-68zM69 0v59h459v-59h-459z" />
    <glyph glyph-name="greaterequal.tab" horiz-adv-x="618" 
d="M541 385v-56l-459 -197v68l377 156l-377 157v68zM82 0v59h459v-59h-459z" />
    <glyph glyph-name="period.tab" horiz-adv-x="300" 
d="M102 95h96v-95h-96v95z" />
    <glyph glyph-name="comma.tab" horiz-adv-x="300" 
d="M113 109h89l-78 -226h-52z" />
    <glyph glyph-name="colon.tab" horiz-adv-x="300" 
d="M102 502h96v-96h-96v96zM102 0v96h96v-96h-96z" />
    <glyph glyph-name="semicolon.tab" horiz-adv-x="300" 
d="M108 502h95v-96h-95v96zM70 -117l42 226h88l-77 -226h-53z" />
    <glyph glyph-name="hungarumlaut.uc" horiz-adv-x="356" 
d="M230 973h74l-66 -133h-47zM102 973h73l-70 -133h-46z" />
    <glyph glyph-name="currency.tab" 
d="M123 346q0 29 8.5 55t22.5 47l-71 72l43 43l71 -72q22 15 47.5 23.5t54.5 8.5t55 -8.5t48 -24.5l72 73l42 -42l-73 -73q33 -44 33 -102q0 -29 -8.5 -54.5t-23.5 -47.5l72 -72l-42 -43l-73 73q-43 -32 -102 -32q-58 0 -102 32l-71 -72l-43 43l72 71q-15 22 -23.5 47.5
t-8.5 54.5zM299 217q27 0 49.5 10t39 27t26 41t9.5 51q0 28 -9.5 51.5t-26 41t-39 27.5t-49.5 10q-26 0 -49 -10t-39.5 -27.5t-26 -41t-9.5 -51.5q0 -27 9.5 -51t26 -41t39.5 -27t49 -10z" />
    <glyph glyph-name="percent.tab" horiz-adv-x="900" 
d="M694 781h66l-551 -821h-66zM231 382q-35 0 -65 12t-51.5 35t-34 56.5t-12.5 76.5t13 76.5t35 56t51.5 34.5t63.5 12t63.5 -12t51.5 -34.5t34.5 -56t12.5 -76.5t-12.5 -76.5t-34.5 -56.5t-51.5 -35t-63.5 -12zM230 432q41 0 70.5 32t29.5 97q0 66 -29.5 98.5t-70.5 32.5
q-42 0 -70.5 -31.5t-28.5 -99.5q0 -66 28.5 -97.5t70.5 -31.5zM668 -6q-35 0 -64.5 12t-51.5 35t-34 56.5t-12 76.5t12.5 76.5t34.5 56t51.5 34.5t63.5 12t64 -12t52 -34.5t34.5 -56t12.5 -76.5t-12.5 -76.5t-34.5 -56.5t-52 -35t-64 -12zM668 44q41 0 70 32t29 97
q0 66 -29 98.5t-70 32.5q-42 0 -70.5 -31.5t-28.5 -99.5q0 -66 28.5 -97.5t70.5 -31.5z" />
    <glyph glyph-name="perthousand.tab" horiz-adv-x="1200" 
d="M660 781h66l-551 -821h-66zM69 562q0 43 12 76.5t33 56t48.5 34.5t59.5 12t60 -12t49 -34.5t33 -56t12 -76.5t-12 -76.5t-33 -56.5t-49 -35t-60 -12q-33 0 -61 12t-48.5 35t-32 56.5t-11.5 76.5zM222 432q38 0 64.5 32t26.5 97q0 66 -26.5 98.5t-64.5 32.5t-64.5 -31.5
t-26.5 -99.5q0 -66 26.5 -97.5t64.5 -31.5zM984 -6q-33 0 -61 12t-48.5 35t-32 56.5t-11.5 76.5t12 76.5t32.5 56t48.5 34.5t60 12t60 -12t48.5 -34.5t32.5 -56t12 -76.5t-12 -76.5t-32.5 -56.5t-48.5 -35t-60 -12zM609 -6q-33 0 -61 12t-48.5 35t-32 56.5t-11.5 76.5
t12 76.5t32.5 56t48.5 34.5t60 12t59.5 -12t48 -34.5t32.5 -56t12 -76.5t-12 -76.5t-32.5 -56.5t-48 -35t-59.5 -12zM983 44q38 0 65 32t27 97q0 66 -27 98.5t-65 32.5t-64.5 -31.5t-26.5 -99.5q0 -66 26.5 -97.5t64.5 -31.5zM608 44q38 0 65 32t27 97q0 66 -27 98.5
t-65 32.5t-64.5 -31.5t-26.5 -99.5q0 -66 26.5 -97.5t64.5 -31.5z" />
    <glyph glyph-name="idotaccent" horiz-adv-x="265" 
d="M94 733h75v-79h-75v79zM96 524h70v-524h-70v524z" />
    <glyph glyph-name="A.sc" horiz-adv-x="644" 
d="M319 578q-1 -4 -8 -29.5t-18 -54.5l-87 -237h227l-86 237q-6 16 -10.5 31t-8.5 27q-4 14 -7 26h-2zM453 201h-268l-73 -201h-69l238 644h81l239 -644h-74z" />
    <glyph glyph-name="AE.sc" horiz-adv-x="927" 
d="M433 584h-64l-151 -326h215v326zM99 0h-71l300 644h516v-60h-343v-227h313v-59h-313v-238h347v-60h-415v202h-241z" />
    <glyph glyph-name="B.sc" horiz-adv-x="654" 
d="M113 0v644h255q41 0 76.5 -9.5t62 -28.5t41.5 -48.5t15 -68.5q0 -60 -31.5 -96.5t-88.5 -47.5v-2q32 -5 58 -19t44.5 -34.5t28.5 -46.5t10 -55q0 -52 -18.5 -88t-50 -58t-75 -32t-92.5 -10h-235zM357 370q27 0 51.5 5.5t43 18t29.5 33.5t11 53q0 54 -35 80t-92 26h-183
v-216h175zM345 58q81 0 124 30.5t43 99.5q0 65 -44 94.5t-115 29.5h-171v-254h163z" />
    <glyph glyph-name="C.sc" horiz-adv-x="686" 
d="M365 597q-54 0 -94.5 -20.5t-68.5 -57t-42 -88t-14 -112.5q0 -63 14.5 -114t42.5 -87t68.5 -55.5t93.5 -19.5q44 0 76 13t53 34t32.5 47.5t14.5 54.5h69q-3 -44 -20.5 -81.5t-49 -65t-76 -43t-101.5 -15.5q-63 0 -116 20t-91.5 61.5t-60 104t-21.5 146.5q0 80 22 142.5
t60.5 105t91.5 64.5t115 22q46 0 90 -12t78.5 -37t55.5 -62t23 -88h-69q-4 26 -15 51.5t-31.5 46t-52.5 33t-77 12.5z" />
    <glyph glyph-name="D.sc" horiz-adv-x="701" 
d="M113 644h204q65 0 122 -17.5t99 -55.5t66 -98t24 -144q0 -85 -23.5 -147t-65 -102.5t-97.5 -60t-121 -19.5h-208v644zM315 59q52 0 96 13.5t76.5 44.5t51 82.5t18.5 126.5q0 71 -18.5 120.5t-51 80t-76 44.5t-93.5 14h-136v-526h133z" />
    <glyph glyph-name="Dcroat.sc" horiz-adv-x="706" 
d="M119 0v299h-74v57h74v288h204q65 0 121.5 -17.5t98.5 -55.5t66.5 -98t24.5 -144q0 -85 -23.5 -147t-65 -102.5t-97.5 -60t-121 -19.5h-208zM321 59q52 0 96 13.5t76 44.5t50.5 82.5t18.5 126.5q0 71 -18.5 120.5t-50.5 80t-75.5 44.5t-93.5 14h-136v-229h192v-57h-192
v-240h133z" />
    <glyph glyph-name="E.sc" horiz-adv-x="612" 
d="M113 644h416v-60h-347v-227h318v-59h-318v-238h351v-60h-420v644z" />
    <glyph glyph-name="Eng.sc" horiz-adv-x="721" 
d="M608 22q0 -45 -11 -78.5t-36 -56.5t-66 -35t-101 -12h-27v60h19q41 0 68.5 5.5t45.5 15.5t27 26t12 37l-320 499q-9 14 -16 26t-12 21q-6 11 -10 20h-2v-550h-66v644h83l308 -483q8 -14 14.5 -26t11.5 -21q5 -11 9 -19h2v7h1v542h66v-622z" />
    <glyph glyph-name="Eth.sc" horiz-adv-x="706" 
d="M119 0v299h-74v57h74v288h204q65 0 121.5 -17.5t98.5 -55.5t66.5 -98t24.5 -144q0 -85 -23.5 -147t-65 -102.5t-97.5 -60t-121 -19.5h-208zM321 59q52 0 96 13.5t76 44.5t50.5 82.5t18.5 126.5q0 71 -18.5 120.5t-50.5 80t-75.5 44.5t-93.5 14h-136v-229h192v-57h-192
v-240h133z" />
    <glyph glyph-name="F.sc" horiz-adv-x="560" 
d="M182 0h-69v644h386v-60h-317v-248h289v-59h-289v-277z" />
    <glyph glyph-name="G.sc" horiz-adv-x="726" 
d="M371 598q-55 0 -97.5 -19.5t-71 -56t-43 -89t-14.5 -117.5q0 -131 57 -202t162 -71q43 0 79.5 13.5t62 38t40 59.5t14.5 78v30h-194v59h261v-321h-60v99h-3q-11 -23 -29 -43t-43.5 -35.5t-59 -24.5t-76.5 -9q-60 0 -111.5 19t-89.5 59.5t-60 102t-22 147.5q0 81 22 144
t61.5 106t94.5 65.5t121 22.5q102 0 167.5 -48t73.5 -135h-69q-4 31 -19 54.5t-38 40t-52.5 25t-63.5 8.5z" />
    <glyph glyph-name="H.sc" horiz-adv-x="723" 
d="M182 0h-69v644h69v-287h358v287h70v-644h-70v299h-358v-299z" />
    <glyph glyph-name="I.sc" horiz-adv-x="295" 
d="M113 644h69v-644h-69v644z" />
    <glyph glyph-name="IJ.sc" horiz-adv-x="640" 
d="M300 0v60h4q50 0 82 7.5t50 25t24.5 45t6.5 67.5v439h69v-446q0 -105 -53.5 -151.5t-163.5 -46.5h-19zM113 644h69v-644h-69v644z" />
    <glyph glyph-name="J.sc" horiz-adv-x="396" 
d="M33 0v60h28q50 0 81.5 7.5t49.5 25t24.5 45t6.5 67.5v439h69v-446q0 -105 -53 -151.5t-165 -46.5h-41z" />
    <glyph glyph-name="K.sc" horiz-adv-x="644" 
d="M182 0h-69v644h69v-344l326 344h85l-259 -273l273 -371h-83l-239 324l-103 -109v-215z" />
    <glyph glyph-name="L.sc" horiz-adv-x="564" 
d="M113 644h69v-584h332v-60h-401v644z" />
    <glyph glyph-name="M.sc" horiz-adv-x="860" 
d="M113 644h96l195 -491q6 -17 11 -30.5t8 -23.5q4 -11 6 -21h3q2 10 6 21q3 10 7 23.5t11 30.5l197 491h94v-644h-67v555h-4q-3 -11 -7 -26q-4 -13 -10 -30.5t-14 -37.5l-186 -461h-62l-184 461q-8 20 -14 37t-10 30q-4 15 -8 27h-4v-555h-64v644z" />
    <glyph glyph-name="N.sc" horiz-adv-x="721" 
d="M113 644h82l308 -484q17 -27 27 -47q5 -11 9 -20h3v551h66v-644h-83l-306 483q-9 14 -16 25.5t-12 21.5q-6 11 -10 21h-2v-551h-66v644z" />
    <glyph glyph-name="O.sc" horiz-adv-x="728" 
d="M74 319q0 87 24 150t64 104t92.5 60.5t109.5 19.5q58 0 111 -19.5t92.5 -60t63 -104t23.5 -150.5t-23.5 -150t-63.5 -103.5t-93 -59.5t-111 -19t-110.5 19t-92 59.5t-63 103.5t-23.5 150zM363 43q48 0 88 17.5t69.5 52.5t46 86.5t16.5 119.5q0 69 -16.5 121t-45.5 87.5
t-69.5 53t-88.5 17.5q-47 0 -87 -17.5t-69 -52.5t-45.5 -87t-16.5 -122q0 -69 16 -120.5t45 -86t69 -52t88 -17.5z" />
    <glyph glyph-name="OE.sc" horiz-adv-x="1067" 
d="M573 367q0 107 -55.5 169t-154.5 62q-47 0 -87 -17.5t-69 -52t-45.5 -87t-16.5 -122.5q0 -68 16 -120t45 -87t69 -52.5t88 -17.5q102 0 156 65t54 176v84zM569 98q-35 -57 -85 -84t-121 -27q-59 0 -111.5 19.5t-92 60.5t-62.5 103.5t-23 149.5q0 86 23.5 148.5t63 103.5
t92 61t109.5 20q75 0 127.5 -30t79.5 -81h2v102h413v-60h-344v-227h314v-59h-314v-238h347v-60h-416v98h-2z" />
    <glyph glyph-name="Oslash.sc" horiz-adv-x="728" 
d="M363 598q-47 0 -87 -17.5t-69 -52t-45.5 -87t-16.5 -122.5q0 -59 10.5 -104.5t30.5 -78.5l320 413q-56 49 -143 49zM363 42q48 0 88.5 17.5t70 52.5t46 87t16.5 120q0 62 -11.5 108.5t-33.5 80.5l-320 -413q28 -27 64 -40t80 -13zM654 319q0 -87 -23.5 -150t-63.5 -103.5
t-93 -59.5t-111 -19q-51 0 -97 14.5t-84 45.5l-53 -68h-64l80 104q-33 41 -52 99.5t-19 136.5q0 87 24 150t64 104t92.5 60.5t109.5 19.5q50 0 95.5 -14t82.5 -43l56 72h65l-84 -108q35 -41 55 -100.5t20 -140.5z" />
    <glyph glyph-name="P.sc" horiz-adv-x="582" 
d="M182 250v-250h-69v644h197q102 0 161.5 -48.5t59.5 -144.5q0 -98 -60 -149.5t-165 -51.5h-124zM307 307q34 0 62 8.5t48.5 25.5t32 44t11.5 64q0 70 -40.5 104t-112.5 34h-126v-280h125z" />
    <glyph glyph-name="Q.sc" horiz-adv-x="726" 
d="M74 320q0 86 23.5 149t63.5 104t92.5 60.5t110.5 19.5t111 -19.5t92.5 -60.5t63 -104t23.5 -149q0 -103 -32.5 -172t-90.5 -105v-4q52 -2 84.5 -22.5t58.5 -59.5l-56 -41q-31 46 -62.5 64t-80.5 18q-14 0 -25.5 -1.5t-24.5 -3.5t-27.5 -3.5t-34.5 -1.5q-59 0 -111.5 19.5
t-92 60t-62.5 103t-23 149.5zM364 42q48 0 88 16.5t69 51t45.5 86.5t16.5 123q0 69 -16.5 121t-45.5 87.5t-69 53t-88 17.5q-47 0 -87.5 -17.5t-69.5 -52.5t-45.5 -87t-16.5 -122q0 -69 16 -120.5t45.5 -86.5t69.5 -52.5t88 -17.5z" />
    <glyph glyph-name="R.sc" horiz-adv-x="641" 
d="M347 327q30 0 57 7.5t46.5 24t31 42t11.5 61.5q0 63 -40 94t-104 31h-167v-260h165zM353 270h-171v-270h-69v644h237q35 0 68 -6.5t62 -22.5q37 -21 60.5 -57.5t23.5 -93.5q0 -41 -12 -72t-31.5 -53t-45 -35.5t-51.5 -20.5v-2l147 -281h-77z" />
    <glyph glyph-name="S.sc" horiz-adv-x="636" 
d="M478 472q-3 26 -12 49t-27 40t-45.5 27t-66.5 10q-69 0 -110 -31.5t-41 -86.5q0 -50 27 -76t90 -36l107 -17q87 -14 123.5 -56.5t36.5 -111.5q0 -89 -61 -142.5t-176 -53.5q-59 0 -103 15.5t-74.5 41.5t-47 61.5t-19.5 74.5h69q3 -26 13.5 -50.5t31.5 -43.5t53 -31
t78 -12q45 0 77 10.5t52.5 28.5t29.5 41.5t9 50.5q0 45 -23 73t-87 39l-109 18q-92 15 -129.5 59t-37.5 109q0 41 16 74.5t45.5 57t70 36.5t89.5 13q52 0 92 -13.5t67.5 -37.5t42 -57t15.5 -73h-66z" />
    <glyph glyph-name="T.sc" horiz-adv-x="587" 
d="M557 585h-229v-585h-69v585h-229v59h527v-59z" />
    <glyph glyph-name="Tbar.sc" horiz-adv-x="587" 
d="M557 585h-229v-172h173v-50h-173v-363h-69v363h-173v50h173v172h-229v59h527v-59z" />
    <glyph glyph-name="Thorn.sc" horiz-adv-x="570" 
d="M182 147v-147h-69v644h69v-137h131q45 0 83.5 -10t66.5 -31.5t44 -55.5t16 -82q0 -47 -16 -81t-44.5 -56t-68.5 -33t-88 -11h-124zM315 203q67 2 102.5 32t35.5 93q0 68 -36.5 95.5t-105.5 27.5h-129v-248h133z" />
    <glyph glyph-name="U.sc" horiz-adv-x="691" 
d="M102 644h69v-368q0 -23 0.5 -47.5t3.5 -48t10 -44.5t20 -37q24 -29 60 -42t83 -13t82 13.5t59 42.5q12 15 18.5 36t9.5 44.5t3 48v47.5v368h69v-428q0 -61 -17.5 -104.5t-49.5 -71t-77 -40.5t-100 -13t-100 13t-76.5 40.5t-49 71t-17.5 104.5v428z" />
    <glyph glyph-name="V.sc" horiz-adv-x="630" 
d="M39 644h74l176 -483q8 -21 12.5 -37.5l7.5 -27.5q4 -13 6 -23h3q1 10 5 23q3 11 8 28t13 38l177 482h69l-237 -644h-75z" />
    <glyph glyph-name="W.sc" horiz-adv-x="922" 
d="M226 0l-184 644h70l132 -476q5 -20 9.5 -37t6.5 -29q3 -14 4 -26h2q1 12 4 26q2 12 6 28.5t10 36.5l136 477h77l138 -481q5 -19 9 -35t6 -28q3 -14 5 -25h2q1 11 4 25q5 26 15 62l133 482h67l-184 -644h-75l-135 466q-7 23 -11.5 42t-7.5 33q-4 16 -5 29h-2
q-1 -13 -5 -29q-3 -14 -7.5 -32.5t-11.5 -41.5l-135 -467h-73z" />
    <glyph glyph-name="X.sc" horiz-adv-x="644" 
d="M278 336l-209 308h82l167 -254h2l173 254h74l-208 -304l237 -340h-83l-194 285h-2l-195 -285h-75z" />
    <glyph glyph-name="Y.sc" horiz-adv-x="592" 
d="M262 280l-235 364h79l190 -301h2l194 301h73l-234 -360v-284h-69v280z" />
    <glyph glyph-name="Z.sc" horiz-adv-x="599" 
d="M72 644h467v-53l-399 -532h401v-59h-484v53l400 532h-385v59z" />
    <glyph glyph-name="ampersand.sc" horiz-adv-x="642" 
d="M579 -1q-41 0 -70 16t-61 51q-32 -36 -77.5 -57.5t-110.5 -21.5q-100 0 -150.5 45.5t-50.5 123.5q0 30 8 54.5t26 46.5t46 43t68 45q-18 21 -32.5 39.5t-25 37t-16 39.5t-5.5 48q0 31 11 57.5t31.5 46t49.5 30t65 10.5q34 0 62 -10t48 -27t30.5 -40.5t10.5 -50.5
q0 -30 -7.5 -54t-25 -46t-44 -44t-63.5 -46l123 -139l24 -28q12 35 18 73t8 76h61q-2 -51 -12.5 -101.5t-33.5 -94.5q20 -22 33.5 -35t25.5 -19.5t25 -8t31 -1.5v-58h-20zM236 300q-27 -17 -47.5 -32.5t-34 -31.5t-20.5 -34.5t-7 -42.5q0 -35 11 -57.5t30 -36.5t43.5 -19.5
t51.5 -5.5q53 0 89 18.5t59 49.5l-31 37l-138 159zM191 514q0 -20 4 -35.5t12.5 -31t22 -32.5t32.5 -39q29 19 50 35.5t34.5 33t19.5 34t6 38.5q0 35 -23 60.5t-65 25.5q-43 0 -68 -25.5t-25 -63.5z" />
    <glyph glyph-name="uni0237.sc" horiz-adv-x="396" 
d="M33 0v60h28q50 0 81.5 7.5t49.5 25t24.5 45t6.5 67.5v439h69v-446q0 -105 -53 -151.5t-165 -46.5h-41z" />
    <glyph glyph-name="exclam.sc" horiz-adv-x="281" 
d="M103 644h74l-10 -462h-54zM94 0v86h92v-86h-92z" />
    <glyph glyph-name="exclamdown.sc" horiz-adv-x="281" 
d="M186 558h-92v86h92v-86zM177 0h-74l11 462h53z" />
    <glyph glyph-name="germandbls.sc" horiz-adv-x="1272" 
d="M478 472q-3 26 -12 49t-27 40t-45.5 27t-66.5 10q-69 0 -110 -31.5t-41 -86.5q0 -50 27 -76t90 -36l107 -17q87 -14 123.5 -56.5t36.5 -111.5q0 -89 -61 -142.5t-176 -53.5q-59 0 -103 15.5t-74.5 41.5t-47 61.5t-19.5 74.5h69q3 -26 13.5 -50.5t31.5 -43.5t53 -31
t78 -12q45 0 77 10.5t52.5 28.5t29.5 41.5t9 50.5q0 45 -23 73t-87 39l-109 18q-92 15 -129.5 59t-37.5 109q0 41 16 74.5t45.5 57t70 36.5t89.5 13q52 0 92 -13.5t67.5 -37.5t42 -57t15.5 -73h-66zM1114 472q-3 26 -12 49t-27 40t-45.5 27t-66.5 10q-69 0 -110 -31.5
t-41 -86.5q0 -50 27 -76t90 -36l107 -17q87 -14 123.5 -56.5t36.5 -111.5q0 -89 -61 -142.5t-176 -53.5q-59 0 -103 15.5t-74.5 41.5t-47 61.5t-19.5 74.5h69q3 -26 13.5 -50.5t31.5 -43.5t53 -31t78 -12q45 0 77 10.5t52.5 28.5t29.5 41.5t9 50.5q0 45 -23 73t-87 39
l-109 18q-92 15 -129.5 59t-37.5 109q0 41 16 74.5t45.5 57t70 36.5t89.5 13q52 0 92 -13.5t67.5 -37.5t42 -57t15.5 -73h-66z" />
    <glyph glyph-name="question.sc" horiz-adv-x="526" 
d="M225 173v38q0 27 3.5 44t11 30t20 24t31.5 27l35 30q33 28 49.5 54t16.5 64q0 51 -34.5 82.5t-92.5 31.5q-69 0 -105 -37.5t-38 -110.5h-62q-1 48 14 86.5t42 64.5t65.5 40t83.5 14q50 0 86.5 -14t60.5 -36.5t35.5 -52t11.5 -60.5q0 -32 -8 -56t-21 -43.5t-30 -36
t-35 -32.5l-33 -29q-14 -12 -23 -21.5t-14 -18.5t-6.5 -20t-1.5 -26v-36h-62zM210 91h91v-91h-91v91z" />
    <glyph glyph-name="questiondown.sc" horiz-adv-x="526" 
d="M316 558h-91v91h91v-91zM260 -4q-51 0 -87.5 14t-60 36.5t-34.5 52t-11 60.5q0 32 7.5 56t20.5 43.5t30 36t36 32.5l33 29q15 12 23.5 21t13 18.5t6 20t1.5 25.5v35h62v-37q0 -27 -3 -44t-10.5 -29.5t-20 -24t-31.5 -27.5l-36 -29q-33 -28 -49.5 -54.5t-16.5 -64.5
q0 -51 35 -82.5t93 -31.5q66 0 103.5 37.5t38.5 111.5h63q1 -49 -14 -87t-42.5 -64.5t-66 -40t-83.5 -13.5z" />
    <glyph glyph-name="quotedblleft.sc" horiz-adv-x="362" 
d="M276 439h-83l79 205h51zM124 439h-83l79 205h51z" />
    <glyph glyph-name="space.tab" horiz-adv-x="300" 
 />
    <glyph glyph-name="quoteleft.sc" horiz-adv-x="210" 
d="M124 439h-83l79 205h51z" />
    <glyph glyph-name="quoteright.sc" horiz-adv-x="210" 
d="M91 644h84l-79 -205h-51z" />
    <glyph glyph-name="Lslash.sc" horiz-adv-x="564" 
d="M113 241l-65 -26v59l65 26v344h69v-317l217 86v-59l-217 -86v-208h332v-60h-401v241z" />
    <glyph glyph-name="AEacute.sc" horiz-adv-x="927" 
d="M509 889h78l-86 -158h-54zM433 584h-64l-151 -326h215v326zM99 0h-71l300 644h516v-60h-343v-227h313v-59h-313v-238h347v-60h-415v202h-241z" />
    <glyph glyph-name="Aacute.sc" horiz-adv-x="644" 
d="M355 889h78l-86 -158h-54zM319 578q-1 -4 -8 -29.5t-18 -54.5l-87 -237h227l-86 237q-6 16 -10.5 31t-8.5 27q-4 14 -7 26h-2zM453 201h-268l-73 -201h-69l238 644h81l239 -644h-74z" />
    <glyph glyph-name="Abreve.sc" horiz-adv-x="644" 
d="M319 578q-1 -4 -8 -29.5t-18 -54.5l-87 -237h227l-86 237q-6 16 -10.5 31t-8.5 27q-4 14 -7 26h-2zM453 201h-268l-73 -201h-69l238 644h81l239 -644h-74zM320 726q-30 0 -56 8.5t-45 27t-30 47t-11 69.5h55q0 -53 25.5 -77t64.5 -24t64.5 24t25.5 77h51q0 -41 -11 -69.5
t-30.5 -47t-46 -27t-56.5 -8.5z" />
    <glyph glyph-name="Acircumflex.sc" horiz-adv-x="644" 
d="M473 731h-66l-85 111h-1l-85 -111h-59l111 158h71zM319 578q-1 -4 -8 -29.5t-18 -54.5l-87 -237h227l-86 237q-6 16 -10.5 31t-8.5 27q-4 14 -7 26h-2zM453 201h-268l-73 -201h-69l238 644h81l239 -644h-74z" />
    <glyph glyph-name="Adieresis.sc" horiz-adv-x="644" 
d="M377 835h80v-84h-80v84zM185 835h79v-84h-79v84zM319 578q-1 -4 -8 -29.5t-18 -54.5l-87 -237h227l-86 237q-6 16 -10.5 31t-8.5 27q-4 14 -7 26h-2zM453 201h-268l-73 -201h-69l238 644h81l239 -644h-74z" />
    <glyph glyph-name="Agrave.sc" horiz-adv-x="644" 
d="M319 578q-1 -4 -8 -29.5t-18 -54.5l-87 -237h227l-86 237q-6 16 -10.5 31t-8.5 27q-4 14 -7 26h-2zM453 201h-268l-73 -201h-69l238 644h81l239 -644h-74zM349 731h-54l-87 158h77z" />
    <glyph glyph-name="Amacron.sc" horiz-adv-x="644" 
d="M319 578q-1 -4 -8 -29.5t-18 -54.5l-87 -237h227l-86 237q-6 16 -10.5 31t-8.5 27q-4 14 -7 26h-2zM453 201h-268l-73 -201h-69l238 644h81l239 -644h-74zM182 812h277v-57h-277v57z" />
    <glyph glyph-name="Aogonek.sc" horiz-adv-x="644" 
d="M578 -188q-51 0 -84 20.5t-33 68.5q0 35 22 59t46 37l-76 204h-268l-73 -201h-69l238 644h81l238 -642q-30 -20 -53.5 -42t-23.5 -50q0 -27 19.5 -37t54.5 -11v-50h-19zM319 578q-1 -4 -8.5 -29.5t-17.5 -54.5l-87 -237h227l-86 237q-6 16 -10.5 31t-8.5 27q-4 14 -7 26
h-2z" />
    <glyph glyph-name="Aring.sc" horiz-adv-x="644" 
d="M321 733q-48 0 -75 28t-27 73t28 73t74 28q49 0 76 -28t27 -73t-28 -73t-75 -28zM321 897q-25 0 -39.5 -18t-14.5 -45t14 -44.5t40 -17.5t40.5 17.5t14.5 44.5t-14.5 45t-40.5 18zM319 578q-1 -4 -8 -29.5t-18 -54.5l-87 -237h227l-86 237q-6 16 -10.5 31t-8.5 27
q-4 14 -7 26h-2zM453 201h-268l-73 -201h-69l238 644h81l239 -644h-74z" />
    <glyph glyph-name="uni01FA.sc" horiz-adv-x="644" 
d="M321 733q-48 0 -75 28t-27 73t28 73t74 28q49 0 76 -28t27 -73t-28 -73t-75 -28zM321 897q-25 0 -39.5 -18t-14.5 -45t14 -44.5t40 -17.5t40.5 17.5t14.5 44.5t-14.5 45t-40.5 18zM319 578q-1 -4 -8 -29.5t-18 -54.5l-87 -237h227l-86 237q-6 16 -10.5 31t-8.5 27
q-4 14 -7 26h-2zM453 201h-268l-73 -201h-69l238 644h81l239 -644h-74zM362 1120h81l-91 -133h-57z" />
    <glyph glyph-name="Atilde.sc" horiz-adv-x="644" 
d="M319 578q-1 -4 -8 -29.5t-18 -54.5l-87 -237h227l-86 237q-6 16 -10.5 31t-8.5 27q-4 14 -7 26h-2zM453 201h-268l-73 -201h-69l238 644h81l239 -644h-74zM150 729q0 24 5.5 46t17.5 39.5t30.5 28t44.5 10.5q25 0 45.5 -10.5t38 -23.5t33 -23.5t30.5 -10.5q23 0 34.5 19
t14.5 51h48q0 -23 -6 -45.5t-18 -40t-30.5 -28t-44.5 -10.5q-25 0 -45 10.5t-37.5 23t-33 23t-31.5 10.5q-23 0 -34 -18.5t-15 -50.5h-47z" />
    <glyph glyph-name="Cacute.sc" horiz-adv-x="686" 
d="M398 889h78l-86 -158h-54zM365 597q-54 0 -94.5 -20.5t-68.5 -57t-42 -88t-14 -112.5q0 -63 14.5 -114t42.5 -87t68.5 -55.5t93.5 -19.5q44 0 76 13t53 34t32.5 47.5t14.5 54.5h69q-3 -44 -20.5 -81.5t-49 -65t-76 -43t-101.5 -15.5q-63 0 -116 20t-91.5 61.5t-60 104
t-21.5 146.5q0 80 22 142.5t60.5 105t91.5 64.5t115 22q46 0 90 -12t78.5 -37t55.5 -62t23 -88h-69q-4 26 -15 51.5t-31.5 46t-52.5 33t-77 12.5z" />
    <glyph glyph-name="Ccaron.sc" horiz-adv-x="686" 
d="M213 889h66l85 -110h1l85 110h59l-111 -158h-71zM365 597q-54 0 -94.5 -20.5t-68.5 -57t-42 -88t-14 -112.5q0 -63 14.5 -114t42.5 -87t68.5 -55.5t93.5 -19.5q44 0 76 13t53 34t32.5 47.5t14.5 54.5h69q-3 -44 -20.5 -81.5t-49 -65t-76 -43t-101.5 -15.5q-63 0 -116 20
t-91.5 61.5t-60 104t-21.5 146.5q0 80 22 142.5t60.5 105t91.5 64.5t115 22q46 0 90 -12t78.5 -37t55.5 -62t23 -88h-69q-4 26 -15 51.5t-31.5 46t-52.5 33t-77 12.5z" />
    <glyph glyph-name="Ccedilla.sc" horiz-adv-x="686" 
d="M359 -209q-41 0 -59 18.5t-20 43.5h51q2 -10 9.5 -16.5t21.5 -6.5q33 0 33 39q0 17 -8 27.5t-25 10.5t-27 -12h-48l43 93q-56 5 -103 28t-81 64t-53 100.5t-19 138.5q0 80 22 142.5t60.5 105t91.5 64.5t115 22q46 0 90 -12t78.5 -37t55.5 -62t23 -88h-69q-4 26 -15 51.5
t-31.5 46t-52.5 33t-77 12.5q-54 0 -94.5 -20.5t-68.5 -57t-42 -88t-14 -112.5q0 -63 14.5 -114t42.5 -87t68.5 -55.5t93.5 -19.5q44 0 76 13t53 34t32.5 47.5t14.5 54.5h69q-3 -44 -20 -81t-47.5 -64t-74 -43t-98.5 -17l-27 -57h2q6 5 14.5 8.5t20.5 3.5q32 0 49.5 -19.5
t17.5 -54.5q0 -29 -21 -53t-67 -24z" />
    <glyph glyph-name="Ccircumflex.sc" horiz-adv-x="686" 
d="M516 731h-66l-85 111h-1l-85 -111h-59l111 158h71zM365 597q-54 0 -94.5 -20.5t-68.5 -57t-42 -88t-14 -112.5q0 -63 14.5 -114t42.5 -87t68.5 -55.5t93.5 -19.5q44 0 76 13t53 34t32.5 47.5t14.5 54.5h69q-3 -44 -20.5 -81.5t-49 -65t-76 -43t-101.5 -15.5
q-63 0 -116 20t-91.5 61.5t-60 104t-21.5 146.5q0 80 22 142.5t60.5 105t91.5 64.5t115 22q46 0 90 -12t78.5 -37t55.5 -62t23 -88h-69q-4 26 -15 51.5t-31.5 46t-52.5 33t-77 12.5z" />
    <glyph glyph-name="Cdotaccent.sc" horiz-adv-x="686" 
d="M365 597q-54 0 -94.5 -20.5t-68.5 -57t-42 -88t-14 -112.5q0 -63 14.5 -114t42.5 -87t68.5 -55.5t93.5 -19.5q44 0 76 13t53 34t32.5 47.5t14.5 54.5h69q-3 -44 -20.5 -81.5t-49 -65t-76 -43t-101.5 -15.5q-63 0 -116 20t-91.5 61.5t-60 104t-21.5 146.5q0 80 22 142.5
t60.5 105t91.5 64.5t115 22q46 0 90 -12t78.5 -37t55.5 -62t23 -88h-69q-4 26 -15 51.5t-31.5 46t-52.5 33t-77 12.5zM326 834h76v-79h-76v79z" />
    <glyph glyph-name="Dcaron.sc" horiz-adv-x="701" 
d="M113 644h204q65 0 122 -17.5t99 -55.5t66 -98t24 -144q0 -85 -23.5 -147t-65 -102.5t-97.5 -60t-121 -19.5h-208v644zM315 59q52 0 96 13.5t76.5 44.5t51 82.5t18.5 126.5q0 71 -18.5 120.5t-51 80t-76 44.5t-93.5 14h-136v-526h133zM186 889h66l85 -110h1l85 110h59
l-111 -158h-71z" />
    <glyph glyph-name="Eacute.sc" horiz-adv-x="612" 
d="M357 889h78l-86 -158h-54zM113 644h416v-60h-347v-227h318v-59h-318v-238h351v-60h-420v644z" />
    <glyph glyph-name="Ecaron.sc" horiz-adv-x="612" 
d="M172 889h66l85 -110h1l85 110h59l-111 -158h-71zM113 644h416v-60h-347v-227h318v-59h-318v-238h351v-60h-420v644z" />
    <glyph glyph-name="Ecircumflex.sc" horiz-adv-x="612" 
d="M475 731h-66l-85 111h-1l-85 -111h-59l111 158h71zM113 644h416v-60h-347v-227h318v-59h-318v-238h351v-60h-420v644z" />
    <glyph glyph-name="Edieresis.sc" horiz-adv-x="612" 
d="M379 835h80v-84h-80v84zM187 835h79v-84h-79v84zM113 644h416v-60h-347v-227h318v-59h-318v-238h351v-60h-420v644z" />
    <glyph glyph-name="Edotaccent.sc" horiz-adv-x="612" 
d="M285 834h76v-79h-76v79zM113 644h416v-60h-347v-227h318v-59h-318v-238h351v-60h-420v644z" />
    <glyph glyph-name="Egrave.sc" horiz-adv-x="612" 
d="M351 731h-54l-87 158h77zM113 644h416v-60h-347v-227h318v-59h-318v-238h351v-60h-420v644z" />
    <glyph glyph-name="Emacron.sc" horiz-adv-x="612" 
d="M184 812h277v-57h-277v57zM113 644h416v-60h-347v-227h318v-59h-318v-238h351v-60h-420v644z" />
    <glyph glyph-name="Eogonek.sc" horiz-adv-x="612" 
d="M533 -188h-19q-51 0 -84 20.5t-33 68.5q0 18 7 33.5t17.5 28t24 22t25.5 15.5h-358v644h416v-60h-347v-227h318v-59h-318v-238h351v-60q-28 -18 -51 -40t-23 -50q0 -27 19.5 -37t54.5 -11v-50z" />
    <glyph glyph-name="Gbreve.sc" horiz-adv-x="726" 
d="M371 598q-55 0 -97.5 -19.5t-71 -56t-43 -89t-14.5 -117.5q0 -131 57 -202t162 -71q43 0 79.5 13.5t62 38t40 59.5t14.5 78v30h-194v59h261v-321h-60v99h-3q-11 -23 -29 -43t-43.5 -35.5t-59 -24.5t-76.5 -9q-60 0 -111.5 19t-89.5 59.5t-60 102t-22 147.5q0 81 22 144
t61.5 106t94.5 65.5t121 22.5q102 0 167.5 -48t73.5 -135h-69q-4 31 -19 54.5t-38 40t-52.5 25t-63.5 8.5zM367 726q-30 0 -56 8.5t-45 27t-30 47t-11 69.5h55q0 -53 25.5 -77t64.5 -24t64.5 24t25.5 77h51q0 -41 -11 -69.5t-30.5 -47t-46 -27t-56.5 -8.5z" />
    <glyph glyph-name="Gcircumflex.sc" horiz-adv-x="726" 
d="M520 731h-66l-85 111h-1l-85 -111h-59l111 158h71zM371 598q-55 0 -97.5 -19.5t-71 -56t-43 -89t-14.5 -117.5q0 -131 57 -202t162 -71q43 0 79.5 13.5t62 38t40 59.5t14.5 78v30h-194v59h261v-321h-60v99h-3q-11 -23 -29 -43t-43.5 -35.5t-59 -24.5t-76.5 -9
q-60 0 -111.5 19t-89.5 59.5t-60 102t-22 147.5q0 81 22 144t61.5 106t94.5 65.5t121 22.5q102 0 167.5 -48t73.5 -135h-69q-4 31 -19 54.5t-38 40t-52.5 25t-63.5 8.5z" />
    <glyph glyph-name="Gcommaaccent.sc" horiz-adv-x="726" 
d="M333 -76h73l-55 -135h-45zM371 598q-55 0 -97.5 -19.5t-71 -56t-43 -89t-14.5 -117.5q0 -131 57 -202t162 -71q43 0 79.5 13.5t62 38t40 59.5t14.5 78v30h-194v59h261v-321h-60v99h-3q-11 -23 -29 -43t-43.5 -35.5t-59 -24.5t-76.5 -9q-60 0 -111.5 19t-89.5 59.5
t-60 102t-22 147.5q0 81 22 144t61.5 106t94.5 65.5t121 22.5q102 0 167.5 -48t73.5 -135h-69q-4 31 -19 54.5t-38 40t-52.5 25t-63.5 8.5z" />
    <glyph glyph-name="Gdotaccent.sc" horiz-adv-x="726" 
d="M371 598q-55 0 -97.5 -19.5t-71 -56t-43 -89t-14.5 -117.5q0 -131 57 -202t162 -71q43 0 79.5 13.5t62 38t40 59.5t14.5 78v30h-194v59h261v-321h-60v99h-3q-11 -23 -29 -43t-43.5 -35.5t-59 -24.5t-76.5 -9q-60 0 -111.5 19t-89.5 59.5t-60 102t-22 147.5q0 81 22 144
t61.5 106t94.5 65.5t121 22.5q102 0 167.5 -48t73.5 -135h-69q-4 31 -19 54.5t-38 40t-52.5 25t-63.5 8.5zM330 834h76v-79h-76v79z" />
    <glyph glyph-name="Hcircumflex.sc" horiz-adv-x="723" 
d="M513 731h-66l-85 111h-1l-85 -111h-59l111 158h71zM182 0h-69v644h69v-287h358v287h70v-644h-70v299h-358v-299z" />
    <glyph glyph-name="Iacute.sc" horiz-adv-x="295" 
d="M181 889h78l-86 -158h-54zM113 644h69v-644h-69v644z" />
    <glyph glyph-name="questiondown.uc" horiz-adv-x="535" 
d="M110.026 166.036q0 -63.9961 40.9971 -101.493q40.998 -37.498 112.993 -37.498q77.9951 0 123.992 49.9971t43.998 140.991h64.9951q2 -57.9961 -14.999 -104.493t-47.9971 -78.9951t-74.9951 -49.4971t-95.9941 -16.999q-57.9961 0 -99.9941 15.999
q-41.9971 15.999 -68.9951 42.9971q-26.999 26.998 -39.998 61.4961t-12.999 70.4961q0 37.998 8.49902 66.9961q8.5 28.998 23.499 52.4961q14.999 23.499 34.498 43.498q19.499 19.998 41.4971 39.9971l42.998 38.998q14.999 13.999 24.998 23.498
q9.99902 9.5 16.499 19.999t8.99902 23.999q2.5 13.499 2.5 35.4971v55.9971h62.9961v-62.9961q0 -28.998 -3.99902 -47.9971q-4 -18.999 -13 -33.998q-8.99902 -14.999 -24.998 -29.998t-39.998 -35.998l-44.9971 -38.998q-34.998 -30.998 -52.9961 -64.4961
q-17.999 -33.4971 -17.999 -79.4951zM323.013 765v-93.9941h-93.9941v93.9941h93.9941z" />
    <glyph glyph-name="Icircumflex.sc" horiz-adv-x="295" 
d="M299 731h-66l-85 111h-1l-85 -111h-59l111 158h71zM113 644h69v-644h-69v644z" />
    <glyph glyph-name="Idieresis.sc" horiz-adv-x="295" 
d="M203 835h80v-84h-80v84zM11 835h79v-84h-79v84zM113 644h69v-644h-69v644z" />
    <glyph glyph-name="Igrave.sc" horiz-adv-x="295" 
d="M113 644h69v-644h-69v644zM176 731h-54l-87 158h77z" />
    <glyph glyph-name="Imacron.sc" horiz-adv-x="295" 
d="M113 644h69v-644h-69v644zM9 812h277v-57h-277v57z" />
    <glyph glyph-name="Iogonek.sc" horiz-adv-x="295" 
d="M161 -188q-51 0 -84.5 20.5t-33.5 68.5q0 35 23 59.5t47 37.5v646h69v-640q-14 -9 -27.5 -19t-24.5 -21t-17.5 -24.5t-6.5 -28.5q0 -28 19.5 -38t54.5 -11v-50h-19z" />
    <glyph glyph-name="Itilde.sc" horiz-adv-x="295" 
d="M113 644h69v-644h-69v644zM-23 729q0 24 5.5 46t17.5 39.5t30.5 28t44.5 10.5q25 0 45.5 -10.5t38 -23.5t33 -23.5t30.5 -10.5q23 0 34.5 19t14.5 51h48q0 -23 -6 -45.5t-18 -40t-30.5 -28t-44.5 -10.5q-25 0 -45 10.5t-37.5 23t-33 23t-31.5 10.5q-23 0 -34 -18.5
t-15 -50.5h-47z" />
    <glyph glyph-name="Jcircumflex.sc" horiz-adv-x="396" 
d="M410 731h-66l-85 111h-1l-85 -111h-59l111 158h71zM33 0v60h28q50 0 81.5 7.5t49.5 25t24.5 45t6.5 67.5v439h69v-446q0 -105 -53 -151.5t-165 -46.5h-41z" />
    <glyph glyph-name="Kcommaaccent.sc" horiz-adv-x="644" 
d="M304 -76h73l-55 -135h-45zM182 0h-69v644h69v-344l326 344h85l-259 -273l273 -371h-83l-239 324l-103 -109v-215z" />
    <glyph glyph-name="Lacute.sc" horiz-adv-x="564" 
d="M113 644h69v-584h332v-60h-401v644zM186 889h78l-86 -158h-54z" />
    <glyph glyph-name="Lcaron.sc" horiz-adv-x="564" 
d="M113 644h69v-584h332v-60h-401v644zM274 644h69l-37 -164h-47z" />
    <glyph glyph-name="Lcommaaccent.sc" horiz-adv-x="564" 
d="M113 644h69v-584h332v-60h-401v644zM279 -76h73l-55 -135h-45z" />
    <glyph glyph-name="Nacute.sc" horiz-adv-x="721" 
d="M394 889h78l-86 -158h-54zM113 644h82l308 -484q17 -27 27 -47q5 -11 9 -20h3v551h66v-644h-83l-306 483q-9 14 -16 25.5t-12 21.5q-6 11 -10 21h-2v-551h-66v644z" />
    <glyph glyph-name="Ncaron.sc" horiz-adv-x="721" 
d="M209 889h66l85 -110h1l85 110h59l-111 -158h-71zM113 644h82l308 -484q17 -27 27 -47q5 -11 9 -20h3v551h66v-644h-83l-306 483q-9 14 -16 25.5t-12 21.5q-6 11 -10 21h-2v-551h-66v644z" />
    <glyph glyph-name="Ncommaaccent.sc" horiz-adv-x="721" 
d="M326 -76h73l-55 -135h-45zM113 644h82l308 -484q17 -27 27 -47q5 -11 9 -20h3v551h66v-644h-83l-306 483q-9 14 -16 25.5t-12 21.5q-6 11 -10 21h-2v-551h-66v644z" />
    <glyph glyph-name="Ntilde.sc" horiz-adv-x="721" 
d="M113 644h82l308 -484q17 -27 27 -47q5 -11 9 -20h3v551h66v-644h-83l-306 483q-9 14 -16 25.5t-12 21.5q-6 11 -10 21h-2v-551h-66v644zM190 729q0 24 5.5 46t17.5 39.5t30.5 28t44.5 10.5q25 0 45.5 -10.5t38 -23.5t33 -23.5t30.5 -10.5q23 0 34.5 19t14.5 51h48
q0 -23 -6 -45.5t-18 -40t-30.5 -28t-44.5 -10.5q-25 0 -45 10.5t-37.5 23t-33 23t-31.5 10.5q-23 0 -34 -18.5t-15 -50.5h-47z" />
    <glyph glyph-name="Oacute.sc" horiz-adv-x="728" 
d="M74 319q0 87 24 150t64 104t92.5 60.5t109.5 19.5q58 0 111 -19.5t92.5 -60t63 -104t23.5 -150.5t-23.5 -150t-63.5 -103.5t-93 -59.5t-111 -19t-110.5 19t-92 59.5t-63 103.5t-23.5 150zM363 43q48 0 88 17.5t69.5 52.5t46 86.5t16.5 119.5q0 69 -16.5 121t-45.5 87.5
t-69.5 53t-88.5 17.5q-47 0 -87 -17.5t-69 -52.5t-45.5 -87t-16.5 -122q0 -69 16 -120.5t45 -86t69 -52t88 -17.5zM398 889h78l-86 -158h-54z" />
    <glyph glyph-name="Obreve.sc" horiz-adv-x="728" 
d="M74 319q0 87 24 150t64 104t92.5 60.5t109.5 19.5q58 0 111 -19.5t92.5 -60t63 -104t23.5 -150.5t-23.5 -150t-63.5 -103.5t-93 -59.5t-111 -19t-110.5 19t-92 59.5t-63 103.5t-23.5 150zM363 43q48 0 88 17.5t69.5 52.5t46 86.5t16.5 119.5q0 69 -16.5 121t-45.5 87.5
t-69.5 53t-88.5 17.5q-47 0 -87 -17.5t-69 -52.5t-45.5 -87t-16.5 -122q0 -69 16 -120.5t45 -86t69 -52t88 -17.5zM363 726q-30 0 -56 8.5t-45 27t-30 47t-11 69.5h55q0 -53 25.5 -77t64.5 -24t64.5 24t25.5 77h51q0 -41 -11 -69.5t-30.5 -47t-46 -27t-56.5 -8.5z" />
    <glyph glyph-name="Ocircumflex.sc" horiz-adv-x="728" 
d="M516 731h-66l-85 111h-1l-85 -111h-59l111 158h71zM74 319q0 87 24 150t64 104t92.5 60.5t109.5 19.5q58 0 111 -19.5t92.5 -60t63 -104t23.5 -150.5t-23.5 -150t-63.5 -103.5t-93 -59.5t-111 -19t-110.5 19t-92 59.5t-63 103.5t-23.5 150zM363 43q48 0 88 17.5
t69.5 52.5t46 86.5t16.5 119.5q0 69 -16.5 121t-45.5 87.5t-69.5 53t-88.5 17.5q-47 0 -87 -17.5t-69 -52.5t-45.5 -87t-16.5 -122q0 -69 16 -120.5t45 -86t69 -52t88 -17.5z" />
    <glyph glyph-name="Odieresis.sc" horiz-adv-x="728" 
d="M420 835h80v-84h-80v84zM228 835h79v-84h-79v84zM74 319q0 87 24 150t64 104t92.5 60.5t109.5 19.5q58 0 111 -19.5t92.5 -60t63 -104t23.5 -150.5t-23.5 -150t-63.5 -103.5t-93 -59.5t-111 -19t-110.5 19t-92 59.5t-63 103.5t-23.5 150zM363 43q48 0 88 17.5t69.5 52.5
t46 86.5t16.5 119.5q0 69 -16.5 121t-45.5 87.5t-69.5 53t-88.5 17.5q-47 0 -87 -17.5t-69 -52.5t-45.5 -87t-16.5 -122q0 -69 16 -120.5t45 -86t69 -52t88 -17.5z" />
    <glyph glyph-name="Ograve.sc" horiz-adv-x="728" 
d="M74 319q0 87 24 150t64 104t92.5 60.5t109.5 19.5q58 0 111 -19.5t92.5 -60t63 -104t23.5 -150.5t-23.5 -150t-63.5 -103.5t-93 -59.5t-111 -19t-110.5 19t-92 59.5t-63 103.5t-23.5 150zM363 43q48 0 88 17.5t69.5 52.5t46 86.5t16.5 119.5q0 69 -16.5 121t-45.5 87.5
t-69.5 53t-88.5 17.5q-47 0 -87 -17.5t-69 -52.5t-45.5 -87t-16.5 -122q0 -69 16 -120.5t45 -86t69 -52t88 -17.5zM392 731h-54l-87 158h77z" />
    <glyph glyph-name="Ohungarumlaut.sc" horiz-adv-x="728" 
d="M74 319q0 87 24 150t64 104t92.5 60.5t109.5 19.5q58 0 111 -19.5t92.5 -60t63 -104t23.5 -150.5t-23.5 -150t-63.5 -103.5t-93 -59.5t-111 -19t-110.5 19t-92 59.5t-63 103.5t-23.5 150zM363 43q48 0 88 17.5t69.5 52.5t46 86.5t16.5 119.5q0 69 -16.5 121t-45.5 87.5
t-69.5 53t-88.5 17.5q-47 0 -87 -17.5t-69 -52.5t-45.5 -87t-16.5 -122q0 -69 16 -120.5t45 -86t69 -52t88 -17.5zM464 889h72l-85 -158h-49zM331 889h72l-86 -158h-48z" />
    <glyph glyph-name="Omacron.sc" horiz-adv-x="728" 
d="M74 319q0 87 24 150t64 104t92.5 60.5t109.5 19.5q58 0 111 -19.5t92.5 -60t63 -104t23.5 -150.5t-23.5 -150t-63.5 -103.5t-93 -59.5t-111 -19t-110.5 19t-92 59.5t-63 103.5t-23.5 150zM363 43q48 0 88 17.5t69.5 52.5t46 86.5t16.5 119.5q0 69 -16.5 121t-45.5 87.5
t-69.5 53t-88.5 17.5q-47 0 -87 -17.5t-69 -52.5t-45.5 -87t-16.5 -122q0 -69 16 -120.5t45 -86t69 -52t88 -17.5zM225 812h277v-57h-277v57z" />
    <glyph glyph-name="Oslashacute.sc" horiz-adv-x="728" 
d="M398 889h78l-86 -158h-54zM363 598q-47 0 -87 -17.5t-69 -52t-45.5 -87t-16.5 -122.5q0 -59 10.5 -104.5t30.5 -78.5l320 413q-56 49 -143 49zM363 42q48 0 88.5 17.5t70 52.5t46 87t16.5 120q0 62 -11.5 108.5t-33.5 80.5l-320 -413q28 -27 64 -40t80 -13zM654 319
q0 -87 -23.5 -150t-63.5 -103.5t-93 -59.5t-111 -19q-51 0 -97 14.5t-84 45.5l-53 -68h-64l80 104q-33 41 -52 99.5t-19 136.5q0 87 24 150t64 104t92.5 60.5t109.5 19.5q50 0 95.5 -14t82.5 -43l56 72h65l-84 -108q35 -41 55 -100.5t20 -140.5z" />
    <glyph glyph-name="Otilde.sc" horiz-adv-x="728" 
d="M74 319q0 87 24 150t64 104t92.5 60.5t109.5 19.5q58 0 111 -19.5t92.5 -60t63 -104t23.5 -150.5t-23.5 -150t-63.5 -103.5t-93 -59.5t-111 -19t-110.5 19t-92 59.5t-63 103.5t-23.5 150zM363 43q48 0 88 17.5t69.5 52.5t46 86.5t16.5 119.5q0 69 -16.5 121t-45.5 87.5
t-69.5 53t-88.5 17.5q-47 0 -87 -17.5t-69 -52.5t-45.5 -87t-16.5 -122q0 -69 16 -120.5t45 -86t69 -52t88 -17.5zM193 729q0 24 5.5 46t17.5 39.5t30.5 28t44.5 10.5q25 0 45.5 -10.5t38 -23.5t33 -23.5t30.5 -10.5q23 0 34.5 19t14.5 51h48q0 -23 -6 -45.5t-18 -40
t-30.5 -28t-44.5 -10.5q-25 0 -45 10.5t-37.5 23t-33 23t-31.5 10.5q-23 0 -34 -18.5t-15 -50.5h-47z" />
    <glyph glyph-name="Racute.sc" horiz-adv-x="641" 
d="M351 889h78l-86 -158h-54zM347 327q30 0 57 7.5t46.5 24t31 42t11.5 61.5q0 63 -40 94t-104 31h-167v-260h165zM353 270h-171v-270h-69v644h237q35 0 68 -6.5t62 -22.5q37 -21 60.5 -57.5t23.5 -93.5q0 -41 -12 -72t-31.5 -53t-45 -35.5t-51.5 -20.5v-2l147 -281h-77z
" />
    <glyph glyph-name="Rcaron.sc" horiz-adv-x="641" 
d="M166 889h66l85 -110h1l85 110h59l-111 -158h-71zM347 327q30 0 57 7.5t46.5 24t31 42t11.5 61.5q0 63 -40 94t-104 31h-167v-260h165zM353 270h-171v-270h-69v644h237q35 0 68 -6.5t62 -22.5q37 -21 60.5 -57.5t23.5 -93.5q0 -41 -12 -72t-31.5 -53t-45 -35.5
t-51.5 -20.5v-2l147 -281h-77z" />
    <glyph glyph-name="Rcommaaccent.sc" horiz-adv-x="641" 
d="M283 -76h73l-55 -135h-45zM347 327q30 0 57 7.5t46.5 24t31 42t11.5 61.5q0 63 -40 94t-104 31h-167v-260h165zM353 270h-171v-270h-69v644h237q35 0 68 -6.5t62 -22.5q37 -21 60.5 -57.5t23.5 -93.5q0 -41 -12 -72t-31.5 -53t-45 -35.5t-51.5 -20.5v-2l147 -281h-77z
" />
    <glyph glyph-name="Sacute.sc" horiz-adv-x="636" 
d="M357 889h78l-86 -158h-54zM478 472q-3 26 -12 49t-27 40t-45.5 27t-66.5 10q-69 0 -110 -31.5t-41 -86.5q0 -50 27 -76t90 -36l107 -17q87 -14 123.5 -56.5t36.5 -111.5q0 -89 -61 -142.5t-176 -53.5q-59 0 -103 15.5t-74.5 41.5t-47 61.5t-19.5 74.5h69
q3 -26 13.5 -50.5t31.5 -43.5t53 -31t78 -12q45 0 77 10.5t52.5 28.5t29.5 41.5t9 50.5q0 45 -23 73t-87 39l-109 18q-92 15 -129.5 59t-37.5 109q0 41 16 74.5t45.5 57t70 36.5t89.5 13q52 0 92 -13.5t67.5 -37.5t42 -57t15.5 -73h-66z" />
    <glyph glyph-name="Scaron.sc" horiz-adv-x="636" 
d="M173 889h66l85 -110h1l85 110h59l-111 -158h-71zM478 472q-3 26 -12 49t-27 40t-45.5 27t-66.5 10q-69 0 -110 -31.5t-41 -86.5q0 -50 27 -76t90 -36l107 -17q87 -14 123.5 -56.5t36.5 -111.5q0 -89 -61 -142.5t-176 -53.5q-59 0 -103 15.5t-74.5 41.5t-47 61.5
t-19.5 74.5h69q3 -26 13.5 -50.5t31.5 -43.5t53 -31t78 -12q45 0 77 10.5t52.5 28.5t29.5 41.5t9 50.5q0 45 -23 73t-87 39l-109 18q-92 15 -129.5 59t-37.5 109q0 41 16 74.5t45.5 57t70 36.5t89.5 13q52 0 92 -13.5t67.5 -37.5t42 -57t15.5 -73h-66z" />
    <glyph glyph-name="Scedilla.sc" horiz-adv-x="636" 
d="M318 -209q-41 0 -59 18.5t-20 43.5h51q2 -10 9.5 -16.5t21.5 -6.5q33 0 33 39q0 17 -8 27.5t-25 10.5t-27 -12h-48l43 93q-50 4 -88.5 21t-64.5 43t-40.5 59t-16.5 69h69q3 -26 13.5 -50.5t31.5 -43.5t53 -31t78 -12q45 0 77 10.5t52.5 28.5t29.5 41.5t9 50.5
q0 45 -23 73t-87 39l-109 18q-92 15 -129.5 59t-37.5 109q0 41 16 74.5t45.5 57t70 36.5t89.5 13q52 0 92 -13.5t67.5 -37.5t42 -57t15.5 -73h-66q-3 26 -12 49t-27 40t-45.5 27t-66.5 10q-69 0 -110 -31.5t-41 -86.5q0 -50 27 -76t90 -36l107 -17q87 -14 123.5 -56.5
t36.5 -111.5q0 -89 -60 -142.5t-171 -53.5l-27 -57h2q6 5 14.5 8.5t20.5 3.5q32 0 49.5 -19.5t17.5 -54.5q0 -29 -21 -53t-67 -24z" />
    <glyph glyph-name="Scircumflex.sc" horiz-adv-x="636" 
d="M475 731h-66l-85 111h-1l-85 -111h-59l111 158h71zM478 472q-3 26 -12 49t-27 40t-45.5 27t-66.5 10q-69 0 -110 -31.5t-41 -86.5q0 -50 27 -76t90 -36l107 -17q87 -14 123.5 -56.5t36.5 -111.5q0 -89 -61 -142.5t-176 -53.5q-59 0 -103 15.5t-74.5 41.5t-47 61.5
t-19.5 74.5h69q3 -26 13.5 -50.5t31.5 -43.5t53 -31t78 -12q45 0 77 10.5t52.5 28.5t29.5 41.5t9 50.5q0 45 -23 73t-87 39l-109 18q-92 15 -129.5 59t-37.5 109q0 41 16 74.5t45.5 57t70 36.5t89.5 13q52 0 92 -13.5t67.5 -37.5t42 -57t15.5 -73h-66z" />
    <glyph glyph-name="Scommaaccent.sc" horiz-adv-x="636" 
d="M289 -76h73l-55 -135h-45zM478 472q-3 26 -12 49t-27 40t-45.5 27t-66.5 10q-69 0 -110 -31.5t-41 -86.5q0 -50 27 -76t90 -36l107 -17q87 -14 123.5 -56.5t36.5 -111.5q0 -89 -61 -142.5t-176 -53.5q-59 0 -103 15.5t-74.5 41.5t-47 61.5t-19.5 74.5h69
q3 -26 13.5 -50.5t31.5 -43.5t53 -31t78 -12q45 0 77 10.5t52.5 28.5t29.5 41.5t9 50.5q0 45 -23 73t-87 39l-109 18q-92 15 -129.5 59t-37.5 109q0 41 16 74.5t45.5 57t70 36.5t89.5 13q52 0 92 -13.5t67.5 -37.5t42 -57t15.5 -73h-66z" />
    <glyph glyph-name="Tcaron.sc" horiz-adv-x="587" 
d="M557 585h-229v-585h-69v585h-229v59h527v-59zM143 889h66l85 -110h1l85 110h59l-111 -158h-71z" />
    <glyph glyph-name="Tcommaaccent.sc" horiz-adv-x="587" 
d="M557 585h-229v-585h-69v585h-229v59h527v-59zM259 -76h73l-55 -135h-45z" />
    <glyph glyph-name="Uacute.sc" horiz-adv-x="691" 
d="M379 889h78l-86 -158h-54zM102 644h69v-368q0 -23 0.5 -47.5t3.5 -48t10 -44.5t20 -37q24 -29 60 -42t83 -13t82 13.5t59 42.5q12 15 18.5 36t9.5 44.5t3 48v47.5v368h69v-428q0 -61 -17.5 -104.5t-49.5 -71t-77 -40.5t-100 -13t-100 13t-76.5 40.5t-49 71t-17.5 104.5
v428z" />
    <glyph glyph-name="Ubreve.sc" horiz-adv-x="691" 
d="M102 644h69v-368q0 -23 0.5 -47.5t3.5 -48t10 -44.5t20 -37q24 -29 60 -42t83 -13t82 13.5t59 42.5q12 15 18.5 36t9.5 44.5t3 48v47.5v368h69v-428q0 -61 -17.5 -104.5t-49.5 -71t-77 -40.5t-100 -13t-100 13t-76.5 40.5t-49 71t-17.5 104.5v428zM344 726q-30 0 -56 8.5
t-45 27t-30 47t-11 69.5h55q0 -53 25.5 -77t64.5 -24t64.5 24t25.5 77h51q0 -41 -11 -69.5t-30.5 -47t-46 -27t-56.5 -8.5z" />
    <glyph glyph-name="Ucircumflex.sc" horiz-adv-x="691" 
d="M497 731h-66l-85 111h-1l-85 -111h-59l111 158h71zM102 644h69v-368q0 -23 0.5 -47.5t3.5 -48t10 -44.5t20 -37q24 -29 60 -42t83 -13t82 13.5t59 42.5q12 15 18.5 36t9.5 44.5t3 48v47.5v368h69v-428q0 -61 -17.5 -104.5t-49.5 -71t-77 -40.5t-100 -13t-100 13
t-76.5 40.5t-49 71t-17.5 104.5v428z" />
    <glyph glyph-name="Udieresis.sc" horiz-adv-x="691" 
d="M401 835h80v-84h-80v84zM209 835h79v-84h-79v84zM102 644h69v-368q0 -23 0.5 -47.5t3.5 -48t10 -44.5t20 -37q24 -29 60 -42t83 -13t82 13.5t59 42.5q12 15 18.5 36t9.5 44.5t3 48v47.5v368h69v-428q0 -61 -17.5 -104.5t-49.5 -71t-77 -40.5t-100 -13t-100 13t-76.5 40.5
t-49 71t-17.5 104.5v428z" />
    <glyph glyph-name="Ugrave.sc" horiz-adv-x="691" 
d="M373 731h-54l-87 158h77zM102 644h69v-368q0 -23 0.5 -47.5t3.5 -48t10 -44.5t20 -37q24 -29 60 -42t83 -13t82 13.5t59 42.5q12 15 18.5 36t9.5 44.5t3 48v47.5v368h69v-428q0 -61 -17.5 -104.5t-49.5 -71t-77 -40.5t-100 -13t-100 13t-76.5 40.5t-49 71t-17.5 104.5
v428z" />
    <glyph glyph-name="Uhungarumlaut.sc" horiz-adv-x="691" 
d="M445 889h72l-85 -158h-49zM312 889h72l-86 -158h-48zM102 644h69v-368q0 -23 0.5 -47.5t3.5 -48t10 -44.5t20 -37q24 -29 60 -42t83 -13t82 13.5t59 42.5q12 15 18.5 36t9.5 44.5t3 48v47.5v368h69v-428q0 -61 -17.5 -104.5t-49.5 -71t-77 -40.5t-100 -13t-100 13
t-76.5 40.5t-49 71t-17.5 104.5v428z" />
    <glyph glyph-name="Umacron.sc" horiz-adv-x="691" 
d="M207 812h277v-57h-277v57zM102 644h69v-368q0 -23 0.5 -47.5t3.5 -48t10 -44.5t20 -37q24 -29 60 -42t83 -13t82 13.5t59 42.5q12 15 18.5 36t9.5 44.5t3 48v47.5v368h69v-428q0 -61 -17.5 -104.5t-49.5 -71t-77 -40.5t-100 -13t-100 13t-76.5 40.5t-49 71t-17.5 104.5
v428z" />
    <glyph glyph-name="Uogonek.sc" horiz-adv-x="691" 
d="M102 644h69v-368q0 -23 0.5 -47.5t3.5 -48t10 -44.5t20 -37q24 -29 60 -42t83 -13t82 13.5t59 42.5q12 15 18.5 36t9.5 44.5t3 48v47.5v368h69v-428q0 -97 -43.5 -149.5t-120.5 -71.5q-38 -10 -64 -32t-26 -52q0 -26 18 -37t56 -12v-50h-19q-51 0 -84 20.5t-33 67.5
q0 30 17 51t38 35v1q-52 2 -93.5 16t-71 42t-45.5 70t-16 101v428z" />
    <glyph glyph-name="Uring.sc" horiz-adv-x="691" 
d="M345 733q-48 0 -75 28t-27 73t28 73t74 28q49 0 76 -28t27 -73t-28 -73t-75 -28zM345 897q-25 0 -39.5 -18t-14.5 -45t14 -44.5t40 -17.5t40.5 17.5t14.5 44.5t-14.5 45t-40.5 18zM102 644h69v-368q0 -23 0.5 -47.5t3.5 -48t10 -44.5t20 -37q24 -29 60 -42t83 -13
t82 13.5t59 42.5q12 15 18.5 36t9.5 44.5t3 48v47.5v368h69v-428q0 -61 -17.5 -104.5t-49.5 -71t-77 -40.5t-100 -13t-100 13t-76.5 40.5t-49 71t-17.5 104.5v428z" />
    <glyph glyph-name="Utilde.sc" horiz-adv-x="691" 
d="M102 644h69v-368q0 -23 0.5 -47.5t3.5 -48t10 -44.5t20 -37q24 -29 60 -42t83 -13t82 13.5t59 42.5q12 15 18.5 36t9.5 44.5t3 48v47.5v368h69v-428q0 -61 -17.5 -104.5t-49.5 -71t-77 -40.5t-100 -13t-100 13t-76.5 40.5t-49 71t-17.5 104.5v428zM175 729q0 24 5.5 46
t17.5 39.5t30.5 28t44.5 10.5q25 0 45.5 -10.5t38 -23.5t33 -23.5t30.5 -10.5q23 0 34.5 19t14.5 51h48q0 -23 -6 -45.5t-18 -40t-30.5 -28t-44.5 -10.5q-25 0 -45 10.5t-37.5 23t-33 23t-31.5 10.5q-23 0 -34 -18.5t-15 -50.5h-47z" />
    <glyph glyph-name="Wacute.sc" horiz-adv-x="922" 
d="M226 0l-184 644h70l132 -476q5 -20 9.5 -37t6.5 -29q3 -14 4 -26h2q1 12 4 26q2 12 6 28.5t10 36.5l136 477h77l138 -481q5 -19 9 -35t6 -28q3 -14 5 -25h2q1 11 4 25q5 26 15 62l133 482h67l-184 -644h-75l-135 466q-7 23 -11.5 42t-7.5 33q-4 16 -5 29h-2
q-1 -13 -5 -29q-3 -14 -7.5 -32.5t-11.5 -41.5l-135 -467h-73zM494 889h78l-86 -158h-54z" />
    <glyph glyph-name="Wcircumflex.sc" horiz-adv-x="922" 
d="M612 731h-66l-85 111h-1l-85 -111h-59l111 158h71zM226 0l-184 644h70l132 -476q5 -20 9.5 -37t6.5 -29q3 -14 4 -26h2q1 12 4 26q2 12 6 28.5t10 36.5l136 477h77l138 -481q5 -19 9 -35t6 -28q3 -14 5 -25h2q1 11 4 25q5 26 15 62l133 482h67l-184 -644h-75l-135 466
q-7 23 -11.5 42t-7.5 33q-4 16 -5 29h-2q-1 -13 -5 -29q-3 -14 -7.5 -32.5t-11.5 -41.5l-135 -467h-73z" />
    <glyph glyph-name="Wdieresis.sc" horiz-adv-x="922" 
d="M516 835h80v-84h-80v84zM324 835h79v-84h-79v84zM226 0l-184 644h70l132 -476q5 -20 9.5 -37t6.5 -29q3 -14 4 -26h2q1 12 4 26q2 12 6 28.5t10 36.5l136 477h77l138 -481q5 -19 9 -35t6 -28q3 -14 5 -25h2q1 11 4 25q5 26 15 62l133 482h67l-184 -644h-75l-135 466
q-7 23 -11.5 42t-7.5 33q-4 16 -5 29h-2q-1 -13 -5 -29q-3 -14 -7.5 -32.5t-11.5 -41.5l-135 -467h-73z" />
    <glyph glyph-name="Wgrave.sc" horiz-adv-x="922" 
d="M226 0l-184 644h70l132 -476q5 -20 9.5 -37t6.5 -29q3 -14 4 -26h2q1 12 4 26q2 12 6 28.5t10 36.5l136 477h77l138 -481q5 -19 9 -35t6 -28q3 -14 5 -25h2q1 11 4 25q5 26 15 62l133 482h67l-184 -644h-75l-135 466q-7 23 -11.5 42t-7.5 33q-4 16 -5 29h-2
q-1 -13 -5 -29q-3 -14 -7.5 -32.5t-11.5 -41.5l-135 -467h-73zM488 731h-54l-87 158h77z" />
    <glyph glyph-name="Yacute.sc" horiz-adv-x="592" 
d="M332 889h78l-86 -158h-54zM262 280l-235 364h79l190 -301h2l194 301h73l-234 -360v-284h-69v280z" />
    <glyph glyph-name="Ycircumflex.sc" horiz-adv-x="592" 
d="M450 731h-66l-85 111h-1l-85 -111h-59l111 158h71zM262 280l-235 364h79l190 -301h2l194 301h73l-234 -360v-284h-69v280z" />
    <glyph glyph-name="Ydieresis.sc" horiz-adv-x="592" 
d="M354 835h80v-84h-80v84zM162 835h79v-84h-79v84zM262 280l-235 364h79l190 -301h2l194 301h73l-234 -360v-284h-69v280z" />
    <glyph glyph-name="Ygrave.sc" horiz-adv-x="592" 
d="M262 280l-235 364h79l190 -301h2l194 301h73l-234 -360v-284h-69v280zM326 731h-54l-87 158h77z" />
    <glyph glyph-name="Zacute.sc" horiz-adv-x="599" 
d="M335 889h78l-86 -158h-54zM72 644h467v-53l-399 -532h401v-59h-484v53l400 532h-385v59z" />
    <glyph glyph-name="Zcaron.sc" horiz-adv-x="599" 
d="M150 889h66l85 -110h1l85 110h59l-111 -158h-71zM72 644h467v-53l-399 -532h401v-59h-484v53l400 532h-385v59z" />
    <glyph glyph-name="Zdotaccent.sc" horiz-adv-x="599" 
d="M72 644h467v-53l-399 -532h401v-59h-484v53l400 532h-385v59zM263 834h76v-79h-76v79z" />
    <glyph glyph-name="Ldot.sc" horiz-adv-x="564" 
d="M389 367h82v-80h-82v80zM113 644h69v-584h332v-60h-401v644z" />
    <glyph glyph-name="napostrophe.sc" horiz-adv-x="721" 
d="M113 644h82l308 -484q8 -14 15 -26.5t12 -21.5q5 -11 9 -19h3v551h66v-644h-83l-306 483q-9 14 -16 25.5t-12 21.5q-6 11 -10 21h-2v-551h-66v644z" />
    <glyph glyph-name="Hbar.sc" horiz-adv-x="723" 
d="M540 483h-358v-126h358v126zM182 0h-69v483h-79v48h79v113h69v-113h358v113h70v-113h78v-48h-78v-483h-70v299h-358v-299z" />
    <glyph glyph-name="Idotaccent.sc" horiz-adv-x="295" 
d="M113 644h69v-644h-69v644zM110 834h76v-79h-76v79z" />
    <glyph glyph-name="Ebreve.sc" horiz-adv-x="612" 
d="M113 644h416v-60h-347v-227h318v-59h-318v-238h351v-60h-420v644zM319 726q-30 0 -56 8.5t-45 27t-30 47t-11 69.5h55q0 -53 25.5 -77t64.5 -24t64.5 24t25.5 77h51q0 -41 -11 -69.5t-30.5 -47t-46 -27t-56.5 -8.5z" />
    <glyph glyph-name="yen.tab" 
d="M267 183h-207v54h207v97h-209v55h187l-224 352h81l198 -321h2l201 321h76l-226 -352h184v-55h-203v-97h205v-54h-205v-183h-67v183z" />
    <glyph glyph-name="eight.den" horiz-adv-x="405" 
d="M57 319q0 49 38 83t107 34q70 0 108.5 -34t38.5 -83q0 -40 -22 -65t-51 -34v-2q16 -3 31.5 -11t27.5 -20.5t19.5 -30.5t7.5 -42q0 -53 -42.5 -88t-117.5 -35q-77 0 -118 34.5t-41 88.5q0 23 8 41t20 31t27 21t30 11v2q-28 9 -49.5 34t-21.5 65zM202 391q-35 0 -60 -18.5
t-25 -57.5q0 -38 25.5 -56.5t59.5 -18.5t59.5 18.5t25.5 56.5q0 39 -25 57.5t-60 18.5zM202 36q41 0 70 19t29 60q0 21 -8 36t-21.5 24.5t-31.5 14.5t-38 5q-19 0 -36.5 -5t-31 -14.5t-21.5 -24.5t-8 -36q0 -41 29 -60t68 -19z" />
    <glyph glyph-name="five.den" horiz-adv-x="397" 
d="M290 137q0 48 -27 73t-66 25q-30 0 -51.5 -10t-35.5 -28h-52l20 233h255v-52h-207l-11 -132h1q15 14 39 25t57 11q27 0 52 -8.5t44.5 -26t31.5 -44.5t12 -65q0 -66 -43 -106.5t-118 -40.5q-40 0 -67.5 10.5t-45.5 28t-26.5 39.5t-10.5 45h61q4 -38 28.5 -57t62.5 -19
q18 0 35.5 6t31 18t22 30.5t8.5 44.5z" />
    <glyph glyph-name="four.den" horiz-adv-x="406" 
d="M254 151v214h-2q-3 -6 -7 -13q-4 -6 -9 -14t-12 -18l-128 -169h158zM311 102v-102h-59v102h-218v45l212 283h65v-278h60v-50h-60z" />
    <glyph glyph-name="nine.den" horiz-adv-x="408" 
d="M197 388q-17 0 -34 -5.5t-30.5 -17.5t-21.5 -30t-8 -43q0 -48 26.5 -71.5t67.5 -23.5q42 0 69.5 24.5t27.5 70.5q0 23 -8 41t-21.5 30t-31 18.5t-36.5 6.5zM107 96q7 -29 29 -44t54 -15q57 0 82.5 42.5t26.5 133.5h-2q-14 -26 -42 -45t-70 -19q-27 0 -52.5 8t-45.5 25
t-32.5 43.5t-12.5 62.5q0 32 11.5 59t32 47t49 31t63.5 11q77 0 120 -48.5t43 -155.5q0 -65 -11.5 -110.5t-33.5 -74.5t-54 -42.5t-72 -13.5q-62 0 -98.5 28.5t-41.5 76.5h57z" />
    <glyph glyph-name="one.den" horiz-adv-x="278" 
d="M127 306h-93v41h14q45 0 67 20q11 11 15.5 25.5t5.5 37.5h51v-430h-60v306z" />
    <glyph glyph-name="seven.den" horiz-adv-x="354" 
d="M257 378h-229v52h298v-38l-194 -392h-62z" />
    <glyph glyph-name="six.den" horiz-adv-x="409" 
d="M302 334q-6 22 -26 39t-55 17q-29 0 -50 -13t-35 -36t-20.5 -54.5t-7.5 -68.5h2q16 29 46.5 47.5t72.5 18.5q28 0 53 -8.5t44.5 -26t31 -44t11.5 -62.5q0 -32 -11 -59.5t-31.5 -48t-49.5 -32.5t-66 -12q-34 0 -64 10t-52 34t-34.5 63t-12.5 96q0 122 46.5 182t131.5 60
q33 0 57.5 -8.5t41.5 -23t26 -33t11 -37.5h-60zM211 37q18 0 35 6t31 18.5t22.5 31.5t8.5 44q0 47 -27.5 73.5t-69.5 26.5q-43 0 -70 -26t-27 -71q0 -26 8 -45.5t21.5 -32t31 -19t36.5 -6.5z" />
    <glyph glyph-name="three.den" horiz-adv-x="406" 
d="M165 193v50h42q36 0 57.5 21t21.5 52q0 33 -23.5 52.5t-59.5 19.5q-41 0 -64.5 -20t-25.5 -62h-61q0 25 9.5 48.5t28.5 41.5t47.5 29t66.5 11q68 0 106 -32t38 -83q0 -35 -22 -61.5t-57 -37.5v-1q37 -8 64.5 -33t27.5 -74q0 -25 -11 -47t-31.5 -39t-50 -27t-67.5 -10
q-41 0 -70.5 10.5t-48 28.5t-28 41.5t-10.5 49.5h61q5 -42 32.5 -62t67.5 -20t67 21t27 56q0 40 -25.5 58.5t-64.5 18.5h-44z" />
    <glyph glyph-name="two.den" horiz-adv-x="396" 
d="M35 0v42l159 142q24 21 40.5 37t26.5 31t14 29.5t4 31.5q0 34 -22.5 54.5t-60.5 20.5q-35 0 -62.5 -22t-29.5 -76h-61q1 71 44.5 108.5t109.5 37.5q39 0 66.5 -10t45 -26.5t26 -38.5t8.5 -45q0 -22 -5 -40.5t-17 -37.5t-31 -38.5t-47 -43.5l-121 -105v-1h226v-50h-313z
" />
    <glyph glyph-name="zero.den" horiz-adv-x="433" 
d="M47 213q0 113 46 168t123 55q78 0 124 -55t46 -168q0 -112 -45.5 -167t-124.5 -55t-124 55t-45 167zM216 37q48 0 77 44t29 132q0 89 -28.5 132t-77.5 43q-48 0 -76 -42t-28 -133q0 -90 27.5 -133t76.5 -43z" />
    <glyph glyph-name="zero.num" horiz-adv-x="433" 
d="M47 548q0 113 46 168t123 55q78 0 124 -55t46 -168q0 -112 -45.5 -167t-124.5 -55t-124 55t-45 167zM216 372q48 0 77 44t29 132q0 89 -28.5 132t-77.5 43q-48 0 -76 -42t-28 -133q0 -90 27.5 -133t76.5 -43z" />
    <glyph glyph-name="one.num" horiz-adv-x="278" 
d="M127 641h-93v41h14q45 0 67 20q11 11 15.5 25.5t5.5 37.5h51v-430h-60v306z" />
    <glyph glyph-name="two.num" horiz-adv-x="396" 
d="M35 335v42l159 142q24 21 40.5 37t26.5 31t14 29.5t4 31.5q0 34 -22.5 54.5t-60.5 20.5q-35 0 -62.5 -22t-29.5 -76h-61q1 71 44.5 108.5t109.5 37.5q39 0 66.5 -10t45 -26.5t26 -38.5t8.5 -45q0 -22 -5 -40.5t-17 -37.5t-31 -38.5t-47 -43.5l-121 -105v-1h226v-50h-313z
" />
    <glyph glyph-name="three.num" horiz-adv-x="406" 
d="M165 528v50h42q36 0 57.5 21t21.5 52q0 33 -23.5 52.5t-59.5 19.5q-41 0 -64.5 -20t-25.5 -62h-61q0 25 9.5 48.5t28.5 41.5t47.5 29t66.5 11q68 0 106 -32t38 -83q0 -35 -22 -61.5t-57 -37.5v-1q37 -8 64.5 -33t27.5 -74q0 -25 -11 -47t-31.5 -39t-50 -27t-67.5 -10
q-41 0 -70.5 10.5t-48 28.5t-28 41.5t-10.5 49.5h61q5 -42 32.5 -62t67.5 -20t67 21t27 56q0 40 -25.5 58.5t-64.5 18.5h-44z" />
    <glyph glyph-name="four.num" horiz-adv-x="406" 
d="M254 486v214h-2q-3 -6 -7 -13q-4 -6 -9 -14t-12 -18l-128 -169h158zM311 437v-102h-59v102h-218v45l212 283h65v-278h60v-50h-60z" />
    <glyph glyph-name="five.num" horiz-adv-x="397" 
d="M290 472q0 48 -27 73t-66 25q-30 0 -51.5 -10t-35.5 -28h-52l20 233h255v-52h-207l-11 -132h1q15 14 39 25t57 11q27 0 52 -8.5t44.5 -26t31.5 -44.5t12 -65q0 -66 -43 -106.5t-118 -40.5q-40 0 -67.5 10.5t-45.5 28t-26.5 39.5t-10.5 45h61q4 -38 28.5 -57t62.5 -19
q18 0 35.5 6t31 18t22 30.5t8.5 44.5z" />
    <glyph glyph-name="six.num" horiz-adv-x="409" 
d="M302 669q-6 22 -26 39t-55 17q-29 0 -50 -13t-35 -36t-20.5 -54.5t-7.5 -68.5h2q16 29 46.5 47.5t72.5 18.5q28 0 53 -8.5t44.5 -26t31 -44t11.5 -62.5q0 -32 -11 -59.5t-31.5 -48t-49.5 -32.5t-66 -12q-34 0 -64 10t-52 34t-34.5 63t-12.5 96q0 122 46.5 182t131.5 60
q33 0 57.5 -8.5t41.5 -23t26 -33t11 -37.5h-60zM211 372q18 0 35 6t31 18.5t22.5 31.5t8.5 44q0 47 -27.5 73.5t-69.5 26.5q-43 0 -70 -26t-27 -71q0 -26 8 -45.5t21.5 -32t31 -19t36.5 -6.5z" />
    <glyph glyph-name="seven.num" horiz-adv-x="354" 
d="M257 713h-229v52h298v-38l-194 -392h-62z" />
    <glyph glyph-name="eight.num" horiz-adv-x="405" 
d="M57 654q0 49 38 83t107 34q70 0 108.5 -34t38.5 -83q0 -40 -22 -65t-51 -34v-2q16 -3 31.5 -11t27.5 -20.5t19.5 -30.5t7.5 -42q0 -53 -42.5 -88t-117.5 -35q-77 0 -118 34.5t-41 88.5q0 23 8 41t20 31t27 21t30 11v2q-28 9 -49.5 34t-21.5 65zM202 726q-35 0 -60 -18.5
t-25 -57.5q0 -38 25.5 -56.5t59.5 -18.5t59.5 18.5t25.5 56.5q0 39 -25 57.5t-60 18.5zM202 371q41 0 70 19t29 60q0 21 -8 36t-21.5 24.5t-31.5 14.5t-38 5q-19 0 -36.5 -5t-31 -14.5t-21.5 -24.5t-8 -36q0 -41 29 -60t68 -19z" />
    <glyph glyph-name="nine.num" horiz-adv-x="408" 
d="M197 723q-17 0 -34 -5.5t-30.5 -17.5t-21.5 -30t-8 -43q0 -48 26.5 -71.5t67.5 -23.5q42 0 69.5 24.5t27.5 70.5q0 23 -8 41t-21.5 30t-31 18.5t-36.5 6.5zM107 431q7 -29 29 -44t54 -15q57 0 82.5 42.5t26.5 133.5h-2q-14 -26 -42 -45t-70 -19q-27 0 -52.5 8t-45.5 25
t-32.5 43.5t-12.5 62.5q0 32 11.5 59t32 47t49 31t63.5 11q77 0 120 -48.5t43 -155.5q0 -65 -11.5 -110.5t-33.5 -74.5t-54 -42.5t-72 -13.5q-62 0 -98.5 28.5t-41.5 76.5h57z" />
    <glyph glyph-name="minus.num" horiz-adv-x="408" 
d="M58 571h294v-59h-294v59z" />
    <glyph glyph-name="plus.num" horiz-adv-x="410" 
d="M236 400h-63v113h-119v57h119v112h63v-112h119v-57h-119v-113z" />
    <glyph glyph-name="minus.den" horiz-adv-x="406" 
d="M59 232h290v-49h-290v49z" />
    <glyph glyph-name="plus.den" horiz-adv-x="408" 
d="M229 71h-52v112h-120v48h120v112h52v-112h120v-48h-120v-112z" />
    <glyph glyph-name="parenleft.tab" horiz-adv-x="300" 
d="M225 -130q-22 44 -44 93.5t-40 105.5t-29.5 120.5t-11.5 139.5t11.5 139.5t29.5 121t40 105.5t44 93h56q-20 -46 -39.5 -94t-35 -103t-25 -119.5t-9.5 -142.5t9.5 -142t25 -119t35 -103.5t39.5 -94.5h-56z" />
    <glyph glyph-name="parenright.tab" horiz-adv-x="300" 
d="M20 -130q20 46 39.5 94t35 103t25 119.5t9.5 142.5t-9.5 142t-25 119t-35 103.5t-39.5 94.5h56q22 -44 44 -93.5t40 -105.5t29.5 -120.5t11.5 -139.5t-11.5 -139.5t-29.5 -121t-40 -105.5t-44 -93h-56z" />
    <glyph glyph-name="bracketleft.tab" horiz-adv-x="300" 
d="M110 790h204v-52h-138v-818h138v-52h-204v922z" />
    <glyph glyph-name="bracketright.tab" horiz-adv-x="300" 
d="M190 -132h-204v52h138v818h-138v52h204v-922z" />
    <glyph glyph-name="braceleft.tab" horiz-adv-x="300" 
d="M30 299v61h20q47 0 65 17.5t18 61.5v220q0 71 40.5 102t137.5 31v-50q-40 0 -63 -6t-34 -19t-14 -34.5t-3 -52.5v-179q0 -19 -2.5 -39t-10 -36.5t-22 -28.5t-38.5 -16v-4q24 -4 38.5 -16t22 -28.5t10 -36t2.5 -37.5v-181q0 -31 3 -52.5t14 -34.5t34 -19t63 -6v-50
q-97 0 -137.5 31.5t-40.5 105.5v217q0 44 -18 61.5t-65 17.5h-20z" />
    <glyph glyph-name="braceright.tab" horiz-adv-x="300" 
d="M270 298h-20q-47 0 -65 -17.5t-18 -61.5v-220q0 -71 -40.5 -102t-137.5 -31v50q40 0 63 6t34 19t14 34.5t3 52.5v180q0 19 2.5 38.5t10 36t22 28.5t38.5 16v4q-24 4 -38.5 16t-22 28.5t-10 36t-2.5 37.5v181q0 31 -3 52.5t-14 34.5t-34 19t-63 6v50q97 0 137.5 -31.5
t40.5 -105.5v-217q0 -44 18 -61.5t65 -17.5h20v-61z" />
    <glyph glyph-name="eight.sub" horiz-adv-x="405" 
d="M57 259q0 49 38 83t107 34q70 0 108.5 -34t38.5 -83q0 -40 -22 -65t-51 -34v-2q16 -3 31.5 -11t27.5 -20.5t19.5 -30.5t7.5 -42q0 -53 -42.5 -88t-117.5 -35q-77 0 -118 34.5t-41 88.5q0 23 8 41t20 31t27 21t30 11v2q-28 9 -49.5 34t-21.5 65zM202 331q-35 0 -60 -18.5
t-25 -57.5q0 -38 25.5 -56.5t59.5 -18.5t59.5 18.5t25.5 56.5q0 39 -25 57.5t-60 18.5zM202 -24q41 0 70 19t29 60q0 21 -8 36t-21.5 24.5t-31.5 14.5t-38 5q-19 0 -36.5 -5t-31 -14.5t-21.5 -24.5t-8 -36q0 -41 29 -60t68 -19z" />
    <glyph glyph-name="eight.sup" horiz-adv-x="405" 
d="M57 731q0 49 38 83t107 34q70 0 108.5 -34t38.5 -83q0 -40 -22 -65t-51 -34v-2q16 -3 31.5 -11t27.5 -20.5t19.5 -30.5t7.5 -42q0 -53 -42.5 -88t-117.5 -35q-77 0 -118 34.5t-41 88.5q0 23 8 41t20 31t27 21t30 11v2q-28 9 -49.5 34t-21.5 65zM202 803q-35 0 -60 -18.5
t-25 -57.5q0 -38 25.5 -56.5t59.5 -18.5t59.5 18.5t25.5 56.5q0 39 -25 57.5t-60 18.5zM202 448q41 0 70 19t29 60q0 21 -8 36t-21.5 24.5t-31.5 14.5t-38 5q-19 0 -36.5 -5t-31 -14.5t-21.5 -24.5t-8 -36q0 -41 29 -60t68 -19z" />
    <glyph glyph-name="five.sub" horiz-adv-x="397" 
d="M290 77q0 48 -27 73t-66 25q-30 0 -51.5 -10t-35.5 -28h-52l20 233h255v-52h-207l-11 -132h1q15 14 39 25t57 11q27 0 52 -8.5t44.5 -26t31.5 -44.5t12 -65q0 -66 -43 -106.5t-118 -40.5q-40 0 -67.5 10.5t-45.5 28t-26.5 39.5t-10.5 45h61q4 -38 28.5 -57t62.5 -19
q18 0 35.5 6t31 18t22 30.5t8.5 44.5z" />
    <glyph glyph-name="five.sup" horiz-adv-x="397" 
d="M290 549q0 48 -27 73t-66 25q-30 0 -51.5 -10t-35.5 -28h-52l20 233h255v-52h-207l-11 -132h1q15 14 39 25t57 11q27 0 52 -8.5t44.5 -26t31.5 -44.5t12 -65q0 -66 -43 -106.5t-118 -40.5q-40 0 -67.5 10.5t-45.5 28t-26.5 39.5t-10.5 45h61q4 -38 28.5 -57t62.5 -19
q18 0 35.5 6t31 18t22 30.5t8.5 44.5z" />
    <glyph glyph-name="four.sub" horiz-adv-x="406" 
d="M254 91v214h-2q-3 -6 -7 -13q-4 -6 -9 -14t-12 -18l-128 -169h158zM311 42v-102h-59v102h-218v45l212 283h65v-278h60v-50h-60z" />
    <glyph glyph-name="four.sup" horiz-adv-x="406" 
d="M254 563v214h-2q-3 -6 -7 -13q-4 -6 -9 -14t-12 -18l-128 -169h158zM311 514v-102h-59v102h-218v45l212 283h65v-278h60v-50h-60z" />
    <glyph glyph-name="minus.sub" horiz-adv-x="406" 
d="M59 172h290v-49h-290v49z" />
    <glyph glyph-name="minus.sup" horiz-adv-x="406" 
d="M59 616h290v-49h-290v49z" />
    <glyph glyph-name="nine.sub" horiz-adv-x="408" 
d="M197 328q-17 0 -34 -5.5t-30.5 -17.5t-21.5 -30t-8 -43q0 -48 26.5 -71.5t67.5 -23.5q42 0 69.5 24.5t27.5 70.5q0 23 -8 41t-21.5 30t-31 18.5t-36.5 6.5zM107 36q7 -29 29 -44t54 -15q57 0 82.5 42.5t26.5 133.5h-2q-14 -26 -42 -45t-70 -19q-27 0 -52.5 8t-45.5 25
t-32.5 43.5t-12.5 62.5q0 32 11.5 59t32 47t49 31t63.5 11q77 0 120 -48.5t43 -155.5q0 -65 -11.5 -110.5t-33.5 -74.5t-54 -42.5t-72 -13.5q-62 0 -98.5 28.5t-41.5 76.5h57z" />
    <glyph glyph-name="nine.sup" horiz-adv-x="408" 
d="M197 800q-17 0 -34 -5.5t-30.5 -17.5t-21.5 -30t-8 -43q0 -48 26.5 -71.5t67.5 -23.5q42 0 69.5 24.5t27.5 70.5q0 23 -8 41t-21.5 30t-31 18.5t-36.5 6.5zM107 508q7 -29 29 -44t54 -15q57 0 82.5 42.5t26.5 133.5h-2q-14 -26 -42 -45t-70 -19q-27 0 -52.5 8t-45.5 25
t-32.5 43.5t-12.5 62.5q0 32 11.5 59t32 47t49 31t63.5 11q77 0 120 -48.5t43 -155.5q0 -65 -11.5 -110.5t-33.5 -74.5t-54 -42.5t-72 -13.5q-62 0 -98.5 28.5t-41.5 76.5h57z" />
    <glyph glyph-name="one.sub" horiz-adv-x="278" 
d="M127 246h-93v41h14q45 0 67 20q11 11 15.5 25.5t5.5 37.5h51v-430h-60v306z" />
    <glyph glyph-name="one.sup" horiz-adv-x="278" 
d="M127 718h-93v41h14q45 0 67 20q11 11 15.5 25.5t5.5 37.5h51v-430h-60v306z" />
    <glyph glyph-name="plus.sub" horiz-adv-x="408" 
d="M229 11h-52v112h-120v48h120v112h52v-112h120v-48h-120v-112z" />
    <glyph glyph-name="plus.sup" horiz-adv-x="408" 
d="M229 455h-52v112h-120v48h120v112h52v-112h120v-48h-120v-112z" />
    <glyph glyph-name="seven.sub" horiz-adv-x="354" 
d="M257 318h-229v52h298v-38l-194 -392h-62z" />
    <glyph glyph-name="seven.sup" horiz-adv-x="354" 
d="M257 790h-229v52h298v-38l-194 -392h-62z" />
    <glyph glyph-name="six.sub" horiz-adv-x="409" 
d="M302 274q-6 22 -26 39t-55 17q-29 0 -50 -13t-35 -36t-20.5 -54.5t-7.5 -68.5h2q16 29 46.5 47.5t72.5 18.5q28 0 53 -8.5t44.5 -26t31 -44t11.5 -62.5q0 -32 -11 -59.5t-31.5 -48t-49.5 -32.5t-66 -12q-34 0 -64 10t-52 34t-34.5 63t-12.5 96q0 122 46.5 182t131.5 60
q33 0 57.5 -8.5t41.5 -23t26 -33t11 -37.5h-60zM211 -23q18 0 35 6t31 18.5t22.5 31.5t8.5 44q0 47 -27.5 73.5t-69.5 26.5q-43 0 -70 -26t-27 -71q0 -26 8 -45.5t21.5 -32t31 -19t36.5 -6.5z" />
    <glyph glyph-name="six.sup" horiz-adv-x="409" 
d="M302 746q-6 22 -26 39t-55 17q-29 0 -50 -13t-35 -36t-20.5 -54.5t-7.5 -68.5h2q16 29 46.5 47.5t72.5 18.5q28 0 53 -8.5t44.5 -26t31 -44t11.5 -62.5q0 -32 -11 -59.5t-31.5 -48t-49.5 -32.5t-66 -12q-34 0 -64 10t-52 34t-34.5 63t-12.5 96q0 122 46.5 182t131.5 60
q33 0 57.5 -8.5t41.5 -23t26 -33t11 -37.5h-60zM211 449q18 0 35 6t31 18.5t22.5 31.5t8.5 44q0 47 -27.5 73.5t-69.5 26.5q-43 0 -70 -26t-27 -71q0 -26 8 -45.5t21.5 -32t31 -19t36.5 -6.5z" />
    <glyph glyph-name="three.sub" horiz-adv-x="406" 
d="M165 133v50h42q36 0 57.5 21t21.5 52q0 33 -23.5 52.5t-59.5 19.5q-41 0 -64.5 -20t-25.5 -62h-61q0 25 9.5 48.5t28.5 41.5t47.5 29t66.5 11q68 0 106 -32t38 -83q0 -35 -22 -61.5t-57 -37.5v-1q37 -8 64.5 -33t27.5 -74q0 -25 -11 -47t-31.5 -39t-50 -27t-67.5 -10
q-41 0 -70.5 10.5t-48 28.5t-28 41.5t-10.5 49.5h61q5 -42 32.5 -62t67.5 -20t67 21t27 56q0 40 -25.5 58.5t-64.5 18.5h-44z" />
    <glyph glyph-name="three.sup" horiz-adv-x="406" 
d="M165 605v50h42q36 0 57.5 21t21.5 52q0 33 -23.5 52.5t-59.5 19.5q-41 0 -64.5 -20t-25.5 -62h-61q0 25 9.5 48.5t28.5 41.5t47.5 29t66.5 11q68 0 106 -32t38 -83q0 -35 -22 -61.5t-57 -37.5v-1q37 -8 64.5 -33t27.5 -74q0 -25 -11 -47t-31.5 -39t-50 -27t-67.5 -10
q-41 0 -70.5 10.5t-48 28.5t-28 41.5t-10.5 49.5h61q5 -42 32.5 -62t67.5 -20t67 21t27 56q0 40 -25.5 58.5t-64.5 18.5h-44z" />
    <glyph glyph-name="two.sub" horiz-adv-x="396" 
d="M35 -60v42l159 142q24 21 40.5 37t26.5 31t14 29.5t4 31.5q0 34 -22.5 54.5t-60.5 20.5q-35 0 -62.5 -22t-29.5 -76h-61q1 71 44.5 108.5t109.5 37.5q39 0 66.5 -10t45 -26.5t26 -38.5t8.5 -45q0 -22 -5 -40.5t-17 -37.5t-31 -38.5t-47 -43.5l-121 -105v-1h226v-50h-313z
" />
    <glyph glyph-name="two.sup" horiz-adv-x="396" 
d="M35 412v42l159 142q24 21 40.5 37t26.5 31t14 29.5t4 31.5q0 34 -22.5 54.5t-60.5 20.5q-35 0 -62.5 -22t-29.5 -76h-61q1 71 44.5 108.5t109.5 37.5q39 0 66.5 -10t45 -26.5t26 -38.5t8.5 -45q0 -22 -5 -40.5t-17 -37.5t-31 -38.5t-47 -43.5l-121 -105v-1h226v-50h-313z
" />
    <glyph glyph-name="zero.sub" horiz-adv-x="433" 
d="M47 153q0 113 46 168t123 55q78 0 124 -55t46 -168q0 -112 -45.5 -167t-124.5 -55t-124 55t-45 167zM216 -23q48 0 77 44t29 132q0 89 -28.5 132t-77.5 43q-48 0 -76 -42t-28 -133q0 -90 27.5 -133t76.5 -43z" />
    <glyph glyph-name="zero.sup" horiz-adv-x="433" 
d="M47 625q0 113 46 168t123 55q78 0 124 -55t46 -168q0 -112 -45.5 -167t-124.5 -55t-124 55t-45 167zM216 449q48 0 77 44t29 132q0 89 -28.5 132t-77.5 43q-48 0 -76 -42t-28 -133q0 -90 27.5 -133t76.5 -43z" />
    <glyph glyph-name="Q.old" horiz-adv-x="816" 
d="M549 13q-66 -29 -142 -29q-68 0 -129 23t-107.5 71t-74 122.5t-27.5 178.5t28 179t74.5 123.5t107.5 71.5t128 23t129 -23t108.5 -71.5t74.5 -123.5t28 -179q0 -124 -40 -206.5t-104 -129.5l77 -116l-51 -33zM143 379q0 -84 19.5 -147t54.5 -105.5t83.5 -64t106.5 -21.5
q61 0 109 21l-78 117l52 34l79 -119q49 41 76.5 111.5t27.5 173.5q0 84 -20 147.5t-55.5 106.5t-84 64.5t-106.5 21.5q-57 0 -105.5 -21t-83.5 -63.5t-55 -106.5t-20 -149z" />
    <glyph glyph-name="Q.scold" horiz-adv-x="728" 
d="M485 12q-56 -25 -122 -25q-58 0 -110.5 19t-92 59.5t-63 103.5t-23.5 150t24 150t64 104t92.5 60.5t109.5 19.5q58 0 111 -19.5t92.5 -60t63 -104t23.5 -150.5q0 -103 -32 -171t-86 -107l68 -101l-48 -32zM145 319q0 -69 16 -120.5t45 -86.5t69 -52.5t88 -17.5
q50 0 90 17l-69 102l48 33l71 -104q38 33 59 90.5t21 138.5q0 69 -16.5 121t-45.5 87.5t-69.5 53t-88.5 17.5q-47 0 -87 -17.5t-69 -52.5t-45.5 -87t-16.5 -122z" />
    <glyph glyph-name="Euro.tab" 
d="M573 204q-3 -47 -19 -87.5t-44 -70t-67.5 -46t-89.5 -16.5q-113 0 -172 74.5t-74 204.5h-80v57h75q-1 12 -1 24v24v24t1 23h-76v56h81q8 64 27.5 116t50 89t73 56.5t97.5 19.5q42 0 80.5 -13.5t68 -41t48.5 -69t22 -96.5h-69q-2 31 -12 60t-28 52t-45.5 37t-64.5 14
q-44 0 -75.5 -17.5t-52.5 -47.5t-33 -71t-18 -88h237v-56h-241q-1 -11 -1 -23v-24v-24t1 -24h243v-57h-238q6 -49 18.5 -90t33.5 -71t51.5 -46.5t71.5 -16.5q38 0 65.5 13t46 35.5t29 52.5t13.5 64h67z" />
    <glyph glyph-name="dollar.tab" 
d="M274 694q-68 -6 -104 -45t-36 -96q0 -65 35.5 -96.5t95.5 -41.5l9 -2v281zM333 53q41 4 69.5 17t46.5 32.5t26 44.5t8 52q0 54 -32 89t-109 49l-15 3v-288zM274 -116v111q-58 3 -99 20t-68.5 46t-41.5 68t-18 86h67q3 -29 11.5 -57t26.5 -50.5t47.5 -37.5t74.5 -18v297
l-18 3q-39 7 -73.5 21t-60 38t-40.5 59t-15 83q0 40 14.5 74.5t41.5 60.5t65.5 42t85.5 19v90h53v-90q102 -8 153.5 -63t55.5 -145h-68q-2 27 -10 53t-24.5 46.5t-42.5 34.5t-64 18v-288l27 -5q105 -17 151.5 -67t46.5 -131q0 -42 -14 -78t-41.5 -63.5t-70 -44.5t-99.5 -21
v-111h-53z" />
    <glyph glyph-name="dieresis.uc" horiz-adv-x="369" 
d="M253 904h78v-84h-78v84zM37 904h78v-84h-78v84z" />
    <glyph glyph-name="zero.tab" 
d="M48 368q0 193 67.5 288.5t184.5 95.5q57 0 103.5 -24t79.5 -72t51 -120t18 -168q0 -193 -67.5 -288.5t-184.5 -95.5t-184.5 96t-67.5 288zM300 41q85 0 132 86.5t47 239.5q0 158 -45.5 242.5t-133.5 84.5q-87 0 -133 -82t-46 -245q0 -156 45.5 -241t133.5 -85z" />
    <glyph glyph-name="one.tab" 
d="M136 0v58h162v511h-155v53h39q35 0 59 6t40 20t21.5 36.5t6.5 60.5h59v-687h140v-58h-372z" />
    <glyph glyph-name="nine.tab" 
d="M296 694q-31 0 -61.5 -10.5t-54.5 -32t-39 -55.5t-15 -82q0 -43 13 -76.5t36 -56t53.5 -34.5t65.5 -12q36 0 67.5 11.5t55 33.5t36.5 54.5t13 75.5q0 45 -14 79t-37.5 57.5t-54.5 35.5t-64 12zM137 154q9 -49 49 -81.5t97 -32.5q106 0 149.5 85.5t43.5 261.5h-2
q-23 -55 -74.5 -83.5t-117.5 -28.5q-39 0 -79.5 14t-73.5 43t-54 73.5t-21 106.5q0 52 17.5 96t50 75.5t77.5 49.5t99 18q58 0 104 -19.5t78 -60t49 -104.5t17 -152q0 -116 -15.5 -198t-48 -133.5t-82 -75.5t-116.5 -24q-86 0 -144 43t-70 127h67z" />
    <glyph glyph-name="eight.tab" 
d="M74 553q0 42 15.5 78.5t45 63t71 42t94.5 15.5q52 0 94 -15.5t71 -42t44.5 -63t15.5 -78.5q0 -35 -11 -63t-29 -50t-41.5 -36.5t-48.5 -21.5v-2q26 -5 53 -18.5t49 -37t36 -56t14 -75.5q0 -45 -17 -83t-49.5 -66t-78 -44t-102.5 -16t-103 16t-78 43.5t-49 66t-17 83.5
q0 43 14.5 76t37 56t49.5 36.5t51 18.5v2q-26 7 -49.5 22t-41.5 37t-29 50t-11 62zM300 696q-31 0 -59 -8.5t-49.5 -26t-34 -44.5t-12.5 -65t13 -65t34.5 -44.5t49.5 -26t58 -8.5q29 0 56.5 8.5t49.5 26t35 44.5t13 65t-13 65t-34.5 44.5t-49.5 26t-57 8.5zM300 39
q36 0 68 9.5t56 28.5t38 48t14 68q0 40 -15 69.5t-39.5 49.5t-56 30t-65.5 10q-33 0 -65 -10t-56.5 -30t-39.5 -49.5t-15 -69.5t14.5 -69t38.5 -48t56 -28t67 -9z" />
    <glyph glyph-name="seven.tab" 
d="M471 678h-419v63h498v-47l-332 -694h-73z" />
    <glyph glyph-name="six.tab" 
d="M466 583q-8 49 -43 81.5t-99 32.5q-55 0 -92 -28t-60.5 -75t-34 -109t-11.5 -131h2q25 57 78 87.5t121 30.5q42 0 82.5 -13.5t72.5 -42t51.5 -73.5t19.5 -107q0 -55 -17 -101.5t-49 -80t-77.5 -52t-102.5 -18.5q-53 0 -98.5 18t-79.5 58t-53.5 103.5t-19.5 155.5
q0 215 68 324t200 109q96 0 148 -46t61 -123h-67zM310 43q37 0 68.5 12.5t54.5 36t36 58t13 78.5q0 45 -13 79.5t-36 57.5t-54 35t-67 12q-37 0 -69 -11t-55.5 -33.5t-37 -56.5t-13.5 -79q0 -47 15 -82.5t39 -59t55 -35.5t64 -12z" />
    <glyph glyph-name="five.tab" 
d="M133 199q8 -78 53.5 -117t116.5 -39q31 0 62.5 10t57 32.5t41 59.5t15.5 90q0 48 -13.5 83.5t-37 58.5t-55 34t-66.5 11q-49 0 -89 -18t-65 -53h-59l22 390h394v-61h-333l-13 -259h2q20 23 59.5 42t93.5 19q42 0 83 -12.5t74 -41.5t53.5 -76t20.5 -116
q0 -60 -18.5 -106.5t-51.5 -78.5t-79 -49t-101 -17q-59 0 -102 18t-72 48t-44 68.5t-18 79.5h69z" />
    <glyph glyph-name="space_uni0326.alt" horiz-adv-x="369" 
d="M207 641h-73l56 132h43z" />
    <glyph glyph-name="four.tab" 
d="M388 246v406h-2q-5 -10 -12 -22q-6 -11 -14.5 -25.5t-20.5 -31.5l-223 -327h272zM456 186v-186h-68v186h-345v57l343 498h70v-494h100v-61h-100z" />
    <glyph glyph-name="three.tab" 
d="M269 346v63h36q36 0 63.5 12t46 32.5t28 46.5t9.5 54q0 63 -39.5 101.5t-109.5 38.5q-72 0 -115.5 -40t-46.5 -126h-67q0 46 14.5 87t43.5 71.5t72.5 48t100.5 17.5q49 0 89 -14t68.5 -39t44 -61t15.5 -79q0 -36 -11.5 -65t-29.5 -51t-41 -37t-45 -24v-1q25 -6 51.5 -19
t48 -35t35 -54.5t13.5 -77.5q0 -43 -17 -81.5t-49 -67t-77.5 -45t-101.5 -16.5q-65 0 -110.5 18.5t-74.5 49t-43 70t-15 82.5h68q8 -81 55.5 -121.5t125.5 -40.5q36 0 67 11t53.5 31t35.5 48t13 61q0 38 -13 66.5t-35.5 47.5t-53 28.5t-66.5 9.5h-36z" />
    <glyph glyph-name="uni021A.sc" horiz-adv-x="587" 
d="M557 585h-229v-585h-69v585h-229v59h527v-59zM259 -76h73l-55 -135h-45z" />
    <glyph glyph-name="two.tab" 
d="M73 522q0 55 18.5 97.5t50.5 72t74.5 45t90.5 15.5q58 0 100.5 -17t70 -44.5t40.5 -62.5t13 -72q0 -39 -9 -71.5t-28 -63.5t-49 -64t-72 -73l-230 -220v-2h395v-62h-485v60l257 251q35 34 63 62.5t47 56t29 57t10 66.5q0 63 -40.5 102t-110.5 39q-32 0 -61.5 -10.5
t-52 -31.5t-36 -53.5t-13.5 -76.5h-72z" />
    </font>
</defs>
</svg>
