<?xml version="1.0" standalone="no"?>
<!DOCTYPE svg PUBLIC "-//W3C//DTD SVG 1.1//EN" "http://www.w3.org/Graphics/SVG/1.1/DTD/svg11.dtd" >
<svg xmlns="http://www.w3.org/2000/svg" xmlns:xlink="http://www.w3.org/1999/xlink" version="1.1">
<metadata>
Created by FontForge 20190801 at Tue Oct 23 19:14:36 2018
 By www-data
Copyright (c)2014 Commercial Type.
</metadata>
<defs>
<font id="AtlasGroteskBoldWeb" horiz-adv-x="600" >
  <font-face 
    font-family="AtlasGroteskBoldWeb"
    font-weight="700"
    font-stretch="normal"
    units-per-em="1000"
    panose-1="0 0 0 0 0 0 0 0 0 0"
    ascent="800"
    descent="-200"
    x-height="536"
    cap-height="765"
    bbox="-212 -232 1261 1202"
    underline-thickness="50"
    underline-position="-100"
    unicode-range="U+000D-FB02"
  />
<missing-glyph horiz-adv-x="500" 
 />
    <glyph glyph-name="f_f" unicode="ff" horiz-adv-x="735" 
d="M251 0h-155v426h-77v110h77v64q0 54 14 89.5t39 57t60.5 30.5t79.5 9q31 0 52.5 -2.5t25.5 -3.5v-111q-2 1 -14 2.5t-30 1.5q-35 0 -53.5 -17.5t-18.5 -62.5v-57h209v72q0 53 14 89t39 57.5t60.5 30.5t79.5 9q31 0 52.5 -2.5t25.5 -3.5v-111q-2 1 -14 2t-30 1
q-35 0 -53.5 -17t-18.5 -63v-64h105v-110h-105v-426h-155v426h-209v-426z" />
    <glyph glyph-name="fi" unicode="fi" horiz-adv-x="665" 
d="M437 773h161v-144h-161v144zM438 536h159v-536h-159v536zM250 0h-155v426h-76v110h76v72q0 53 14 89t38.5 57.5t59.5 30.5t77 9q32 0 51 -2.5t24 -3.5v-111q-3 1 -14 2t-27 1q-32 0 -50 -17t-18 -63v-64h103v-110h-103v-426z" />
    <glyph glyph-name="fl" unicode="fl" horiz-adv-x="665" 
d="M438 788h159v-788h-159v788zM250 0h-155v426h-76v110h76v72q0 53 14 89t38.5 57.5t59.5 30.5t77 9q32 0 51 -2.5t24 -3.5v-111q-3 1 -14 2t-27 1q-32 0 -50 -17t-18 -63v-64h103v-110h-103v-426z" />
    <glyph glyph-name=".notdef" horiz-adv-x="500" 
 />
    <glyph glyph-name=".null" horiz-adv-x="0" 
 />
    <glyph glyph-name="nonmarkingreturn" unicode="&#xd;" horiz-adv-x="228" 
 />
    <glyph glyph-name="NULL" horiz-adv-x="0" 
 />
    <glyph glyph-name="NULL" horiz-adv-x="0" 
 />
    <glyph glyph-name="space" unicode=" " horiz-adv-x="228" 
 />
    <glyph glyph-name="exclam" unicode="!" horiz-adv-x="330" 
d="M73 788h184l-33 -545h-119zM77 0v152h175v-152h-175z" />
    <glyph glyph-name="quotedbl" unicode="&#x22;" horiz-adv-x="481" 
d="M273 765h142l-25 -261h-97zM66 765h142l-24 -261h-98z" />
    <glyph glyph-name="numbersign" unicode="#" horiz-adv-x="667" 
d="M377 373l21 142h-111l-21 -142h111zM161 278h-107v95h122l20 142h-112v95h125l24 155h90l-22 -155h109l24 155h92l-24 -155h112v-95h-125l-20 -142h115v-95h-130l-25 -179h-92l25 179h-110l-26 -179h-90z" />
    <glyph glyph-name="dollar" unicode="$" horiz-adv-x="663" 
d="M294 635q-49 -7 -70 -31.5t-21 -55.5q0 -75 91 -93v180zM366 108q53 7 76 33t23 63q0 41 -25 61t-76 31v-188h2zM294 -116v105q-119 8 -186.5 65.5t-73.5 160.5h156q5 -41 29.5 -69.5t74.5 -36.5v200l-34 6q-48 8 -87.5 24t-67.5 41.5t-43.5 63t-15.5 88.5q0 43 17 80
t48.5 65.5t77.5 46.5t105 23v81h70v-81q60 -5 104.5 -23t74.5 -46.5t46 -65t20 -77.5h-156q-2 32 -23 60.5t-66 38.5v-191l37 -6q223 -37 223 -208q0 -107 -66.5 -169.5t-193.5 -70.5v-105h-70z" />
    <glyph glyph-name="percent" unicode="%" horiz-adv-x="918" 
d="M672 781h114l-534 -821h-114zM230 381q-36 0 -68 11.5t-56 34t-37.5 56.5t-13.5 79t14.5 79t38.5 56.5t55.5 33.5t66.5 11q36 0 68 -11t56 -33.5t38.5 -56.5t14.5 -79t-14.5 -79t-38.5 -56.5t-56 -34t-68 -11.5zM229 466q32 0 50.5 24t18.5 72t-18.5 72.5t-50.5 24.5
t-49.5 -23.5t-17.5 -73.5q0 -48 17.5 -72t49.5 -24zM686 -7q-36 0 -68 11.5t-56 34t-37.5 56.5t-13.5 79t14 79t38 56.5t56 33.5t67 11q36 0 68 -11t56 -33.5t38 -56.5t14 -79t-14 -79t-38 -56.5t-56 -34t-68 -11.5zM685 78q31 0 50 24t19 72t-19 72.5t-50 24.5
q-32 0 -50 -23.5t-18 -73.5q0 -48 18 -72t50 -24z" />
    <glyph glyph-name="ampersand" unicode="&#x26;" horiz-adv-x="769" 
d="M266 600q0 -32 14.5 -58t47.5 -61q43 30 69 60t26 69q0 34 -21 55.5t-56 21.5q-38 0 -59 -24.5t-21 -62.5zM268 343q-31 -23 -50.5 -51t-19.5 -70q0 -57 31.5 -89t91.5 -32q38 0 68 14.5t55 40.5l-172 190zM692 -1q-29 0 -51.5 3.5t-42 12t-37 22t-37.5 33.5
q-42 -40 -95 -63t-122 -23q-136 0 -199.5 60t-63.5 162q0 69 38 120.5t121 101.5q-20 21 -35 41t-24.5 40t-14 42.5t-4.5 49.5q0 39 15 73t43.5 59t69.5 39.5t94 14.5q49 0 88 -12.5t66 -34.5t41.5 -52.5t14.5 -66.5q0 -34 -11.5 -63.5t-32 -55.5t-49 -50.5t-61.5 -48.5
l117 -128q14 32 27 67t25 70h136q-21 -58 -45 -118.5t-56 -115.5q18 -20 30.5 -31t25 -16.5t27.5 -7t38 -1.5v-123h-36z" />
    <glyph glyph-name="quotesingle" unicode="'" horiz-adv-x="275" 
d="M66 765h142l-24 -261h-98z" />
    <glyph glyph-name="parenleft" unicode="(" horiz-adv-x="358" 
d="M229 -130q-27 37 -55.5 84.5t-52 104.5t-38.5 124.5t-15 145.5q0 79 15 146.5t38.5 124.5t52 103.5t55.5 84.5h114q-26 -46 -50 -96.5t-42 -107t-29 -120t-11 -135.5q0 -71 11 -134.5t29 -120t42 -107.5t50 -97h-114z" />
    <glyph glyph-name="parenright" unicode=")" horiz-adv-x="349" 
d="M15 -130q26 46 50 97t42 107.5t29 120t11 134.5q0 72 -11 135.5t-29 120t-42 107t-50 96.5h113q27 -38 56 -84.5t52 -103.5t38 -124.5t15 -146.5q0 -78 -15 -145.5t-38 -124.5t-52 -104.5t-56 -84.5h-113z" />
    <glyph glyph-name="asterisk" unicode="*" horiz-adv-x="455" 
d="M226 542l-62 -125l-95 66l103 97v4l-137 20l37 112l122 -69l2 2l-27 139h117l-26 -140l2 -2l122 68l37 -111l-137 -21v-3l103 -98l-95 -66l-62 127h-4z" />
    <glyph glyph-name="plus" unicode="+" horiz-adv-x="633" 
d="M378 104h-125v196h-190v116h190v194h125v-194h191v-116h-191v-196z" />
    <glyph glyph-name="comma" unicode="," horiz-adv-x="288" 
d="M92 159h164l-110 -276h-106z" />
    <glyph glyph-name="hyphen" unicode="-" horiz-adv-x="425" 
d="M57 376h312v-121h-312v121z" />
    <glyph glyph-name="period" unicode="." horiz-adv-x="291" 
d="M61 159h169v-159h-169v159z" />
    <glyph glyph-name="slash" unicode="/" horiz-adv-x="572" 
d="M441 788h120l-454 -918h-121z" />
    <glyph glyph-name="zero" unicode="0" horiz-adv-x="702" 
d="M50 367q0 97 21.5 169.5t61 120t94.5 71t123 23.5q71 0 127 -23t95 -70.5t59.5 -120t20.5 -170.5q0 -96 -21 -168t-60 -119.5t-95 -71t-126 -23.5q-145 0 -222.5 93.5t-77.5 288.5zM350 105q28 0 51.5 14.5t40.5 46t26 81.5t9 121q0 72 -9.5 122.5t-26.5 82t-40.5 46
t-50.5 14.5q-29 0 -52 -14.5t-39.5 -46t-25.5 -82t-9 -122.5q0 -74 8.5 -124.5t25 -81t40 -44t52.5 -13.5z" />
    <glyph glyph-name="one" unicode="1" horiz-adv-x="429" 
d="M171 508h-145v102h19q33 0 60.5 7.5t46.5 23.5q37 32 37 101h141v-742h-159v508z" />
    <glyph glyph-name="two" unicode="2" horiz-adv-x="639" 
d="M56 495q2 120 72.5 188.5t201.5 68.5q69 0 117.5 -17t79.5 -45.5t45.5 -67t14.5 -80.5q0 -41 -10 -74t-30.5 -64.5t-52 -64t-73.5 -71.5l-151 -140v-1h319v-127h-548v92l261 250q32 30 54.5 55t37 47.5t21.5 43.5t7 44q0 48 -26 75t-71 27q-20 0 -40 -6.5t-35.5 -22.5
t-25 -43t-9.5 -67h-159z" />
    <glyph glyph-name="three" unicode="3" horiz-adv-x="650" 
d="M260 320v112h53q48 0 78 27.5t30 74.5q0 23 -8.5 41.5t-22.5 31t-32.5 19t-38.5 6.5q-54 0 -80.5 -29t-28.5 -79h-155q1 42 16 83t47 73t82.5 52t123.5 20q63 0 111 -15.5t81 -42.5t49.5 -63t16.5 -77q0 -60 -32.5 -104t-92.5 -64v-2q66 -16 105 -60t39 -120
q0 -44 -18 -83.5t-53 -69.5t-87 -48t-120 -18q-75 0 -127 19.5t-84.5 51.5t-48 73.5t-18.5 85.5h164q6 -55 39 -81.5t78 -26.5q51 0 83 29.5t32 77.5q0 50 -30.5 78t-84.5 28h-66z" />
    <glyph glyph-name="four" unicode="4" horiz-adv-x="666" 
d="M388 284v320h-2q-4 -12 -10 -24q-10 -21 -32 -56l-159 -240h203zM541 164v-164h-156v164h-350v111l318 466h188v-455h90v-122h-90z" />
    <glyph glyph-name="five" unicode="5" horiz-adv-x="644" 
d="M435 240q0 63 -32 98t-85 35q-78 0 -116 -54h-133l37 422h443v-126h-321l-16 -189h2q20 26 59 45.5t93 19.5q50 0 92.5 -16t73 -47.5t47.5 -77.5t17 -106q0 -53 -18 -100t-53 -82.5t-88 -56t-122 -20.5q-77 0 -128 19.5t-81.5 51t-44 71.5t-16.5 82h155q5 -54 35 -78
t79 -24q25 0 47 8.5t38.5 25.5t26 42t9.5 57z" />
    <glyph glyph-name="six" unicode="6" horiz-adv-x="662" 
d="M450 565q-8 35 -31.5 54t-62.5 19q-64 0 -101.5 -60.5t-40.5 -186.5h4q23 45 69 70t105 25q45 0 86 -15t72 -45t49.5 -74.5t18.5 -103.5q0 -54 -17.5 -101.5t-53 -83.5t-87.5 -57t-121 -21q-62 0 -115 19t-91.5 61t-60.5 108.5t-22 161.5q0 206 81.5 311.5t226.5 105.5
q60 0 103.5 -14.5t72.5 -39.5t44.5 -59.5t19.5 -73.5h-148zM343 105q21 0 41.5 7.5t36.5 24t26 41.5t10 60q0 63 -32.5 97t-81.5 34q-51 0 -82.5 -32.5t-31.5 -98.5q0 -35 9.5 -60t25.5 -41.5t36.5 -24t42.5 -7.5z" />
    <glyph glyph-name="seven" unicode="7" horiz-adv-x="566" 
d="M359 614h-336v127h518v-90l-298 -651h-163z" />
    <glyph glyph-name="eight" unicode="8" horiz-adv-x="658" 
d="M69 549q0 44 17 81t50 64t81.5 42.5t111.5 15.5t111.5 -15.5t81.5 -42.5t50 -64.5t17 -81.5q0 -34 -9.5 -60.5t-25.5 -46.5t-38 -33.5t-46 -22.5v-3q30 -8 56.5 -21.5t46 -35.5t30.5 -52t11 -70q0 -46 -20.5 -86t-58 -69.5t-90 -46.5t-116.5 -17q-67 0 -120 16
t-89.5 45.5t-56 69.5t-19.5 88q0 39 11 69t30.5 52t45.5 36t56 22v3q-24 8 -45.5 22t-37.5 34.5t-25.5 47t-9.5 60.5zM329 641q-45 0 -76 -26t-31 -80q0 -53 31 -79t76 -26q44 0 75 26t31 79q0 54 -31 80t-75 26zM329 92q25 0 48 7t40 21.5t27 36t10 50.5t-10 50.5t-27 35.5
t-39.5 21t-48.5 7t-48.5 -7t-39.5 -21t-27 -35.5t-10 -50.5t10 -50.5t27.5 -36t40 -21.5t47.5 -7z" />
    <glyph glyph-name="nine" unicode="9" horiz-adv-x="661" 
d="M321 628q-21 0 -41.5 -7t-37 -22.5t-27 -39.5t-10.5 -57q0 -31 9.5 -54.5t25.5 -39.5t37 -24t44 -8q49 0 83 31.5t34 94.5q0 32 -10.5 55.5t-27 39.5t-37.5 23.5t-42 7.5zM206 179q8 -38 36 -57.5t66 -19.5q69 0 103 62t36 183h-3q-22 -40 -65 -63t-100 -23
q-45 0 -87.5 15t-75.5 44.5t-53 73.5t-20 103q0 52 18.5 98.5t54.5 81t88.5 55t119.5 20.5q134 0 210.5 -89t76.5 -270q0 -105 -22 -182t-62 -127t-97 -74.5t-126 -24.5q-109 0 -171.5 52.5t-73.5 141.5h147z" />
    <glyph glyph-name="colon" unicode=":" horiz-adv-x="298" 
d="M69 527h167v-159h-167v159zM69 0v159h167v-159h-167z" />
    <glyph glyph-name="semicolon" unicode=";" horiz-adv-x="319" 
d="M93 527h168v-159h-168v159zM42 -117l52 276h164l-110 -276h-106z" />
    <glyph glyph-name="less" unicode="&#x3c;" horiz-adv-x="633" 
d="M64 297v72l496 253v-130l-316 -156l316 -157v-134z" />
    <glyph glyph-name="equal" unicode="=" horiz-adv-x="633" 
d="M76 515h480v-115h-480v115zM76 195v115h480v-115h-480z" />
    <glyph glyph-name="greater" unicode="&#x3e;" horiz-adv-x="633" 
d="M569 366v-71l-496 -253v130l316 156l-316 157v133z" />
    <glyph glyph-name="question" unicode="?" horiz-adv-x="591" 
d="M404 580q0 42 -26.5 67t-75.5 25q-24 0 -45.5 -7t-37.5 -24t-25.5 -44.5t-9.5 -67.5h-152q-1 59 16.5 108t52 84.5t86 55t118.5 19.5t115.5 -16.5t79.5 -44.5t45.5 -66t14.5 -81q0 -35 -7 -62t-20.5 -50t-33 -43.5t-43.5 -40.5l-67 -56q-16 -13 -22 -23t-6 -31v-43h-137
v64q0 24 2 40t8.5 28.5t18.5 25t32 28.5l57 47q29 24 45.5 47t16.5 61zM205 0v152h175v-152h-175z" />
    <glyph glyph-name="at" unicode="@" horiz-adv-x="1009" 
d="M717 54q-57 0 -95 24.5t-44 72.5h-3q-23 -42 -60 -68.5t-95 -26.5q-74 0 -115 46.5t-41 131.5q0 51 15.5 101t44.5 89t70.5 63t94.5 24q49 0 78.5 -22t40.5 -52h2l11 58h128l-59 -277q-9 -44 5.5 -67t49.5 -23q24 0 47.5 12t42 38t30 66.5t11.5 97.5q0 71 -26.5 132
t-73.5 105.5t-112 70t-143 25.5q-82 0 -153.5 -31.5t-124.5 -86.5t-83.5 -130.5t-30.5 -162.5q0 -88 27.5 -159t76.5 -121t116 -77t146 -27q81 0 147 24.5t110 59.5l44 -45q-50 -42 -126 -73t-182 -31q-95 0 -175 32.5t-138.5 91.5t-91 141.5t-32.5 183.5q0 103 36.5 190
t100 150.5t150 99.5t185.5 36q93 0 172.5 -28.5t137 -80t90.5 -124t33 -159.5q0 -78 -20 -133.5t-53.5 -91.5t-76.5 -52.5t-89 -16.5zM465 146q36 0 66 31.5t41 84.5l9 44q4 23 2.5 44t-10 37t-22.5 25.5t-35 9.5q-30 0 -52.5 -18t-37 -45.5t-21.5 -61t-7 -63.5
q0 -41 16.5 -64.5t50.5 -23.5z" />
    <glyph glyph-name="A" unicode="A" horiz-adv-x="761" 
d="M373 624q-1 -3 -8 -33.5t-22 -77.5l-71 -223h202l-70 222q-8 25 -13 45.5t-9 35.5q-4 18 -7 31h-2zM514 170h-281l-56 -170h-157l267 765h184l271 -765h-172z" />
    <glyph glyph-name="B" unicode="B" horiz-adv-x="728" 
d="M77 0v765h318q131 0 197.5 -48.5t66.5 -146.5q0 -34 -11.5 -60.5t-30 -46.5t-42.5 -33t-49 -19v-4q36 -6 66.5 -21.5t52.5 -39t34.5 -54.5t12.5 -69q0 -56 -21 -97.5t-59 -69.5t-91.5 -42t-118.5 -14h-325zM375 449q54 0 87.5 23.5t33.5 78.5q0 50 -31 75t-86 25h-138
v-202h134zM390 117q62 0 98 26t36 91q0 55 -36 81t-101 26h-146v-224h149z" />
    <glyph glyph-name="C" unicode="C" horiz-adv-x="766" 
d="M404 654q-39 0 -71.5 -17.5t-56 -52t-36.5 -86.5t-13 -120q0 -132 47 -201.5t129 -69.5q68 0 105.5 40.5t44.5 112.5h167q-3 -62 -26 -113t-63.5 -87t-97 -56t-126.5 -20q-89 0 -156 26.5t-111.5 76.5t-67 122t-22.5 163q0 94 24 169t69.5 127.5t111.5 80t149 27.5
q70 0 127 -18t97.5 -52.5t64.5 -85t28 -114.5h-169q-6 68 -45.5 108t-102.5 40z" />
    <glyph glyph-name="D" unicode="D" horiz-adv-x="770" 
d="M77 765h261q85 0 155.5 -21.5t121 -67t78.5 -116t28 -168.5t-27.5 -171.5t-78 -122.5t-120 -73.5t-153.5 -24.5h-265v765zM330 124q49 0 89.5 13.5t68.5 44.5t43.5 81.5t15.5 124.5q0 71 -15.5 119.5t-43.5 78.5t-67 43.5t-86 13.5h-94v-519h89z" />
    <glyph glyph-name="E" unicode="E" horiz-adv-x="648" 
d="M77 765h504v-125h-340v-197h322v-122h-322v-197h349v-124h-513v765z" />
    <glyph glyph-name="F" unicode="F" horiz-adv-x="603" 
d="M241 0h-164v765h481v-125h-317v-222h299v-123h-299v-295z" />
    <glyph glyph-name="G" unicode="G" horiz-adv-x="810" 
d="M412 658q-90 0 -138.5 -71t-48.5 -208q0 -74 13 -126.5t37 -85.5t58.5 -48.5t78.5 -15.5q79 0 123.5 45.5t50.5 127.5l1 14h-181v118h334v-408h-130v104h-4q-27 -52 -82 -86t-140 -34q-82 0 -144.5 27.5t-104.5 77.5t-63.5 121.5t-21.5 160.5q0 93 26 168t73.5 127.5
t114.5 81t148 28.5q139 0 219 -62.5t94 -180.5h-167q-8 56 -46.5 90.5t-99.5 34.5z" />
    <glyph glyph-name="H" unicode="H" horiz-adv-x="792" 
d="M241 0h-164v765h164v-319h308v319h166v-765h-166v318h-308v-318z" />
    <glyph glyph-name="I" unicode="I" horiz-adv-x="318" 
d="M77 765h164v-765h-164v765z" />
    <glyph glyph-name="J" unicode="J" horiz-adv-x="448" 
d="M33 -3v130h37q48 0 76.5 8.5t44 26t20.5 43t5 60.5v500h162v-520q0 -71 -19 -119t-55.5 -76.5t-89 -40.5t-118.5 -12h-63z" />
    <glyph glyph-name="K" unicode="K" horiz-adv-x="735" 
d="M241 0h-164v765h164v-341l279 341h183l-275 -320l287 -445h-188l-210 321l-76 -89v-232z" />
    <glyph glyph-name="L" unicode="L" horiz-adv-x="610" 
d="M77 765h164v-637h330v-128h-494v765z" />
    <glyph glyph-name="M" unicode="M" horiz-adv-x="971" 
d="M77 765h238l138 -411q8 -24 14 -45t10 -36l8 -32h2l8 32q4 15 10 36t14 45l137 411h238v-765h-162v599h-3q-5 -21 -12 -47q-6 -22 -15 -51.5t-20 -63.5l-143 -437h-122l-144 437q-11 35 -20 64t-14 51q-7 26 -11 46h-3v-598h-148v765z" />
    <glyph glyph-name="N" unicode="N" horiz-adv-x="789" 
d="M77 765h181l247 -414q14 -25 24.5 -46t17.5 -36q8 -18 13 -32h3v528h150v-765h-173l-254 422q-16 25 -26.5 46t-17.5 37q-8 18 -14 33h-3v-538h-148v765z" />
    <glyph glyph-name="O" unicode="O" horiz-adv-x="822" 
d="M50 380q0 94 26.5 168t74 124.5t114 77t146.5 26.5q84 0 151 -26t113.5 -76.5t71.5 -124t25 -169.5q0 -95 -25.5 -168.5t-73 -124t-114 -77t-148.5 -26.5q-172 0 -266.5 102.5t-94.5 293.5zM411 104q88 0 136 69.5t48 206.5q0 69 -13.5 121t-38 87t-58.5 52.5t-74 17.5
q-88 0 -135.5 -69t-47.5 -209q0 -139 46 -207.5t137 -68.5z" />
    <glyph glyph-name="P" unicode="P" horiz-adv-x="668" 
d="M241 262v-262h-164v765h266q62 0 115.5 -13.5t92.5 -43.5t61.5 -77t22.5 -113q0 -70 -24 -118.5t-65 -79t-97 -44.5t-120 -14h-88zM340 383q64 0 99 33t35 100q0 71 -34.5 101t-97.5 30h-101v-264h99z" />
    <glyph glyph-name="Q" unicode="Q" horiz-adv-x="822" 
d="M50 380q0 96 26 169.5t73 124t114 76.5t148 26q83 0 149.5 -26.5t113.5 -77t72.5 -124t25.5 -168.5q0 -56 -9.5 -105t-27 -89.5t-43 -71.5t-58.5 -50v-5q28 -5 50 -13t40 -21.5t32.5 -32.5t28.5 -44l-144 -82q-19 34 -37 58t-38 39t-44 21.5t-54 6.5q-14 0 -27.5 -1.5
t-31.5 -1.5q-173 0 -266 100t-93 292zM411 102q89 0 136.5 66.5t47.5 209.5q0 140 -50.5 210t-133.5 70q-85 0 -134 -70t-49 -210q0 -139 46 -207.5t137 -68.5z" />
    <glyph glyph-name="R" unicode="R" horiz-adv-x="714" 
d="M355 408q27 0 51.5 6.5t42.5 21t29 38t11 57.5q0 35 -12 58t-31 37t-42.5 19.5t-45.5 5.5h-117v-243h114zM359 291h-118v-291h-164v765h299q37 0 77 -6t77 -22q54 -24 90.5 -71t36.5 -126q0 -45 -13 -79.5t-34 -60t-47.5 -43t-53.5 -27.5v-2l171 -328h-177z" />
    <glyph glyph-name="S" unicode="S" horiz-adv-x="699" 
d="M467 557q-2 19 -9 37t-21 32t-35 22.5t-49 8.5q-54 0 -84.5 -25.5t-30.5 -66.5q0 -38 23 -61.5t78 -33.5l116 -21q103 -19 152.5 -72.5t49.5 -138.5q0 -124 -80 -189t-227 -65q-72 0 -127.5 16.5t-94 47.5t-60 74t-24.5 97h171q6 -50 40.5 -82.5t98.5 -32.5
q68 0 100.5 30t32.5 74q0 40 -24.5 62.5t-84.5 33.5l-114 22q-44 9 -80.5 26.5t-62.5 44.5t-40 63t-14 82q0 51 19 93.5t56 74t90 49t122 17.5q73 0 125 -17.5t86 -47.5t51 -69.5t19 -84.5h-168z" />
    <glyph glyph-name="T" unicode="T" horiz-adv-x="662" 
d="M639 636h-226v-636h-164v636h-226v129h616v-129z" />
    <glyph glyph-name="U" unicode="U" horiz-adv-x="761" 
d="M69 765h164l-1 -446q0 -21 0.5 -42.5t3.5 -42t9 -38.5t17 -32q21 -26 51 -38t68 -12q42 0 72.5 12t50.5 38q10 14 15.5 32t8 38.5t2.5 42v42.5v446h162v-498q0 -72 -22.5 -125.5t-63.5 -88.5t-99 -52t-128 -17q-71 0 -128 17t-97.5 52t-62.5 88t-22 126v498z" />
    <glyph glyph-name="V" unicode="V" horiz-adv-x="742" 
d="M20 765h172l157 -496q8 -28 13.5 -49.5t8.5 -35.5q4 -17 5 -29h2q1 12 5 29q3 14 8 35t14 49l159 497h158l-256 -765h-188z" />
    <glyph glyph-name="W" unicode="W" horiz-adv-x="1067" 
d="M224 0l-203 765h170l106 -435q7 -29 12 -52.5t7 -40.5q3 -20 4 -36h2q1 15 5 35q3 17 8 40.5t13 52.5l119 436h150l120 -435q8 -29 13.5 -52.5t9.5 -40.5q4 -20 7 -36h1q1 15 5 35q2 17 6.5 40.5t11.5 52.5l105 436h150l-202 -765h-161l-123 452q-8 29 -13 51t-7 38
q-3 18 -4 32h-2q-2 -14 -5 -32q-3 -16 -7 -37.5t-12 -50.5l-122 -453h-164z" />
    <glyph glyph-name="X" unicode="X" horiz-adv-x="751" 
d="M279 395l-236 370h189l147 -244h1l151 244h172l-237 -364l260 -401h-194l-167 274h-2l-167 -274h-171z" />
    <glyph glyph-name="Y" unicode="Y" horiz-adv-x="697" 
d="M267 320l-256 445h181l161 -301h2l163 301h168l-255 -442v-323h-164v320z" />
    <glyph glyph-name="Z" unicode="Z" horiz-adv-x="658" 
d="M53 765h560v-113l-383 -524h389v-128h-583v113l384 525h-367v127z" />
    <glyph glyph-name="bracketleft" unicode="[" horiz-adv-x="386" 
d="M97 788h264v-96h-133v-726h133v-96h-264v918z" />
    <glyph glyph-name="backslash" unicode="\" horiz-adv-x="572" 
d="M12 788h120l454 -918h-120z" />
    <glyph glyph-name="bracketright" unicode="]" horiz-adv-x="386" 
d="M289 -130h-264v96h133v726h-133v96h264v-918z" />
    <glyph glyph-name="asciicircum" unicode="^" horiz-adv-x="450" 
d="M433 495h-110l-101 173h-1l-101 -173h-103l156 293h105z" />
    <glyph glyph-name="underscore" unicode="_" horiz-adv-x="390" 
d="M-2 -91h394v-99h-394v99z" />
    <glyph glyph-name="grave" unicode="`" horiz-adv-x="369" 
d="M277 614h-121l-88 174h158z" />
    <glyph glyph-name="a" unicode="a" horiz-adv-x="584" 
d="M256 94q21 0 40 8t33.5 24.5t23.5 41.5t9 58v17q-63 -4 -97.5 -10t-53.5 -19q-14 -9 -20 -23t-6 -31q0 -29 19 -47.5t52 -18.5zM51 377q5 81 65 126t166 45q65 0 109.5 -13.5t72 -40t39.5 -66.5t12 -94v-185q0 -22 8.5 -31t34.5 -9v-110h-53q-58 0 -88 15t-43 59h-2
q-26 -38 -65.5 -58.5t-96.5 -20.5q-85 0 -133.5 42t-48.5 117q0 91 81 134q43 23 104.5 29.5t147.5 10.5v29q0 90 -79 90q-39 0 -58 -19.5t-21 -49.5h-152z" />
    <glyph glyph-name="b" unicode="b" horiz-adv-x="646" 
d="M68 788h159v-332h2q20 37 61.5 64.5t101.5 27.5q46 0 85.5 -15.5t68.5 -49t45 -86.5t16 -127q0 -138 -61.5 -210.5t-165.5 -72.5q-60 0 -98.5 24.5t-59.5 62.5h-2v-74h-152v788zM335 93q53 0 81.5 44t28.5 131q0 85 -27 128t-84 43q-48 0 -78.5 -37.5t-30.5 -104.5v-58
q0 -63 27 -104.5t83 -41.5z" />
    <glyph glyph-name="c" unicode="c" horiz-adv-x="595" 
d="M401 344q-4 43 -25.5 71t-66.5 28q-31 0 -52 -14.5t-33.5 -38.5t-17.5 -55.5t-5 -64.5q0 -31 4 -62t15.5 -56t32.5 -40.5t55 -15.5q26 0 44.5 9t29.5 23t16.5 32.5t6.5 38.5h154q-2 -53 -21.5 -92.5t-53 -66t-78.5 -40t-98 -13.5q-131 0 -200.5 74.5t-69.5 206.5
q0 65 19 117t54 88.5t85 56t113 19.5q54 0 98.5 -13t77.5 -39t51.5 -64t20.5 -89h-156z" />
    <glyph glyph-name="d" unicode="d" horiz-adv-x="649" 
d="M424 292q0 71 -29 109t-79 38q-54 0 -84.5 -42.5t-30.5 -130.5q0 -82 26 -127.5t85 -45.5q55 0 83.5 38.5t28.5 96.5v64zM581 0h-152v79h-2q-11 -18 -25.5 -34.5t-34 -29.5t-44.5 -21t-56 -8q-107 0 -167.5 67.5t-60.5 207.5q0 71 18 124.5t49.5 89.5t74 54t92.5 18
q52 0 90 -22t57 -60h2v323h159v-788z" />
    <glyph glyph-name="e" unicode="e" horiz-adv-x="601" 
d="M400 329q-4 57 -27 89t-68 32q-49 0 -75 -33t-32 -95h202v7zM557 156q-12 -78 -78.5 -124t-175.5 -46q-65 0 -114.5 20t-83 57t-50.5 89t-17 117q0 61 18 112.5t52 89t84 58t113 20.5q68 0 116.5 -21t80 -58t46 -87.5t14.5 -109.5v-42h-364q5 -72 32 -105t78 -33
q24 0 40 5.5t26.5 14t16.5 20t10 23.5h156z" />
    <glyph glyph-name="f" unicode="f" horiz-adv-x="371" 
d="M251 0h-155v426h-77v110h77v70q0 53 14 89t39 58t60.5 31.5t79.5 9.5q31 0 52.5 -2.5t25.5 -3.5v-111q-2 1 -14 2t-30 1q-35 0 -53.5 -17t-18.5 -63v-64h105v-110h-105v-426z" />
    <glyph glyph-name="g" unicode="g" horiz-adv-x="646" 
d="M426 302q0 66 -30.5 101.5t-81.5 35.5q-50 0 -81.5 -40t-31.5 -121q0 -77 27.5 -118.5t85.5 -41.5q25 0 45.5 9.5t35.5 26.5t23 40t8 50v58zM309 -199q-125 0 -186 45.5t-67 121.5h153q8 -30 29 -46.5t73 -16.5q59 0 87 29t28 101v76h-3q-7 -16 -19.5 -33t-31.5 -30.5
t-45 -22t-60 -8.5q-105 0 -166.5 63t-61.5 198q0 66 18 116t49.5 84t73.5 51.5t91 17.5q31 0 55.5 -7t43.5 -19t32.5 -27t21.5 -31h2v73h152v-493q0 -122 -66 -182t-203 -60z" />
    <glyph glyph-name="h" unicode="h" horiz-adv-x="641" 
d="M420 314q0 29 -2.5 51t-13.5 37q-22 31 -69 31q-54 0 -81 -32t-27 -91v-310h-159v788h159v-338h2q9 18 24 35.5t36 31t48 22t60 8.5q97 0 139.5 -49.5t42.5 -149.5v-348h-159v314z" />
    <glyph glyph-name="i" unicode="i" horiz-adv-x="295" 
d="M67 773h161v-144h-161v144zM68 536h159v-536h-159v536z" />
    <glyph glyph-name="j" unicode="j" horiz-adv-x="299" 
d="M71 773h161v-144h-161v144zM40 -206q-33 0 -52 4t-23 5v111q3 -2 13 -3.5t26 -1.5q35 0 51.5 17.5t16.5 58.5v551h159v-552q0 -55 -14.5 -91.5t-40 -58.5t-60.5 -31t-76 -9z" />
    <glyph glyph-name="k" unicode="k" horiz-adv-x="598" 
d="M224 0h-156v788h156v-474l183 222h168l-179 -210l188 -326h-172l-122 219l-66 -80v-139z" />
    <glyph glyph-name="l" unicode="l" horiz-adv-x="295" 
d="M68 788h159v-788h-159v788z" />
    <glyph glyph-name="m" unicode="m" horiz-adv-x="981" 
d="M68 536h153v-88h2q21 39 62.5 69t107.5 30q74 0 113 -30.5t54 -80.5h2q8 19 23 38.5t37 35.5t51 26.5t66 10.5q95 0 137.5 -49.5t42.5 -149.5v-348h-159v314q0 29 -2.5 51t-13.5 37q-11 17 -28 24t-39 7q-51 0 -77.5 -32t-26.5 -91v-310h-159v314q0 29 -2.5 51t-13.5 37
q-21 31 -67 31q-51 0 -77.5 -32t-26.5 -90v-311h-159v536z" />
    <glyph glyph-name="n" unicode="n" horiz-adv-x="641" 
d="M420 313q0 29 -2.5 51.5t-13.5 37.5q-22 31 -69 31q-54 0 -81 -32t-27 -91v-310h-159v536h153v-88h2q22 41 63.5 70t110.5 29q97 0 139.5 -49.5t42.5 -149.5v-348h-159v313z" />
    <glyph glyph-name="o" unicode="o" horiz-adv-x="619" 
d="M309 -14q-63 0 -113.5 19.5t-85.5 56t-53.5 88.5t-18.5 118t19 118t54 88.5t85.5 55.5t113.5 19q61 0 111.5 -19t85.5 -55t54.5 -88.5t19.5 -118.5t-20 -118t-56 -88.5t-86 -56t-110 -19.5zM310 442q-30 0 -50.5 -13.5t-33 -36.5t-18.5 -55t-6 -69q0 -39 6 -71t19 -55.5
t33.5 -36t49.5 -12.5q30 0 50.5 13.5t32.5 37t17.5 55.5t5.5 69q0 39 -5.5 71t-18 55t-33 35.5t-49.5 12.5z" />
    <glyph glyph-name="p" unicode="p" horiz-adv-x="646" 
d="M225 239q0 -63 27 -104.5t83 -41.5q53 0 81.5 44t28.5 131q0 85 -27 128t-84 43q-48 0 -78.5 -37.5t-30.5 -104.5v-58zM68 536h153v-87h2q9 18 24.5 35.5t36.5 32t48 23t60 8.5q46 0 85.5 -15.5t68.5 -49t45 -86.5t16 -127q0 -67 -16.5 -119.5t-46.5 -89t-72.5 -55.5
t-94.5 -19q-58 0 -94 24t-53 56h-3v-255h-159v724z" />
    <glyph glyph-name="q" unicode="q" horiz-adv-x="649" 
d="M581 -188h-159v255h-2q-8 -14 -21.5 -28t-32.5 -26t-43.5 -19.5t-55.5 -7.5q-107 0 -167.5 67t-60.5 208q0 71 18 124.5t49.5 89.5t74 54t92.5 18q52 0 92 -23t61 -61h2v73h153v-724zM312 93q55 0 83.5 38.5t28.5 96.5v64q0 71 -29 109t-79 38q-53 0 -84 -42.5
t-31 -130.5q0 -82 26 -127.5t85 -45.5z" />
    <glyph glyph-name="r" unicode="r" horiz-adv-x="427" 
d="M68 536h150v-113h2q11 30 30 53t42.5 38.5t50.5 23t54 7.5h9v-144h-28q-73 0 -112.5 -29.5t-39.5 -106.5v-265h-158v536z" />
    <glyph glyph-name="s" unicode="s" horiz-adv-x="536" 
d="M344 387q-2 26 -21 43.5t-56 17.5t-56 -16t-19 -40q0 -23 13.5 -36t48.5 -18l91 -12q74 -10 114.5 -47.5t40.5 -110.5q0 -45 -17.5 -79t-48 -57t-73.5 -35t-94 -12q-60 0 -103 13t-71.5 36.5t-43 54.5t-17.5 67h146q2 -29 22 -49t68 -20q38 0 61.5 15t23.5 44
q0 24 -13 37t-51 18l-86 12q-75 11 -116 49t-41 111q0 35 13.5 67t40.5 56t69 38.5t99 14.5q52 0 91.5 -12t66.5 -33.5t41 -51.5t17 -65h-140z" />
    <glyph glyph-name="t" unicode="t" horiz-adv-x="401" 
d="M255 687v-151h120v-110h-118v-237q0 -41 16.5 -59.5t57.5 -18.5q7 0 15 0.5t15 1.5q8 1 15 2v-116q-16 -2 -44 -4t-62 -2q-39 0 -70.5 9t-53.5 28.5t-34 51.5t-12 77v267h-79v109h18q25 0 41 3.5t24.5 15.5t11.5 34t3 58v41h136z" />
    <glyph glyph-name="u" unicode="u" horiz-adv-x="637" 
d="M222 223q0 -29 3 -51t13 -37q21 -31 68 -31q105 0 105 139v293h159v-536h-153v87h-2q-21 -41 -61.5 -69t-106.5 -28q-97 0 -140.5 47t-43.5 142v357h159v-313z" />
    <glyph glyph-name="v" unicode="v" horiz-adv-x="571" 
d="M12 536h160l86 -271q7 -23 12.5 -44t9.5 -38q4 -19 8 -37h2q4 18 8 37q4 17 9 38t13 44l86 271h153l-192 -536h-164z" />
    <glyph glyph-name="w" unicode="w" horiz-adv-x="860" 
d="M17 536h153l71 -270q5 -21 9 -41t6 -36q3 -18 5 -36h3q3 18 7 36l9 36t11 40l80 271h129l80 -271q6 -20 10.5 -40t8.5 -36q4 -18 7 -36h4q2 18 6 36q3 16 7.5 36t9.5 40l70 271h139l-155 -536h-153l-65 213q-8 24 -14.5 52.5t-11.5 52.5q-6 28 -11 57h-2q-7 -29 -13 -57
q-6 -25 -12.5 -53t-14.5 -52l-66 -213h-151z" />
    <glyph glyph-name="x" unicode="x" horiz-adv-x="570" 
d="M192 279l-168 257h171l92 -155h2l86 155h168l-168 -255l185 -281h-174l-106 176h-2l-100 -176h-168z" />
    <glyph glyph-name="y" unicode="y" horiz-adv-x="571" 
d="M17 536h164l88 -282q7 -22 11.5 -41t7.5 -33q4 -17 5 -31h3q1 14 5 31q3 14 7 33t11 41l83 282h155l-188 -553q-16 -47 -35 -81t-46 -56.5t-64 -33.5t-89 -11q-39 0 -58 3t-21 4v116q7 -2 22 -3.5t32 -1.5q45 0 68.5 14.5t34.5 50.5l4 13z" />
    <glyph glyph-name="z" unicode="z" horiz-adv-x="544" 
d="M54 536h448v-103l-268 -316h273v-117h-463v104l268 317h-258v115z" />
    <glyph glyph-name="braceleft" unicode="{" horiz-adv-x="413" 
d="M42 273v109h30q34 0 47 15.5t13 52.5v153q0 55 15 91.5t46.5 58t80 30.5t114.5 9v-92q-40 0 -65.5 -6t-39.5 -19t-19.5 -34.5t-5.5 -52.5v-128q0 -23 -3.5 -44t-12.5 -38t-24.5 -29.5t-39.5 -17.5v-4q24 -5 39.5 -17.5t24.5 -30t12.5 -39t3.5 -45.5v-125q0 -31 5.5 -52.5
t19.5 -34.5t39.5 -19t65.5 -6v-92q-66 0 -114.5 8.5t-80 29.5t-46.5 56t-15 87v158q0 37 -13 52.5t-47 15.5h-30z" />
    <glyph glyph-name="bar" unicode="|" horiz-adv-x="289" 
d="M89 788h108v-918h-108v918z" />
    <glyph glyph-name="braceright" unicode="}" horiz-adv-x="413" 
d="M372 276h-30q-35 0 -47.5 -15.5t-12.5 -52.5v-153q0 -55 -15.5 -91.5t-47 -58t-80 -30.5t-114.5 -9v92q40 0 65.5 6t40 19t20 34.5t5.5 52.5v129q0 22 3.5 43t12.5 38t24.5 29.5t39.5 17.5v4q-24 5 -39.5 17.5t-24.5 30t-12.5 39t-3.5 45.5v125q0 31 -5.5 52.5t-20 34.5
t-40 19t-65.5 6v92q66 0 114.5 -8.5t80 -29.5t47 -56t15.5 -87v-158q0 -37 12.5 -52.5t47.5 -15.5h30v-109z" />
    <glyph glyph-name="asciitilde" unicode="~" horiz-adv-x="449" 
d="M17 254q0 34 7.5 64.5t22.5 54t38 37.5t54 14q24 0 46.5 -8t43 -17.5t38.5 -17.5t32 -8q16 0 27 11.5t13 40.5h93q0 -34 -6.5 -64.5t-20.5 -54t-36 -37.5t-53 -14q-23 0 -45.5 8t-43 17.5t-38.5 17.5t-33 8q-36 0 -39 -52h-100z" />
    <glyph glyph-name="uni00A0" unicode="&#xa0;" horiz-adv-x="228" 
 />
    <glyph glyph-name="exclamdown" unicode="&#xa1;" horiz-adv-x="330" 
d="M257.005 -113.952h-183.989l32.998 544.967h118.993zM253.005 674v-151.99h-174.989v151.99h174.989z" />
    <glyph glyph-name="cent" unicode="&#xa2;" horiz-adv-x="603" 
d="M567 199q-2 -48 -18.5 -85.5t-45 -64t-68 -41.5t-85.5 -19v-105h-68v104q-114 10 -175 83.5t-61 196.5q0 122 62.5 195t173.5 84v88h68v-87q94 -8 152.5 -59t62.5 -145h-148q-3 35 -19 62.5t-48 36.5v-348q38 11 53.5 40.5t17.5 63.5h146zM282 443q-23 -8 -39 -24.5
t-26 -40t-14 -51t-4 -57.5q0 -27 3.5 -55t12.5 -52t25 -42t42 -25v347z" />
    <glyph glyph-name="sterling" unicode="&#xa3;" horiz-adv-x="649" 
d="M588 0h-531v92l28 21q25 19 43.5 37t28 40t10.5 49t-9 63h-123v97h92l-13 39q-24 72 -16 130t41 99t87 63t122 22q128 0 189.5 -58.5t59.5 -164.5h-160q0 23 -4.5 44t-14.5 36.5t-27.5 25t-42.5 9.5t-46.5 -9.5t-34.5 -32t-14 -58.5t15 -90l16 -55h183v-97h-158
q8 -51 -6.5 -90t-58.5 -77l-8 -7v-2h352v-126z" />
    <glyph glyph-name="currency" unicode="&#xa4;" horiz-adv-x="631" 
d="M226 348q0 -42 24 -68.5t64 -26.5q41 0 65 26.5t24 68.5t-24 68.5t-65 26.5q-40 0 -64 -26.5t-24 -68.5zM129 348q0 23 5 43.5t13 39.5l-97 96l86 86l96 -98q38 19 82 19q23 0 44.5 -5.5t39.5 -14.5l98 100l86 -86l-101 -98q19 -38 19 -82q0 -46 -19 -82l100 -98l-86 -86
l-98 99q-36 -18 -83 -18q-45 0 -82 17l-97 -99l-85 86l98 96q-19 40 -19 85z" />
    <glyph glyph-name="yen" unicode="&#xa5;" horiz-adv-x="654" 
d="M250 148h-198v76h198v81h-200v76h188l-217 360h177l135 -242h2l135 242h164l-218 -360h188v-76h-198v-81h200v-76h-200v-148h-156v148z" />
    <glyph glyph-name="brokenbar" unicode="&#xa6;" horiz-adv-x="289" 
d="M197 384h-108v404h108v-404zM89 -130v417h108v-417h-108z" />
    <glyph glyph-name="section" unicode="&#xa7;" horiz-adv-x="625" 
d="M183 365q0 -29 21.5 -45.5t52.5 -30.5l95 -44q15 -7 25 -11.5t14 -6.5q25 5 38 22t13 40t-16 40t-58 36l-97 43q-12 5 -21.5 10t-12.5 7q-28 -6 -41 -23t-13 -37zM44 340q0 49 26 84t75 54v1q-24 20 -36.5 48t-12.5 69q0 39 16 71t45 54.5t69.5 34.5t88.5 12
q57 0 97.5 -13t67 -35.5t39.5 -54t15 -68.5h-143q-2 31 -19 50t-56 19q-38 0 -56.5 -16t-18.5 -40q0 -30 17.5 -44t54.5 -30l131 -57q39 -17 65 -34.5t42.5 -38t23.5 -44t7 -53.5q0 -49 -25 -82.5t-73 -51.5v-2q22 -18 35 -43.5t13 -62.5q0 -45 -16.5 -79t-46.5 -56.5
t-71.5 -34t-92.5 -11.5q-114 0 -168.5 47.5t-59.5 128.5h141q3 -35 24.5 -54.5t63.5 -19.5q40 0 60.5 15.5t20.5 42.5q0 24 -14.5 38t-46.5 28l-143 62q-32 14 -57.5 28.5t-43.5 33t-28 44t-10 60.5z" />
    <glyph glyph-name="dieresis" unicode="&#xa8;" horiz-adv-x="369" 
d="M220 773h137v-137h-137v137zM12 773h136v-137h-136v137z" />
    <glyph glyph-name="copyright" unicode="&#xa9;" horiz-adv-x="899" 
d="M55 380q0 84 30 156.5t82.5 126t124.5 84t157 30.5t157 -30.5t125 -84t83 -126t30 -156.5t-30 -156.5t-83 -125.5t-125 -83.5t-157 -30.5t-157 30.5t-124.5 83.5t-82.5 125.5t-30 156.5zM449 41q71 0 131.5 26t104.5 71.5t69 107.5t25 134t-25 134t-69 108t-104.5 72
t-131.5 26t-131 -26t-104 -72t-69 -108t-25 -134t25 -134t69 -107.5t104 -71.5t131 -26zM643 332q-1 -41 -16 -71.5t-40.5 -50.5t-60 -30.5t-74.5 -10.5q-100 0 -152.5 56.5t-52.5 158.5q0 100 55 157t151 57q81 0 133.5 -39.5t55.5 -117.5h-120q-2 32 -18.5 54t-50.5 22
q-24 0 -39.5 -11t-25.5 -29.5t-14 -42.5t-4 -49q0 -23 3 -46.5t12 -42.5t25 -31t42 -12q20 0 34 6.5t22.5 17.5t12.5 25.5t5 29.5h117z" />
    <glyph glyph-name="ordfeminine" unicode="&#xaa;" horiz-adv-x="507" 
d="M229 405q34 0 55.5 23.5t21.5 67.5v12q-41 -2 -65.5 -4.5t-40.5 -13.5q-19 -13 -19 -39q0 -23 13 -34.5t35 -11.5zM57 614q1 33 15.5 58.5t40 43t59.5 27t75 9.5q55 0 91.5 -11.5t59 -33t32 -54t9.5 -74.5v-133q0 -20 7.5 -27.5t24.5 -7.5v-92h-47q-45 0 -72 10t-40 47
h-2q-18 -28 -50 -45t-77 -17q-64 0 -103 34.5t-39 92.5q0 72 64 106q33 18 80 24t120 8v21q0 32 -14.5 46.5t-39.5 14.5t-39.5 -13t-16.5 -34h-138z" />
    <glyph glyph-name="guillemotleft" unicode="&#xab;" horiz-adv-x="531" 
d="M480 464l-97 -206l98 -201h-116l-108 204l107 203h116zM261 464l-97 -206l99 -201h-117l-108 204l107 203h116z" />
    <glyph glyph-name="logicalnot" unicode="&#xac;" horiz-adv-x="632" 
d="M444 104v196h-381v116h506v-312h-125z" />
    <glyph glyph-name="registered" unicode="&#xae;" horiz-adv-x="513" 
d="M40 557q0 46 16.5 86t45 69.5t68 46.5t86.5 17t86.5 -17t68.5 -46.5t45.5 -69.5t16.5 -86t-16.5 -86t-45.5 -69t-68.5 -46t-86.5 -17t-86.5 17t-68 46t-45 69t-16.5 86zM256 377q37 0 68.5 13.5t55 37.5t36.5 57t13 72t-13 72t-36.5 57t-55 38t-68.5 14t-68.5 -14
t-54.5 -38t-36 -57t-13 -72t13 -72t36 -57t54.5 -37.5t68.5 -13.5zM254 578q17 0 27.5 8t10.5 25q0 14 -10 21.5t-27 7.5h-29v-62h28zM226 452h-56v225h101q15 0 29 -3.5t25 -12t18 -21.5t7 -31q0 -27 -15 -42t-31 -20l49 -95h-62l-41 86h-24v-86z" />
    <glyph glyph-name="macron" unicode="&#xaf;" horiz-adv-x="369" 
d="M13 740h342v-104h-342v104z" />
    <glyph glyph-name="degree" unicode="&#xb0;" horiz-adv-x="445" 
d="M54 594q0 36 12.5 67t35 53.5t53.5 35.5t67 13q37 0 68 -13t53.5 -35.5t35 -53.5t12.5 -67t-12.5 -67t-35 -53.5t-53.5 -35t-68 -12.5q-36 0 -67 12.5t-53.5 35t-35 53.5t-12.5 67zM222 503q39 0 62.5 25.5t23.5 65.5t-23.5 66t-62.5 26q-38 0 -61.5 -26t-23.5 -66
t23.5 -65.5t61.5 -25.5z" />
    <glyph glyph-name="plusminus" unicode="&#xb1;" horiz-adv-x="633" 
d="M378 199h-125v170h-190v116h190v168h125v-168h191v-116h-191v-170zM63 115h506v-115h-506v115z" />
    <glyph glyph-name="twosuperior" unicode="&#xb2;" horiz-adv-x="430" 
d="M34 664q2 72 47 114.5t133 42.5q45 0 77.5 -10t53 -27t30.5 -40t10 -49q0 -24 -6.5 -44t-20 -38.5t-33 -36.5t-45.5 -39l-79 -65v-2h187v-86h-358v61l174 151q35 29 49 49t14 43q0 24 -14.5 38t-39.5 14q-27 0 -46.5 -16.5t-19.5 -59.5h-113z" />
    <glyph glyph-name="threesuperior" unicode="&#xb3;" horiz-adv-x="437" 
d="M168 567v71h41q25 0 43 13.5t18 38.5t-16.5 38t-40.5 13q-31 0 -44.5 -16t-14.5 -38h-113q1 24 10 48t30 43.5t55 32t84 12.5q81 0 123.5 -34t42.5 -83q0 -35 -21 -60.5t-64 -36.5v-2q96 -17 96 -103q0 -25 -11.5 -48.5t-34 -41.5t-56 -28.5t-78.5 -10.5q-51 0 -85 12
t-55 31t-30 43.5t-10 49.5h116q2 -26 20 -39.5t43 -13.5q31 0 48.5 16.5t17.5 39.5q0 25 -17 39t-47 14h-50z" />
    <glyph glyph-name="acute" unicode="&#xb4;" horiz-adv-x="369" 
d="M145 788h158l-88 -174h-121z" />
    <glyph glyph-name="paragraph" unicode="&#xb6;" horiz-adv-x="616" 
d="M539 765v-765h-99v765h99zM261 374q-47 1 -86 13.5t-67.5 37t-44 61t-15.5 85.5q0 51 17 87.5t46.5 60.5t70 35t88.5 11h89v-765h-98v374z" />
    <glyph glyph-name="periodcentered" unicode="&#xb7;" horiz-adv-x="291" 
d="M61 426h169v-159h-169v159z" />
    <glyph glyph-name="cedilla" unicode="&#xb8;" horiz-adv-x="536" 
d="M297 30l-35 -76h2q14 10 40 10q36 0 60 -23.5t24 -65.5q0 -18 -7 -35t-21 -30t-36.5 -21t-52.5 -8q-52 0 -78 23.5t-28 55.5h77q3 -9 10 -15t21 -6q17 0 24.5 9t7.5 23q0 31 -32 31q-17 0 -27 -13h-65l63 141h53z" />
    <glyph glyph-name="onesuperior" unicode="&#xb9;" horiz-adv-x="305" 
d="M118 664h-94v76h14q20 0 36.5 4t29.5 13q24 18 24 58h105v-431h-115v280z" />
    <glyph glyph-name="ordmasculine" unicode="&#xba;" horiz-adv-x="528" 
d="M264 309q-101 0 -160.5 57.5t-59.5 163.5q0 107 59 164t161 57q48 0 88 -14.5t69.5 -42t46 -69t16.5 -95.5q0 -52 -16.5 -93t-45.5 -69.5t-69.5 -43.5t-88.5 -15zM264 653q-23 0 -38 -10t-23.5 -27t-12 -39t-3.5 -47q0 -26 4 -48.5t13 -39t24 -26t36 -9.5q24 0 39 10
t23.5 27t11.5 39.5t3 46.5q0 26 -3.5 48.5t-12.5 39t-24 26t-37 9.5z" />
    <glyph glyph-name="guillemotright" unicode="&#xbb;" horiz-adv-x="538" 
d="M51 57l98 206l-99 201h117l107 -203l-106 -204h-117zM276 57l98 206l-99 201h117l107 -203l-106 -204h-117z" />
    <glyph glyph-name="onequarter" unicode="&#xbc;" horiz-adv-x="873" 
d="M118 614h-94v76h14q20 0 36.5 4t29.5 13q24 18 24 58h105v-431h-115v280zM682 170v184h-3q-4 -9 -9 -20q-5 -9 -11.5 -20.5t-14.5 -22.5l-88 -121h126zM785 90v-90h-107v90h-226v76l196 265h137v-256h56v-85h-56zM621 781h111l-547 -821h-111z" />
    <glyph glyph-name="onehalf" unicode="&#xbd;" horiz-adv-x="918" 
d="M118 614h-94v76h14q20 0 36.5 4t29.5 13q24 18 24 58h105v-431h-115v280zM522 280q2 72 47 114.5t133 42.5q45 0 77.5 -10t53 -27t30.5 -40t10 -49q0 -24 -6.5 -44t-20 -38.5t-33 -36.5t-45.5 -39l-79 -65v-2h187v-86h-358v61l174 151q35 29 49 49t14 43q0 24 -14.5 38
t-39.5 14q-27 0 -46.5 -16.5t-19.5 -59.5h-113zM620 781h111l-547 -821h-111z" />
    <glyph glyph-name="threequarters" unicode="&#xbe;" horiz-adv-x="952" 
d="M168 517v71h41q25 0 43 13.5t18 38.5t-16.5 38t-40.5 13q-31 0 -44.5 -16t-14.5 -38h-113q1 24 10 48t30 43.5t55 32t84 12.5q81 0 123.5 -34t42.5 -83q0 -35 -21 -60.5t-64 -36.5v-2q96 -17 96 -103q0 -25 -11.5 -48.5t-34 -41.5t-56 -28.5t-78.5 -10.5q-51 0 -85 12
t-55 31t-30 43.5t-10 49.5h116q2 -26 20 -39.5t43 -13.5q31 0 48.5 16.5t17.5 39.5q0 25 -17 39t-47 14h-50zM761 170v184h-3q-4 -9 -9 -20q-5 -9 -11.5 -20.5t-14.5 -22.5l-88 -121h126zM864 90v-90h-107v90h-226v76l196 265h137v-256h56v-85h-56zM718 781h111l-547 -821
h-111z" />
    <glyph glyph-name="questiondown" unicode="&#xbf;" horiz-adv-x="591" 
d="M188.024 94.0352q0 -41.9971 26.499 -66.9961q26.498 -24.998 75.4951 -24.998q23.998 0 45.4971 7q21.499 6.99902 37.498 23.998t25.498 44.4971q9.5 27.499 9.5 67.4961h151.99q1 -58.9961 -16.499 -107.993t-51.9971 -84.4951t-85.9941 -54.9961
q-51.4971 -19.499 -118.493 -19.499t-115.493 16.499t-79.4951 44.4971t-45.4971 65.9961q-14.499 37.9971 -14.499 80.9951q0 34.998 7 61.9961q6.99902 26.998 20.498 49.9971q13.499 22.998 32.998 43.4971t43.4971 40.4971l66.9961 55.9971q15.999 12.999 21.999 22.999
q6 9.99902 6 30.998v42.9971h136.991v-63.9961q0 -23.999 -2 -39.998t-8.49902 -28.498q-6.5 -12.499 -18.499 -24.998t-31.998 -28.498l-56.9971 -46.9971q-28.998 -23.999 -45.4971 -46.998q-16.499 -22.998 -16.499 -60.9961zM387.013 674v-151.99h-174.989v151.99
h174.989z" />
    <glyph glyph-name="Agrave" unicode="&#xc0;" horiz-adv-x="761" 
d="M373 624q-1 -3 -8 -33.5t-22 -77.5l-71 -223h202l-70 222q-8 25 -13 45.5t-9 35.5q-4 18 -7 31h-2zM514 170h-281l-56 -170h-157l267 765h184l271 -765h-172zM438 827h-120l-103 133h159z" />
    <glyph glyph-name="Aacute" unicode="&#xc1;" horiz-adv-x="761" 
d="M373 624q-1 -3 -8 -33.5t-22 -77.5l-71 -223h202l-70 222q-8 25 -13 45.5t-9 35.5q-4 18 -7 31h-2zM514 170h-281l-56 -170h-157l267 765h184l271 -765h-172zM380 960h158l-103 -133h-119z" />
    <glyph glyph-name="Acircumflex" unicode="&#xc2;" horiz-adv-x="761" 
d="M373 624q-1 -3 -8 -33.5t-22 -77.5l-71 -223h202l-70 222q-8 25 -13 45.5t-9 35.5q-4 18 -7 31h-2zM514 170h-281l-56 -170h-157l267 765h184l271 -765h-172zM559 827h-115l-66 56h-1l-64 -56h-106l108 133h136z" />
    <glyph glyph-name="Atilde" unicode="&#xc3;" horiz-adv-x="761" 
d="M373 624q-1 -3 -8 -33.5t-22 -77.5l-71 -223h202l-70 222q-8 25 -13 45.5t-9 35.5q-4 18 -7 31h-2zM514 170h-281l-56 -170h-157l267 765h184l271 -765h-172zM190 819q1 32 7 60t19.5 49t35.5 33.5t54 12.5q24 0 43.5 -8t37 -18t32.5 -18t30 -8t28 12t21 41h71
q-1 -32 -7 -60t-19.5 -49t-35.5 -33.5t-54 -12.5q-24 0 -43.5 8t-37 18t-33 18t-30.5 8q-13 0 -26.5 -11.5t-20.5 -41.5h-72z" />
    <glyph glyph-name="Adieresis" unicode="&#xc4;" horiz-adv-x="761" 
d="M373 624q-1 -3 -8 -33.5t-22 -77.5l-71 -223h202l-70 222q-8 25 -13 45.5t-9 35.5q-4 18 -7 31h-2zM514 170h-281l-56 -170h-157l267 765h184l271 -765h-172zM420 965h136v-137h-136v137zM205 965h136v-137h-136v137z" />
    <glyph glyph-name="Aring" unicode="&#xc5;" horiz-adv-x="761" 
d="M373 624q-1 -3 -8 -33.5t-22 -77.5l-71 -223h202l-70 222q-8 25 -13 45.5t-9 35.5q-4 18 -7 31h-2zM514 170h-281l-56 -170h-157l267 765h184l271 -765h-172zM379 797q-62 0 -96.5 33.5t-34.5 88.5t36.5 89.5t95.5 34.5q63 0 97 -34.5t34 -89.5t-36 -88.5t-96 -33.5z
M379 980q-24 0 -38.5 -17t-14.5 -44t14 -44t40 -17q24 0 38 17t14 44t-13.5 44t-39.5 17z" />
    <glyph glyph-name="AE" unicode="&#xc6;" horiz-adv-x="1093" 
d="M525 640h-47l-156 -337h203v337zM182 0h-170l372 765h642v-125h-336v-197h318v-122h-318v-197h345v-124h-510v183h-258z" />
    <glyph glyph-name="Ccedilla" unicode="&#xc7;" horiz-adv-x="766" 
d="M390 -232q-52 0 -78 23.5t-28 55.5h77q3 -9 10 -15t21 -6q17 0 24.5 9t7.5 23q0 31 -32 31q-17 0 -27 -13h-65l50 111q-151 17 -225.5 117t-74.5 268q0 94 24 169t69.5 127.5t111.5 80t149 27.5q70 0 127 -18t97.5 -52.5t64.5 -85t28 -114.5h-169q-6 68 -45.5 108
t-102.5 40q-39 0 -71.5 -17.5t-56 -52t-36.5 -86.5t-13 -120q0 -132 47 -201.5t129 -69.5q68 0 105.5 40.5t44.5 112.5h167q-3 -62 -26 -113t-63.5 -87t-97 -56t-126.5 -20h-6l-20 -43h2q14 10 40 10q36 0 60 -23.5t24 -65.5q0 -18 -7 -35t-21 -30t-36.5 -21t-52.5 -8z" />
    <glyph glyph-name="Egrave" unicode="&#xc8;" horiz-adv-x="648" 
d="M392 827h-120l-103 133h159zM77 765h504v-125h-340v-197h322v-122h-322v-197h349v-124h-513v765z" />
    <glyph glyph-name="Eacute" unicode="&#xc9;" horiz-adv-x="648" 
d="M335 960h158l-103 -133h-119zM77 765h504v-125h-340v-197h322v-122h-322v-197h349v-124h-513v765z" />
    <glyph glyph-name="Ecircumflex" unicode="&#xca;" horiz-adv-x="648" 
d="M513 827h-115l-66 56h-1l-64 -56h-106l108 133h136zM77 765h504v-125h-340v-197h322v-122h-322v-197h349v-124h-513v765z" />
    <glyph glyph-name="Edieresis" unicode="&#xcb;" horiz-adv-x="648" 
d="M77 765h504v-125h-340v-197h322v-122h-322v-197h349v-124h-513v765zM373 965h136v-137h-136v137zM158 965h136v-137h-136v137z" />
    <glyph glyph-name="Igrave" unicode="&#xcc;" horiz-adv-x="318" 
d="M77 765h164v-765h-164v765zM217 827h-120l-103 133h159z" />
    <glyph glyph-name="Iacute" unicode="&#xcd;" horiz-adv-x="318" 
d="M77 765h164v-765h-164v765zM160 960h158l-103 -133h-119z" />
    <glyph glyph-name="Icircumflex" unicode="&#xce;" horiz-adv-x="318" 
d="M77 765h164v-765h-164v765zM338 827h-115l-66 56h-1l-64 -56h-106l108 133h136z" />
    <glyph glyph-name="Idieresis" unicode="&#xcf;" horiz-adv-x="318" 
d="M77 765h164v-765h-164v765zM198 965h136v-137h-136v137zM-17 965h136v-137h-136v137z" />
    <glyph glyph-name="Eth" unicode="&#xd0;" horiz-adv-x="792" 
d="M99 0v329h-75v111h75v325h262q84 0 154.5 -21.5t121 -67t78.5 -116t28 -168.5t-27.5 -171.5t-78 -122.5t-120 -73.5t-153.5 -24.5h-265zM352 124q49 0 89.5 13.5t68.5 44.5t43.5 81.5t15.5 124.5q0 71 -15.5 119.5t-43.5 78.5t-67 43.5t-86 13.5h-94v-203h166v-111h-166
v-205h89z" />
    <glyph glyph-name="Ntilde" unicode="&#xd1;" horiz-adv-x="789" 
d="M205 819q1 32 7 60t19.5 49t35.5 33.5t54 12.5q24 0 43.5 -8t37 -18t32.5 -18t30 -8t28 12t21 41h71q-1 -32 -7 -60t-19.5 -49t-35.5 -33.5t-54 -12.5q-24 0 -43.5 8t-37 18t-33 18t-30.5 8q-13 0 -26.5 -11.5t-20.5 -41.5h-72zM77 765h181l247 -414q14 -25 24.5 -46
t17.5 -36q8 -18 13 -32h3v528h150v-765h-173l-254 422q-16 25 -26.5 46t-17.5 37q-8 18 -14 33h-3v-538h-148v765z" />
    <glyph glyph-name="Ograve" unicode="&#xd2;" horiz-adv-x="822" 
d="M469 827h-120l-103 133h159zM50 380q0 94 26.5 168t74 124.5t114 77t146.5 26.5q84 0 151 -26t113.5 -76.5t71.5 -124t25 -169.5q0 -95 -25.5 -168.5t-73 -124t-114 -77t-148.5 -26.5q-172 0 -266.5 102.5t-94.5 293.5zM411 104q88 0 136 69.5t48 206.5q0 69 -13.5 121
t-38 87t-58.5 52.5t-74 17.5q-88 0 -135.5 -69t-47.5 -209q0 -139 46 -207.5t137 -68.5z" />
    <glyph glyph-name="Oacute" unicode="&#xd3;" horiz-adv-x="822" 
d="M410 960h158l-103 -133h-119zM50 380q0 94 26.5 168t74 124.5t114 77t146.5 26.5q84 0 151 -26t113.5 -76.5t71.5 -124t25 -169.5q0 -95 -25.5 -168.5t-73 -124t-114 -77t-148.5 -26.5q-172 0 -266.5 102.5t-94.5 293.5zM411 104q88 0 136 69.5t48 206.5q0 69 -13.5 121
t-38 87t-58.5 52.5t-74 17.5q-88 0 -135.5 -69t-47.5 -209q0 -139 46 -207.5t137 -68.5z" />
    <glyph glyph-name="Ocircumflex" unicode="&#xd4;" horiz-adv-x="822" 
d="M589 827h-115l-66 56h-1l-64 -56h-106l108 133h136zM50 380q0 94 26.5 168t74 124.5t114 77t146.5 26.5q84 0 151 -26t113.5 -76.5t71.5 -124t25 -169.5q0 -95 -25.5 -168.5t-73 -124t-114 -77t-148.5 -26.5q-172 0 -266.5 102.5t-94.5 293.5zM411 104q88 0 136 69.5
t48 206.5q0 69 -13.5 121t-38 87t-58.5 52.5t-74 17.5q-88 0 -135.5 -69t-47.5 -209q0 -139 46 -207.5t137 -68.5z" />
    <glyph glyph-name="Otilde" unicode="&#xd5;" horiz-adv-x="822" 
d="M221 819q1 32 7 60t19.5 49t35.5 33.5t54 12.5q24 0 43.5 -8t37 -18t32.5 -18t30 -8t28 12t21 41h71q-1 -32 -7 -60t-19.5 -49t-35.5 -33.5t-54 -12.5q-24 0 -43.5 8t-37 18t-33 18t-30.5 8q-13 0 -26.5 -11.5t-20.5 -41.5h-72zM50 380q0 94 26.5 168t74 124.5t114 77
t146.5 26.5q84 0 151 -26t113.5 -76.5t71.5 -124t25 -169.5q0 -95 -25.5 -168.5t-73 -124t-114 -77t-148.5 -26.5q-172 0 -266.5 102.5t-94.5 293.5zM411 104q88 0 136 69.5t48 206.5q0 69 -13.5 121t-38 87t-58.5 52.5t-74 17.5q-88 0 -135.5 -69t-47.5 -209
q0 -139 46 -207.5t137 -68.5z" />
    <glyph glyph-name="Odieresis" unicode="&#xd6;" horiz-adv-x="822" 
d="M450 965h136v-137h-136v137zM235 965h136v-137h-136v137zM50 380q0 94 26.5 168t74 124.5t114 77t146.5 26.5q84 0 151 -26t113.5 -76.5t71.5 -124t25 -169.5q0 -95 -25.5 -168.5t-73 -124t-114 -77t-148.5 -26.5q-172 0 -266.5 102.5t-94.5 293.5zM411 104
q88 0 136 69.5t48 206.5q0 69 -13.5 121t-38 87t-58.5 52.5t-74 17.5q-88 0 -135.5 -69t-47.5 -209q0 -139 46 -207.5t137 -68.5z" />
    <glyph glyph-name="multiply" unicode="&#xd7;" horiz-adv-x="632" 
d="M63 181l169 166l-168 166l86 87l166 -168l166 168l86 -85l-168 -167l168 -166l-86 -87l-167 169l-166 -169z" />
    <glyph glyph-name="Oslash" unicode="&#xd8;" horiz-adv-x="822" 
d="M411 660q-90 0 -138.5 -69.5t-48.5 -210.5q0 -38 3 -73t11 -64l295 368q-25 26 -56 37.5t-66 11.5zM411 101q89 0 138.5 70t49.5 209q0 48 -5.5 85.5t-15.5 66.5l-300 -374q22 -27 54.5 -42t78.5 -15zM772 380q0 -95 -25.5 -168.5t-73 -124t-114 -77t-148.5 -26.5
q-67 0 -122.5 16t-98.5 47l-58 -72h-108l105 131q-79 100 -79 274q0 94 26.5 168t74 124.5t114 77t146.5 26.5q124 0 210 -56l58 73h108l-103 -129q43 -51 65.5 -121.5t22.5 -162.5z" />
    <glyph glyph-name="Ugrave" unicode="&#xd9;" horiz-adv-x="761" 
d="M439 827h-120l-103 133h159zM69 765h164l-1 -446q0 -21 0.5 -42.5t3.5 -42t9 -38.5t17 -32q21 -26 51 -38t68 -12q42 0 72.5 12t50.5 38q10 14 15.5 32t8 38.5t2.5 42v42.5v446h162v-498q0 -72 -22.5 -125.5t-63.5 -88.5t-99 -52t-128 -17q-71 0 -128 17t-97.5 52
t-62.5 88t-22 126v498z" />
    <glyph glyph-name="Uacute" unicode="&#xda;" horiz-adv-x="761" 
d="M381 960h158l-103 -133h-119zM69 765h164l-1 -446q0 -21 0.5 -42.5t3.5 -42t9 -38.5t17 -32q21 -26 51 -38t68 -12q42 0 72.5 12t50.5 38q10 14 15.5 32t8 38.5t2.5 42v42.5v446h162v-498q0 -72 -22.5 -125.5t-63.5 -88.5t-99 -52t-128 -17q-71 0 -128 17t-97.5 52
t-62.5 88t-22 126v498z" />
    <glyph glyph-name="Ucircumflex" unicode="&#xdb;" horiz-adv-x="761" 
d="M560 827h-115l-66 56h-1l-64 -56h-106l108 133h136zM69 765h164l-1 -446q0 -21 0.5 -42.5t3.5 -42t9 -38.5t17 -32q21 -26 51 -38t68 -12q42 0 72.5 12t50.5 38q10 14 15.5 32t8 38.5t2.5 42v42.5v446h162v-498q0 -72 -22.5 -125.5t-63.5 -88.5t-99 -52t-128 -17
q-71 0 -128 17t-97.5 52t-62.5 88t-22 126v498z" />
    <glyph glyph-name="Udieresis" unicode="&#xdc;" horiz-adv-x="761" 
d="M69 765h164l-1 -446q0 -21 0.5 -42.5t3.5 -42t9 -38.5t17 -32q21 -26 51 -38t68 -12q42 0 72.5 12t50.5 38q10 14 15.5 32t8 38.5t2.5 42v42.5v446h162v-498q0 -72 -22.5 -125.5t-63.5 -88.5t-99 -52t-128 -17q-71 0 -128 17t-97.5 52t-62.5 88t-22 126v498zM419 965h136
v-137h-136v137zM204 965h136v-137h-136v137z" />
    <glyph glyph-name="Yacute" unicode="&#xdd;" horiz-adv-x="697" 
d="M267 320l-256 445h181l161 -301h2l163 301h168l-255 -442v-323h-164v320zM356 960h158l-103 -133h-119z" />
    <glyph glyph-name="Thorn" unicode="&#xde;" horiz-adv-x="668" 
d="M241 161v-161h-164v765h164v-148h128q57 0 105.5 -12.5t84.5 -39.5t56 -69.5t20 -102.5q0 -63 -21 -107t-57.5 -72t-87.5 -40.5t-111 -12.5h-117zM350 276q60 2 93 30t33 86q0 62 -34.5 87.5t-95.5 25.5h-105v-229h109z" />
    <glyph glyph-name="germandbls" unicode="&#xdf;" horiz-adv-x="649" 
d="M68 555q0 111 64 174t198 63q57 0 101 -15t74.5 -41.5t46 -63.5t15.5 -81q0 -37 -10 -65t-26 -49t-37 -34.5t-43 -20.5v-3q34 -7 63.5 -22t51 -39.5t34 -57.5t12.5 -76q0 -108 -73 -166t-204 -58h-40v115h32q53 0 86.5 28t33.5 90q0 59 -34 92.5t-88 33.5h-16v115h15
q42 0 68.5 26.5t26.5 83.5q0 56 -28 79t-68 23q-19 0 -36.5 -6t-30.5 -20t-21 -36t-8 -54v-570h-159v555z" />
    <glyph glyph-name="agrave" unicode="&#xe0;" horiz-adv-x="584" 
d="M256 94q21 0 40 8t33.5 24.5t23.5 41.5t9 58v17q-63 -4 -97.5 -10t-53.5 -19q-14 -9 -20 -23t-6 -31q0 -29 19 -47.5t52 -18.5zM51 377q5 81 65 126t166 45q65 0 109.5 -13.5t72 -40t39.5 -66.5t12 -94v-185q0 -22 8.5 -31t34.5 -9v-110h-53q-58 0 -88 15t-43 59h-2
q-26 -38 -65.5 -58.5t-96.5 -20.5q-85 0 -133.5 42t-48.5 117q0 91 81 134q43 23 104.5 29.5t147.5 10.5v29q0 90 -79 90q-39 0 -58 -19.5t-21 -49.5h-152zM354 614h-121l-88 174h158z" />
    <glyph glyph-name="aacute" unicode="&#xe1;" horiz-adv-x="584" 
d="M256 94q21 0 40 8t33.5 24.5t23.5 41.5t9 58v17q-63 -4 -97.5 -10t-53.5 -19q-14 -9 -20 -23t-6 -31q0 -29 19 -47.5t52 -18.5zM51 377q5 81 65 126t166 45q65 0 109.5 -13.5t72 -40t39.5 -66.5t12 -94v-185q0 -22 8.5 -31t34.5 -9v-110h-53q-58 0 -88 15t-43 59h-2
q-26 -38 -65.5 -58.5t-96.5 -20.5q-85 0 -133.5 42t-48.5 117q0 91 81 134q43 23 104.5 29.5t147.5 10.5v29q0 90 -79 90q-39 0 -58 -19.5t-21 -49.5h-152zM272 788h158l-88 -174h-121z" />
    <glyph glyph-name="acircumflex" unicode="&#xe2;" horiz-adv-x="584" 
d="M256 94q21 0 40 8t33.5 24.5t23.5 41.5t9 58v17q-63 -4 -97.5 -10t-53.5 -19q-14 -9 -20 -23t-6 -31q0 -29 19 -47.5t52 -18.5zM51 377q5 81 65 126t166 45q65 0 109.5 -13.5t72 -40t39.5 -66.5t12 -94v-185q0 -22 8.5 -31t34.5 -9v-110h-53q-58 0 -88 15t-43 59h-2
q-26 -38 -65.5 -58.5t-96.5 -20.5q-85 0 -133.5 42t-48.5 117q0 91 81 134q43 23 104.5 29.5t147.5 10.5v29q0 90 -79 90q-39 0 -58 -19.5t-21 -49.5h-152zM467 614h-109l-69 77h-1l-66 -77h-101l110 174h126z" />
    <glyph glyph-name="atilde" unicode="&#xe3;" horiz-adv-x="584" 
d="M256 94q21 0 40 8t33.5 24.5t23.5 41.5t9 58v17q-63 -4 -97.5 -10t-53.5 -19q-14 -9 -20 -23t-6 -31q0 -29 19 -47.5t52 -18.5zM51 377q5 81 65 126t166 45q65 0 109.5 -13.5t72 -40t39.5 -66.5t12 -94v-185q0 -22 8.5 -31t34.5 -9v-110h-53q-58 0 -88 15t-43 59h-2
q-26 -38 -65.5 -58.5t-96.5 -20.5q-85 0 -133.5 42t-48.5 117q0 91 81 134q43 23 104.5 29.5t147.5 10.5v29q0 90 -79 90q-39 0 -58 -19.5t-21 -49.5h-152zM101 614q0 33 6 63t20 52.5t36.5 35.5t55.5 13q23 0 42.5 -8t36 -17.5t31.5 -17.5t30 -8q14 0 28 10t22 42h71
q0 -34 -6 -64t-20 -52.5t-36.5 -35.5t-55.5 -13q-23 0 -42.5 8t-36 17.5t-31.5 17.5t-30 8q-14 0 -28 -10t-21 -41h-72z" />
    <glyph glyph-name="adieresis" unicode="&#xe4;" horiz-adv-x="584" 
d="M256 94q21 0 40 8t33.5 24.5t23.5 41.5t9 58v17q-63 -4 -97.5 -10t-53.5 -19q-14 -9 -20 -23t-6 -31q0 -29 19 -47.5t52 -18.5zM51 377q5 81 65 126t166 45q65 0 109.5 -13.5t72 -40t39.5 -66.5t12 -94v-185q0 -22 8.5 -31t34.5 -9v-110h-53q-58 0 -88 15t-43 59h-2
q-26 -38 -65.5 -58.5t-96.5 -20.5q-85 0 -133.5 42t-48.5 117q0 91 81 134q43 23 104.5 29.5t147.5 10.5v29q0 90 -79 90q-39 0 -58 -19.5t-21 -49.5h-152zM326 773h137v-137h-137v137zM118 773h136v-137h-136v137z" />
    <glyph glyph-name="aring" unicode="&#xe5;" horiz-adv-x="584" 
d="M256 94q21 0 40 8t33.5 24.5t23.5 41.5t9 58v17q-63 -4 -97.5 -10t-53.5 -19q-14 -9 -20 -23t-6 -31q0 -29 19 -47.5t52 -18.5zM51 377q5 81 65 126t166 45q65 0 109.5 -13.5t72 -40t39.5 -66.5t12 -94v-185q0 -22 8.5 -31t34.5 -9v-110h-53q-58 0 -88 15t-43 59h-2
q-26 -38 -65.5 -58.5t-96.5 -20.5q-85 0 -133.5 42t-48.5 117q0 91 81 134q43 23 104.5 29.5t147.5 10.5v29q0 90 -79 90q-39 0 -58 -19.5t-21 -49.5h-152zM292 602q-62 0 -96.5 33.5t-34.5 89.5q0 27 9.5 49.5t27 39t42 25.5t53.5 9q63 0 97 -34.5t34 -88.5
q0 -56 -36 -89.5t-96 -33.5zM292 785q-24 0 -38.5 -16.5t-14.5 -44.5q0 -27 14 -43.5t40 -16.5q24 0 38 16.5t14 43.5q0 28 -13.5 44.5t-39.5 16.5z" />
    <glyph glyph-name="ae" unicode="&#xe6;" horiz-adv-x="915" 
d="M714 328q-5 58 -28 90t-72 32q-48 0 -73 -34t-30 -94h203v6zM256 94q21 0 40.5 8.5t34 25t23.5 41t9 57.5v13q-63 0 -98 -6t-54 -19q-14 -9 -20 -23t-6 -31q0 -30 19.5 -48t51.5 -18zM871 156q-13 -81 -77.5 -125.5t-173.5 -44.5q-44 0 -78 8t-59.5 21.5t-43 32
t-29.5 39.5h-2q-29 -42 -77 -67.5t-121 -25.5q-85 0 -133.5 42t-48.5 117q0 91 81 134q43 23 105 29t147 8v32q0 43 -19 66.5t-60 23.5q-40 0 -58.5 -20t-20.5 -49h-152q5 81 65 126t168 45q66 0 104.5 -18.5t58.5 -49.5h2q26 32 68 50.5t99 18.5q69 0 118.5 -21t80.5 -58.5
t45.5 -88t14.5 -108.5v-42h-364q5 -74 32 -106t78 -32q24 0 40 5.5t26.5 14t17 20t9.5 23.5h157z" />
    <glyph glyph-name="ccedilla" unicode="&#xe7;" horiz-adv-x="595" 
d="M307 -232q-52 0 -78 23.5t-28 55.5h77q3 -9 10 -15t21 -6q17 0 24.5 9t7.5 23q0 31 -32 31q-17 0 -27 -13h-65l51 113q-112 12 -171 85t-59 194q0 65 19 117t54 88.5t85 56t113 19.5q54 0 98.5 -13t77.5 -39t51.5 -64t20.5 -89h-156q-4 43 -25.5 71t-66.5 28
q-31 0 -52 -14.5t-33.5 -38.5t-17.5 -55.5t-5 -64.5q0 -31 4 -62t15.5 -56t32.5 -40.5t55 -15.5q26 0 44.5 9t29.5 23t16.5 32.5t6.5 38.5h154q-2 -51 -20.5 -90t-50 -65.5t-75 -41t-94.5 -15.5l-21 -46h2q14 10 40 10q36 0 60 -23.5t24 -65.5q0 -18 -7 -35t-21 -30
t-36.5 -21t-52.5 -8z" />
    <glyph glyph-name="egrave" unicode="&#xe8;" horiz-adv-x="601" 
d="M400 329q-4 57 -27 89t-68 32q-49 0 -75 -33t-32 -95h202v7zM557 156q-12 -78 -78.5 -124t-175.5 -46q-65 0 -114.5 20t-83 57t-50.5 89t-17 117q0 61 18 112.5t52 89t84 58t113 20.5q68 0 116.5 -21t80 -58t46 -87.5t14.5 -109.5v-42h-364q5 -72 32 -105t78 -33
q24 0 40 5.5t26.5 14t16.5 20t10 23.5h156zM369 614h-121l-88 174h158z" />
    <glyph glyph-name="eacute" unicode="&#xe9;" horiz-adv-x="601" 
d="M285 788h158l-88 -174h-121zM400 329q-4 57 -27 89t-68 32q-49 0 -75 -33t-32 -95h202v7zM557 156q-12 -78 -78.5 -124t-175.5 -46q-65 0 -114.5 20t-83 57t-50.5 89t-17 117q0 61 18 112.5t52 89t84 58t113 20.5q68 0 116.5 -21t80 -58t46 -87.5t14.5 -109.5v-42h-364
q5 -72 32 -105t78 -33q24 0 40 5.5t26.5 14t16.5 20t10 23.5h156z" />
    <glyph glyph-name="ecircumflex" unicode="&#xea;" horiz-adv-x="601" 
d="M481 614h-109l-69 77h-1l-66 -77h-101l110 174h126zM400 329q-4 57 -27 89t-68 32q-49 0 -75 -33t-32 -95h202v7zM557 156q-12 -78 -78.5 -124t-175.5 -46q-65 0 -114.5 20t-83 57t-50.5 89t-17 117q0 61 18 112.5t52 89t84 58t113 20.5q68 0 116.5 -21t80 -58t46 -87.5
t14.5 -109.5v-42h-364q5 -72 32 -105t78 -33q24 0 40 5.5t26.5 14t16.5 20t10 23.5h156z" />
    <glyph glyph-name="edieresis" unicode="&#xeb;" horiz-adv-x="601" 
d="M339 773h137v-137h-137v137zM131 773h136v-137h-136v137zM400 329q-4 57 -27 89t-68 32q-49 0 -75 -33t-32 -95h202v7zM557 156q-12 -78 -78.5 -124t-175.5 -46q-65 0 -114.5 20t-83 57t-50.5 89t-17 117q0 61 18 112.5t52 89t84 58t113 20.5q68 0 116.5 -21t80 -58
t46 -87.5t14.5 -109.5v-42h-364q5 -72 32 -105t78 -33q24 0 40 5.5t26.5 14t16.5 20t10 23.5h156z" />
    <glyph glyph-name="igrave" unicode="&#xec;" horiz-adv-x="295" 
d="M68 536h159v-536h-159v536zM214 614h-121l-88 174h158z" />
    <glyph glyph-name="iacute" unicode="&#xed;" horiz-adv-x="295" 
d="M129 788h158l-88 -174h-121zM68 536h159v-536h-159v536z" />
    <glyph glyph-name="icircumflex" unicode="&#xee;" horiz-adv-x="295" 
d="M304.209 614h-98.1025l-62.1025 77h-0.899414l-59.4014 -77h-90.9023l99.002 174h113.403zM68 536h159v-536h-159v536z" />
    <glyph glyph-name="idieresis" unicode="&#xef;" horiz-adv-x="295" 
d="M180.006 773h123.303v-137h-123.303v137zM-7.19922 773h122.402v-137h-122.402v137zM68 536h159v-536h-159v536z" />
    <glyph glyph-name="eth" unicode="&#xf0;" horiz-adv-x="622" 
d="M308 -14q-128 0 -199 72.5t-71 206.5q0 64 17 115.5t47.5 88t73 56.5t93.5 20q41 0 65 -12.5t44 -32.5h2q-17 35 -45 65.5t-62 58.5l-133 -52l-24 63l94 37q-26 19 -53 35.5t-53 32.5l117 55q35 -14 67.5 -31t61.5 -37l108 42l23 -63l-70 -27q78 -71 123 -167.5
t45 -220.5q0 -79 -19.5 -136.5t-55 -95t-85.5 -55.5t-111 -18zM310 444q-60 0 -84 -47.5t-24 -131.5q0 -38 5.5 -69.5t18.5 -54.5t33 -35.5t50 -12.5t50.5 12.5t32.5 35.5t17.5 54.5t5.5 69.5q0 82 -23.5 130.5t-81.5 48.5z" />
    <glyph glyph-name="ntilde" unicode="&#xf1;" horiz-adv-x="641" 
d="M420 313q0 29 -2.5 51.5t-13.5 37.5q-22 31 -69 31q-54 0 -81 -32t-27 -91v-310h-159v536h153v-88h2q22 41 63.5 70t110.5 29q97 0 139.5 -49.5t42.5 -149.5v-348h-159v313zM137 613q0 33 6 63t20 52.5t36.5 35.5t55.5 13q23 0 42.5 -8t36 -17.5t31.5 -17.5t30 -8
q14 0 28 10t22 42h71q0 -34 -6 -64t-20 -52.5t-36.5 -35.5t-55.5 -13q-23 0 -42.5 8t-36 17.5t-31.5 17.5t-30 8q-14 0 -28 -10t-21 -41h-72z" />
    <glyph glyph-name="ograve" unicode="&#xf2;" horiz-adv-x="619" 
d="M309 -14q-63 0 -113.5 19.5t-85.5 56t-53.5 88.5t-18.5 118t19 118t54 88.5t85.5 55.5t113.5 19q61 0 111.5 -19t85.5 -55t54.5 -88.5t19.5 -118.5t-20 -118t-56 -88.5t-86 -56t-110 -19.5zM310 442q-30 0 -50.5 -13.5t-33 -36.5t-18.5 -55t-6 -69q0 -39 6 -71t19 -55.5
t33.5 -36t49.5 -12.5q30 0 50.5 13.5t32.5 37t17.5 55.5t5.5 69q0 39 -5.5 71t-18 55t-33 35.5t-49.5 12.5zM376 614h-121l-88 174h158z" />
    <glyph glyph-name="oacute" unicode="&#xf3;" horiz-adv-x="619" 
d="M291 788h158l-88 -174h-121zM309 -14q-63 0 -113.5 19.5t-85.5 56t-53.5 88.5t-18.5 118t19 118t54 88.5t85.5 55.5t113.5 19q61 0 111.5 -19t85.5 -55t54.5 -88.5t19.5 -118.5t-20 -118t-56 -88.5t-86 -56t-110 -19.5zM310 442q-30 0 -50.5 -13.5t-33 -36.5t-18.5 -55
t-6 -69q0 -39 6 -71t19 -55.5t33.5 -36t49.5 -12.5q30 0 50.5 13.5t32.5 37t17.5 55.5t5.5 69q0 39 -5.5 71t-18 55t-33 35.5t-49.5 12.5z" />
    <glyph glyph-name="ocircumflex" unicode="&#xf4;" horiz-adv-x="619" 
d="M487 614h-109l-69 77h-1l-66 -77h-101l110 174h126zM309 -14q-63 0 -113.5 19.5t-85.5 56t-53.5 88.5t-18.5 118t19 118t54 88.5t85.5 55.5t113.5 19q61 0 111.5 -19t85.5 -55t54.5 -88.5t19.5 -118.5t-20 -118t-56 -88.5t-86 -56t-110 -19.5zM310 442q-30 0 -50.5 -13.5
t-33 -36.5t-18.5 -55t-6 -69q0 -39 6 -71t19 -55.5t33.5 -36t49.5 -12.5q30 0 50.5 13.5t32.5 37t17.5 55.5t5.5 69q0 39 -5.5 71t-18 55t-33 35.5t-49.5 12.5z" />
    <glyph glyph-name="otilde" unicode="&#xf5;" horiz-adv-x="619" 
d="M309 -14q-63 0 -113.5 19.5t-85.5 56t-53.5 88.5t-18.5 118t19 118t54 88.5t85.5 55.5t113.5 19q61 0 111.5 -19t85.5 -55t54.5 -88.5t19.5 -118.5t-20 -118t-56 -88.5t-86 -56t-110 -19.5zM310 442q-30 0 -50.5 -13.5t-33 -36.5t-18.5 -55t-6 -69q0 -39 6 -71t19 -55.5
t33.5 -36t49.5 -12.5q30 0 50.5 13.5t32.5 37t17.5 55.5t5.5 69q0 39 -5.5 71t-18 55t-33 35.5t-49.5 12.5zM120 614q0 33 6 63t20 52.5t36.5 35.5t55.5 13q23 0 42.5 -8t36 -17.5t31.5 -17.5t30 -8q14 0 28 10t22 42h71q0 -34 -6 -64t-20 -52.5t-36.5 -35.5t-55.5 -13
q-23 0 -42.5 8t-36 17.5t-31.5 17.5t-30 8q-14 0 -28 -10t-21 -41h-72z" />
    <glyph glyph-name="odieresis" unicode="&#xf6;" horiz-adv-x="619" 
d="M345 773h137v-137h-137v137zM137 773h136v-137h-136v137zM309 -14q-63 0 -113.5 19.5t-85.5 56t-53.5 88.5t-18.5 118t19 118t54 88.5t85.5 55.5t113.5 19q61 0 111.5 -19t85.5 -55t54.5 -88.5t19.5 -118.5t-20 -118t-56 -88.5t-86 -56t-110 -19.5zM310 442
q-30 0 -50.5 -13.5t-33 -36.5t-18.5 -55t-6 -69q0 -39 6 -71t19 -55.5t33.5 -36t49.5 -12.5q30 0 50.5 13.5t32.5 37t17.5 55.5t5.5 69q0 39 -5.5 71t-18 55t-33 35.5t-49.5 12.5z" />
    <glyph glyph-name="divide" unicode="&#xf7;" horiz-adv-x="633" 
d="M239 635h153v-143h-153v143zM76 416h480v-116h-480v116zM239 78v144h153v-144h-153z" />
    <glyph glyph-name="oslash" unicode="&#xf8;" horiz-adv-x="619" 
d="M310 445q-32 0 -53.5 -13.5t-34.5 -37.5t-19 -56.5t-6 -69.5q0 -41 6 -74l180 223q-26 28 -73 28zM310 91q32 0 53.5 13.5t34.5 37.5t18.5 56t5.5 70q0 20 -1.5 38t-3.5 35l-181 -222q26 -28 74 -28zM581 268q0 -66 -20 -118t-56 -88.5t-86 -56t-110 -19.5q-87 0 -150 37
l-50 -61h-94l87 108q-31 36 -47.5 85.5t-16.5 112.5q0 66 19 118t54 88.5t85.5 55.5t113.5 19q87 0 150 -37l49 60h95l-87 -108q31 -35 47.5 -84.5t16.5 -111.5z" />
    <glyph glyph-name="ugrave" unicode="&#xf9;" horiz-adv-x="637" 
d="M222 223q0 -29 3 -51t13 -37q21 -31 68 -31q105 0 105 139v293h159v-536h-153v87h-2q-21 -41 -61.5 -69t-106.5 -28q-97 0 -140.5 47t-43.5 142v357h159v-313zM383 614h-121l-88 174h158z" />
    <glyph glyph-name="uacute" unicode="&#xfa;" horiz-adv-x="637" 
d="M298 788h158l-88 -174h-121zM222 223q0 -29 3 -51t13 -37q21 -31 68 -31q105 0 105 139v293h159v-536h-153v87h-2q-21 -41 -61.5 -69t-106.5 -28q-97 0 -140.5 47t-43.5 142v357h159v-313z" />
    <glyph glyph-name="ucircumflex" unicode="&#xfb;" horiz-adv-x="637" 
d="M494 614h-109l-69 77h-1l-66 -77h-101l110 174h126zM222 223q0 -29 3 -51t13 -37q21 -31 68 -31q105 0 105 139v293h159v-536h-153v87h-2q-21 -41 -61.5 -69t-106.5 -28q-97 0 -140.5 47t-43.5 142v357h159v-313z" />
    <glyph glyph-name="udieresis" unicode="&#xfc;" horiz-adv-x="637" 
d="M354 773h137v-137h-137v137zM146 773h136v-137h-136v137zM222 223q0 -29 3 -51t13 -37q21 -31 68 -31q105 0 105 139v293h159v-536h-153v87h-2q-21 -41 -61.5 -69t-106.5 -28q-97 0 -140.5 47t-43.5 142v357h159v-313z" />
    <glyph glyph-name="yacute" unicode="&#xfd;" horiz-adv-x="571" 
d="M17 536h164l88 -282q7 -22 11.5 -41t7.5 -33q4 -17 5 -31h3q1 14 5 31q3 14 7 33t11 41l83 282h155l-188 -553q-16 -47 -35 -81t-46 -56.5t-64 -33.5t-89 -11q-39 0 -58 3t-21 4v116q7 -2 22 -3.5t32 -1.5q45 0 68.5 14.5t34.5 50.5l4 13zM277 788h158l-88 -174h-121z
" />
    <glyph glyph-name="thorn" unicode="&#xfe;" horiz-adv-x="646" 
d="M225 239q0 -63 27 -104.5t83 -41.5q53 0 81.5 44t28.5 131q0 85 -27 128t-84 43q-48 0 -78.5 -37.5t-30.5 -104.5v-58zM68 788h159v-332h2q20 37 61.5 64.5t101.5 27.5q46 0 85.5 -15.5t68.5 -49t45 -86.5t16 -127q0 -67 -16.5 -119.5t-46.5 -89t-72.5 -55.5t-94.5 -19
q-58 0 -94 24t-53 56h-3v-255h-159v976z" />
    <glyph glyph-name="ydieresis" unicode="&#xff;" horiz-adv-x="571" 
d="M17 536h164l88 -282q7 -22 11.5 -41t7.5 -33q4 -17 5 -31h3q1 14 5 31q3 14 7 33t11 41l83 282h155l-188 -553q-16 -47 -35 -81t-46 -56.5t-64 -33.5t-89 -11q-39 0 -58 3t-21 4v116q7 -2 22 -3.5t32 -1.5q45 0 68.5 14.5t34.5 50.5l4 13zM331 773h137v-137h-137v137z
M123 773h136v-137h-136v137z" />
    <glyph glyph-name="Amacron" unicode="&#x100;" horiz-adv-x="761" 
d="M373 624q-1 -3 -8 -33.5t-22 -77.5l-71 -223h202l-70 222q-8 25 -13 45.5t-9 35.5q-4 18 -7 31h-2zM514 170h-281l-56 -170h-157l267 765h184l271 -765h-172zM208 942h342v-104h-342v104z" />
    <glyph glyph-name="amacron" unicode="&#x101;" horiz-adv-x="584" 
d="M256 94q21 0 40 8t33.5 24.5t23.5 41.5t9 58v17q-63 -4 -97.5 -10t-53.5 -19q-14 -9 -20 -23t-6 -31q0 -29 19 -47.5t52 -18.5zM51 377q5 81 65 126t166 45q65 0 109.5 -13.5t72 -40t39.5 -66.5t12 -94v-185q0 -22 8.5 -31t34.5 -9v-110h-53q-58 0 -88 15t-43 59h-2
q-26 -38 -65.5 -58.5t-96.5 -20.5q-85 0 -133.5 42t-48.5 117q0 91 81 134q43 23 104.5 29.5t147.5 10.5v29q0 90 -79 90q-39 0 -58 -19.5t-21 -49.5h-152zM119 740h342v-104h-342v104z" />
    <glyph glyph-name="Abreve" unicode="&#x102;" horiz-adv-x="761" 
d="M373 624q-1 -3 -8 -33.5t-22 -77.5l-71 -223h202l-70 222q-8 25 -13 45.5t-9 35.5q-4 18 -7 31h-2zM514 170h-281l-56 -170h-157l267 765h184l271 -765h-172zM379 815q-34 0 -63.5 9t-52 27.5t-36 48.5t-14.5 72h103q2 -30 20.5 -46.5t45.5 -16.5t45.5 16.5t21.5 46.5h97
q-1 -42 -14.5 -72t-36 -48.5t-52.5 -27.5t-64 -9z" />
    <glyph glyph-name="abreve" unicode="&#x103;" horiz-adv-x="584" 
d="M256 94q21 0 40 8t33.5 24.5t23.5 41.5t9 58v17q-63 -4 -97.5 -10t-53.5 -19q-14 -9 -20 -23t-6 -31q0 -29 19 -47.5t52 -18.5zM51 377q5 81 65 126t166 45q65 0 109.5 -13.5t72 -40t39.5 -66.5t12 -94v-185q0 -22 8.5 -31t34.5 -9v-110h-53q-58 0 -88 15t-43 59h-2
q-26 -38 -65.5 -58.5t-96.5 -20.5q-85 0 -133.5 42t-48.5 117q0 91 81 134q43 23 104.5 29.5t147.5 10.5v29q0 90 -79 90q-39 0 -58 -19.5t-21 -49.5h-152zM290 612q-35 0 -65 10t-52.5 31.5t-35.5 54.5t-13 80h105q0 -37 17.5 -55.5t46.5 -18.5t47 18.5t18 55.5h99
q0 -47 -13 -80t-35.5 -54.5t-53 -31.5t-65.5 -10z" />
    <glyph glyph-name="Aogonek" unicode="&#x104;" horiz-adv-x="761" 
d="M287 765h184l268 -758q-35 -19 -49.5 -36.5t-14.5 -34.5t12 -25.5t39 -9.5v-89h-29q-40 0 -67.5 6.5t-44 18.5t-23.5 28.5t-7 36.5q0 28 19 54.5t58 43.5h-63l-56 170h-280l-56 -170h-157zM474 290l-70 222q-8 25 -13 45.5t-9 35.5q-4 18 -7 31h-2q-3 -13 -7 -31
q-8 -32 -23 -80l-71 -223h202z" />
    <glyph glyph-name="aogonek" unicode="&#x105;" horiz-adv-x="584" 
d="M51 377q5 81 65 126t166 45q65 0 109.5 -13.5t72 -40t39.5 -66.5t12 -94v-185q0 -22 8.5 -31t34.5 -9v-109q-29 -18 -41.5 -33.5t-12.5 -31.5q0 -17 12 -25t39 -9v-89h-29q-80 0 -111.5 25t-31.5 65q0 29 20 55t65 42v2q-37 5 -60 19.5t-34 52.5h-2q-26 -38 -65.5 -58.5
t-96.5 -20.5q-85 0 -133.5 42t-48.5 117q0 91 81 134q43 23 104.5 29.5t147.5 10.5v29q0 90 -79 90q-39 0 -58 -19.5t-21 -49.5h-152zM256 94q21 0 40 8t33.5 24.5t23.5 41.5t9 58v17q-63 -4 -97.5 -10t-53.5 -19q-14 -9 -20 -23t-6 -31q0 -29 19 -47.5t52 -18.5z" />
    <glyph glyph-name="Cacute" unicode="&#x106;" horiz-adv-x="766" 
d="M404 654q-39 0 -71.5 -17.5t-56 -52t-36.5 -86.5t-13 -120q0 -132 47 -201.5t129 -69.5q68 0 105.5 40.5t44.5 112.5h167q-3 -62 -26 -113t-63.5 -87t-97 -56t-126.5 -20q-89 0 -156 26.5t-111.5 76.5t-67 122t-22.5 163q0 94 24 169t69.5 127.5t111.5 80t149 27.5
q70 0 127 -18t97.5 -52.5t64.5 -85t28 -114.5h-169q-6 68 -45.5 108t-102.5 40zM409 960h158l-103 -133h-119z" />
    <glyph glyph-name="cacute" unicode="&#x107;" horiz-adv-x="595" 
d="M295 788h158l-88 -174h-121zM401 344q-4 43 -25.5 71t-66.5 28q-31 0 -52 -14.5t-33.5 -38.5t-17.5 -55.5t-5 -64.5q0 -31 4 -62t15.5 -56t32.5 -40.5t55 -15.5q26 0 44.5 9t29.5 23t16.5 32.5t6.5 38.5h154q-2 -53 -21.5 -92.5t-53 -66t-78.5 -40t-98 -13.5
q-131 0 -200.5 74.5t-69.5 206.5q0 65 19 117t54 88.5t85 56t113 19.5q54 0 98.5 -13t77.5 -39t51.5 -64t20.5 -89h-156z" />
    <glyph glyph-name="Ccircumflex" unicode="&#x108;" horiz-adv-x="766" 
d="M587 827h-115l-66 56h-1l-64 -56h-106l108 133h136zM404 654q-39 0 -71.5 -17.5t-56 -52t-36.5 -86.5t-13 -120q0 -132 47 -201.5t129 -69.5q68 0 105.5 40.5t44.5 112.5h167q-3 -62 -26 -113t-63.5 -87t-97 -56t-126.5 -20q-89 0 -156 26.5t-111.5 76.5t-67 122
t-22.5 163q0 94 24 169t69.5 127.5t111.5 80t149 27.5q70 0 127 -18t97.5 -52.5t64.5 -85t28 -114.5h-169q-6 68 -45.5 108t-102.5 40z" />
    <glyph glyph-name="ccircumflex" unicode="&#x109;" horiz-adv-x="595" 
d="M491 614h-109l-69 77h-1l-66 -77h-101l110 174h126zM401 344q-4 43 -25.5 71t-66.5 28q-31 0 -52 -14.5t-33.5 -38.5t-17.5 -55.5t-5 -64.5q0 -31 4 -62t15.5 -56t32.5 -40.5t55 -15.5q26 0 44.5 9t29.5 23t16.5 32.5t6.5 38.5h154q-2 -53 -21.5 -92.5t-53 -66t-78.5 -40
t-98 -13.5q-131 0 -200.5 74.5t-69.5 206.5q0 65 19 117t54 88.5t85 56t113 19.5q54 0 98.5 -13t77.5 -39t51.5 -64t20.5 -89h-156z" />
    <glyph glyph-name="Cdotaccent" unicode="&#x10a;" horiz-adv-x="766" 
d="M404 654q-39 0 -71.5 -17.5t-56 -52t-36.5 -86.5t-13 -120q0 -132 47 -201.5t129 -69.5q68 0 105.5 40.5t44.5 112.5h167q-3 -62 -26 -113t-63.5 -87t-97 -56t-126.5 -20q-89 0 -156 26.5t-111.5 76.5t-67 122t-22.5 163q0 94 24 169t69.5 127.5t111.5 80t149 27.5
q70 0 127 -18t97.5 -52.5t64.5 -85t28 -114.5h-169q-6 68 -45.5 108t-102.5 40zM339 970h137v-137h-137v137z" />
    <glyph glyph-name="cdotaccent" unicode="&#x10b;" horiz-adv-x="595" 
d="M401 344q-4 43 -25.5 71t-66.5 28q-31 0 -52 -14.5t-33.5 -38.5t-17.5 -55.5t-5 -64.5q0 -31 4 -62t15.5 -56t32.5 -40.5t55 -15.5q26 0 44.5 9t29.5 23t16.5 32.5t6.5 38.5h154q-2 -53 -21.5 -92.5t-53 -66t-78.5 -40t-98 -13.5q-131 0 -200.5 74.5t-69.5 206.5
q0 65 19 117t54 88.5t85 56t113 19.5q54 0 98.5 -13t77.5 -39t51.5 -64t20.5 -89h-156zM244 773h137v-137h-137v137z" />
    <glyph glyph-name="Ccaron" unicode="&#x10c;" horiz-adv-x="766" 
d="M225 960h115l66 -56h1l64 56h106l-108 -133h-136zM404 654q-39 0 -71.5 -17.5t-56 -52t-36.5 -86.5t-13 -120q0 -132 47 -201.5t129 -69.5q68 0 105.5 40.5t44.5 112.5h167q-3 -62 -26 -113t-63.5 -87t-97 -56t-126.5 -20q-89 0 -156 26.5t-111.5 76.5t-67 122t-22.5 163
q0 94 24 169t69.5 127.5t111.5 80t149 27.5q70 0 127 -18t97.5 -52.5t64.5 -85t28 -114.5h-169q-6 68 -45.5 108t-102.5 40z" />
    <glyph glyph-name="ccaron" unicode="&#x10d;" horiz-adv-x="595" 
d="M134 788h109l69 -77h1l66 77h101l-110 -174h-126zM401 344q-4 43 -25.5 71t-66.5 28q-31 0 -52 -14.5t-33.5 -38.5t-17.5 -55.5t-5 -64.5q0 -31 4 -62t15.5 -56t32.5 -40.5t55 -15.5q26 0 44.5 9t29.5 23t16.5 32.5t6.5 38.5h154q-2 -53 -21.5 -92.5t-53 -66t-78.5 -40
t-98 -13.5q-131 0 -200.5 74.5t-69.5 206.5q0 65 19 117t54 88.5t85 56t113 19.5q54 0 98.5 -13t77.5 -39t51.5 -64t20.5 -89h-156z" />
    <glyph glyph-name="Dcaron" unicode="&#x10e;" horiz-adv-x="770" 
d="M172 960h115l66 -56h1l64 56h106l-108 -133h-136zM77 765h261q85 0 155.5 -21.5t121 -67t78.5 -116t28 -168.5t-27.5 -171.5t-78 -122.5t-120 -73.5t-153.5 -24.5h-265v765zM330 124q49 0 89.5 13.5t68.5 44.5t43.5 81.5t15.5 124.5q0 71 -15.5 119.5t-43.5 78.5
t-67 43.5t-86 13.5h-94v-519h89z" />
    <glyph glyph-name="dcaron" unicode="&#x10f;" horiz-adv-x="649" 
d="M651 788h125l-56 -187h-75zM424 292q0 71 -29 109t-79 38q-54 0 -84.5 -42.5t-30.5 -130.5q0 -82 26 -127.5t85 -45.5q55 0 83.5 38.5t28.5 96.5v64zM581 0h-152v79h-2q-11 -18 -25.5 -34.5t-34 -29.5t-44.5 -21t-56 -8q-107 0 -167.5 67.5t-60.5 207.5q0 71 18 124.5
t49.5 89.5t74 54t92.5 18q52 0 90 -22t57 -60h2v323h159v-788z" />
    <glyph glyph-name="Dcroat" unicode="&#x110;" horiz-adv-x="792" 
d="M99 0v329h-75v111h75v325h262q84 0 154.5 -21.5t121 -67t78.5 -116t28 -168.5t-27.5 -171.5t-78 -122.5t-120 -73.5t-153.5 -24.5h-265zM352 124q49 0 89.5 13.5t68.5 44.5t43.5 81.5t15.5 124.5q0 71 -15.5 119.5t-43.5 78.5t-67 43.5t-86 13.5h-94v-203h166v-111h-166
v-205h89z" />
    <glyph glyph-name="dcroat" unicode="&#x111;" horiz-adv-x="649" 
d="M424 292q0 71 -29 109t-79 38q-54 0 -84.5 -42.5t-30.5 -130.5q0 -82 26 -127.5t85 -45.5q55 0 83.5 38.5t28.5 96.5v64zM427 79q-11 -18 -25.5 -34.5t-34 -29.5t-44.5 -21t-56 -8q-107 0 -167.5 67.5t-60.5 207.5q0 71 18 124.5t49.5 89.5t74 54t92.5 18q52 0 90 -22
t57 -60h2v142h-149v93h149v88h159v-88h79v-93h-79v-607h-152v79h-2z" />
    <glyph glyph-name="Emacron" unicode="&#x112;" horiz-adv-x="648" 
d="M77 765h504v-125h-340v-197h322v-122h-322v-197h349v-124h-513v765zM162 942h342v-104h-342v104z" />
    <glyph glyph-name="emacron" unicode="&#x113;" horiz-adv-x="601" 
d="M400 329q-4 57 -27 89t-68 32q-49 0 -75 -33t-32 -95h202v7zM557 156q-12 -78 -78.5 -124t-175.5 -46q-65 0 -114.5 20t-83 57t-50.5 89t-17 117q0 61 18 112.5t52 89t84 58t113 20.5q68 0 116.5 -21t80 -58t46 -87.5t14.5 -109.5v-42h-364q5 -72 32 -105t78 -33
q24 0 40 5.5t26.5 14t16.5 20t10 23.5h156zM132 740h342v-104h-342v104z" />
    <glyph glyph-name="Ebreve" unicode="&#x114;" horiz-adv-x="648" 
d="M77 765h504v-125h-340v-197h322v-122h-322v-197h349v-124h-513v765zM333 815q-34 0 -63.5 9t-52 27.5t-36 48.5t-14.5 72h103q2 -30 20.5 -46.5t45.5 -16.5t45.5 16.5t21.5 46.5h97q-1 -42 -14.5 -72t-36 -48.5t-52.5 -27.5t-64 -9z" />
    <glyph glyph-name="ebreve" unicode="&#x115;" horiz-adv-x="601" 
d="M400 329q-4 57 -27 89t-68 32q-49 0 -75 -33t-32 -95h202v7zM557 156q-12 -78 -78.5 -124t-175.5 -46q-65 0 -114.5 20t-83 57t-50.5 89t-17 117q0 61 18 112.5t52 89t84 58t113 20.5q68 0 116.5 -21t80 -58t46 -87.5t14.5 -109.5v-42h-364q5 -72 32 -105t78 -33
q24 0 40 5.5t26.5 14t16.5 20t10 23.5h156zM303 612q-35 0 -65 10t-52.5 31.5t-35.5 54.5t-13 80h105q0 -37 17.5 -55.5t46.5 -18.5t47 18.5t18 55.5h99q0 -47 -13 -80t-35.5 -54.5t-53 -31.5t-65.5 -10z" />
    <glyph glyph-name="Edotaccent" unicode="&#x116;" horiz-adv-x="648" 
d="M264 970h137v-137h-137v137zM77 765h504v-125h-340v-197h322v-122h-322v-197h349v-124h-513v765z" />
    <glyph glyph-name="edotaccent" unicode="&#x117;" horiz-adv-x="601" 
d="M400 329q-4 57 -27 89t-68 32q-49 0 -75 -33t-32 -95h202v7zM557 156q-12 -78 -78.5 -124t-175.5 -46q-65 0 -114.5 20t-83 57t-50.5 89t-17 117q0 61 18 112.5t52 89t84 58t113 20.5q68 0 116.5 -21t80 -58t46 -87.5t14.5 -109.5v-42h-364q5 -72 32 -105t78 -33
q24 0 40 5.5t26.5 14t16.5 20t10 23.5h156zM234 773h137v-137h-137v137z" />
    <glyph glyph-name="Eogonek" unicode="&#x118;" horiz-adv-x="648" 
d="M590 -188h-29q-80 0 -111.5 25.5t-31.5 64.5q0 29 19.5 55t60.5 43h-421v765h504v-125h-340v-197h322v-122h-322v-197h349v-124q-27 -18 -39 -33t-12 -31q0 -17 12 -25.5t39 -9.5v-89z" />
    <glyph glyph-name="eogonek" unicode="&#x119;" horiz-adv-x="601" 
d="M557 156q-5 -32 -20 -60.5t-47 -54.5q-35 -29 -58.5 -55t-23.5 -50q0 -17 12 -25.5t39 -9.5v-89h-29q-80 0 -111.5 25t-31.5 63q0 58 87 92v2q-16 -2 -35 -5t-36 -3q-65 0 -114.5 20t-83 57t-50.5 89t-17 117q0 61 18 112.5t52.5 89t84 58t111.5 20.5q69 0 118 -21
t80 -58t45.5 -87.5t14.5 -109.5v-42h-364q5 -71 31.5 -104.5t78.5 -33.5q24 0 40 5.5t26.5 14t16.5 20t10 23.5h156zM400 322q-2 60 -25 94t-71 34t-74.5 -33.5t-31.5 -94.5h202z" />
    <glyph glyph-name="Ecaron" unicode="&#x11a;" horiz-adv-x="648" 
d="M151 960h115l66 -56h1l64 56h106l-108 -133h-136zM77 765h504v-125h-340v-197h322v-122h-322v-197h349v-124h-513v765z" />
    <glyph glyph-name="ecaron" unicode="&#x11b;" horiz-adv-x="601" 
d="M124 788h109l69 -77h1l66 77h101l-110 -174h-126zM400 329q-4 57 -27 89t-68 32q-49 0 -75 -33t-32 -95h202v7zM557 156q-12 -78 -78.5 -124t-175.5 -46q-65 0 -114.5 20t-83 57t-50.5 89t-17 117q0 61 18 112.5t52 89t84 58t113 20.5q68 0 116.5 -21t80 -58t46 -87.5
t14.5 -109.5v-42h-364q5 -72 32 -105t78 -33q24 0 40 5.5t26.5 14t16.5 20t10 23.5h156z" />
    <glyph glyph-name="Gcircumflex" unicode="&#x11c;" horiz-adv-x="810" 
d="M581 827h-115l-66 56h-1l-64 -56h-106l108 133h136zM412 658q-90 0 -138.5 -71t-48.5 -208q0 -74 13 -126.5t37 -85.5t58.5 -48.5t78.5 -15.5q79 0 123.5 45.5t50.5 127.5l1 14h-181v118h334v-408h-130v104h-4q-27 -52 -82 -86t-140 -34q-82 0 -144.5 27.5t-104.5 77.5
t-63.5 121.5t-21.5 160.5q0 93 26 168t73.5 127.5t114.5 81t148 28.5q139 0 219 -62.5t94 -180.5h-167q-8 56 -46.5 90.5t-99.5 34.5z" />
    <glyph glyph-name="gcircumflex" unicode="&#x11d;" horiz-adv-x="646" 
d="M469 614h-109l-69 77h-1l-66 -77h-101l110 174h126zM426 302q0 66 -30.5 101.5t-81.5 35.5q-50 0 -81.5 -40t-31.5 -121q0 -77 27.5 -118.5t85.5 -41.5q25 0 45.5 9.5t35.5 26.5t23 40t8 50v58zM309 -199q-125 0 -186 45.5t-67 121.5h153q8 -30 29 -46.5t73 -16.5
q59 0 87 29t28 101v76h-3q-7 -16 -19.5 -33t-31.5 -30.5t-45 -22t-60 -8.5q-105 0 -166.5 63t-61.5 198q0 66 18 116t49.5 84t73.5 51.5t91 17.5q31 0 55.5 -7t43.5 -19t32.5 -27t21.5 -31h2v73h152v-493q0 -122 -66 -182t-203 -60z" />
    <glyph glyph-name="Gbreve" unicode="&#x11e;" horiz-adv-x="810" 
d="M405 815q-34 0 -63.5 9t-52 27.5t-36 48.5t-14.5 72h103q2 -30 20.5 -46.5t45.5 -16.5t45.5 16.5t21.5 46.5h97q-1 -42 -14.5 -72t-36 -48.5t-52.5 -27.5t-64 -9zM412 658q-90 0 -138.5 -71t-48.5 -208q0 -74 13 -126.5t37 -85.5t58.5 -48.5t78.5 -15.5q79 0 123.5 45.5
t50.5 127.5l1 14h-181v118h334v-408h-130v104h-4q-27 -52 -82 -86t-140 -34q-82 0 -144.5 27.5t-104.5 77.5t-63.5 121.5t-21.5 160.5q0 93 26 168t73.5 127.5t114.5 81t148 28.5q139 0 219 -62.5t94 -180.5h-167q-8 56 -46.5 90.5t-99.5 34.5z" />
    <glyph glyph-name="gbreve" unicode="&#x11f;" horiz-adv-x="646" 
d="M426 302q0 66 -30.5 101.5t-81.5 35.5q-50 0 -81.5 -40t-31.5 -121q0 -77 27.5 -118.5t85.5 -41.5q25 0 45.5 9.5t35.5 26.5t23 40t8 50v58zM309 -199q-125 0 -186 45.5t-67 121.5h153q8 -30 29 -46.5t73 -16.5q59 0 87 29t28 101v76h-3q-7 -16 -19.5 -33t-31.5 -30.5
t-45 -22t-60 -8.5q-105 0 -166.5 63t-61.5 198q0 66 18 116t49.5 84t73.5 51.5t91 17.5q31 0 55.5 -7t43.5 -19t32.5 -27t21.5 -31h2v73h152v-493q0 -122 -66 -182t-203 -60zM292 612q-35 0 -65 10t-52.5 31.5t-35.5 54.5t-13 80h105q0 -37 17.5 -55.5t46.5 -18.5t47 18.5
t18 55.5h99q0 -47 -13 -80t-35.5 -54.5t-53 -31.5t-65.5 -10z" />
    <glyph glyph-name="Gdotaccent" unicode="&#x120;" horiz-adv-x="810" 
d="M336 970h137v-137h-137v137zM412 658q-90 0 -138.5 -71t-48.5 -208q0 -74 13 -126.5t37 -85.5t58.5 -48.5t78.5 -15.5q79 0 123.5 45.5t50.5 127.5l1 14h-181v118h334v-408h-130v104h-4q-27 -52 -82 -86t-140 -34q-82 0 -144.5 27.5t-104.5 77.5t-63.5 121.5t-21.5 160.5
q0 93 26 168t73.5 127.5t114.5 81t148 28.5q139 0 219 -62.5t94 -180.5h-167q-8 56 -46.5 90.5t-99.5 34.5z" />
    <glyph glyph-name="gdotaccent" unicode="&#x121;" horiz-adv-x="646" 
d="M426 302q0 66 -30.5 101.5t-81.5 35.5q-50 0 -81.5 -40t-31.5 -121q0 -77 27.5 -118.5t85.5 -41.5q25 0 45.5 9.5t35.5 26.5t23 40t8 50v58zM309 -199q-125 0 -186 45.5t-67 121.5h153q8 -30 29 -46.5t73 -16.5q59 0 87 29t28 101v76h-3q-7 -16 -19.5 -33t-31.5 -30.5
t-45 -22t-60 -8.5q-105 0 -166.5 63t-61.5 198q0 66 18 116t49.5 84t73.5 51.5t91 17.5q31 0 55.5 -7t43.5 -19t32.5 -27t21.5 -31h2v73h152v-493q0 -122 -66 -182t-203 -60zM223 773h137v-137h-137v137z" />
    <glyph glyph-name="Gcommaaccent" unicode="&#x122;" horiz-adv-x="810" 
d="M327 -64h154l-73 -156h-105zM412 658q-90 0 -138.5 -71t-48.5 -208q0 -74 13 -126.5t37 -85.5t58.5 -48.5t78.5 -15.5q79 0 123.5 45.5t50.5 127.5l1 14h-181v118h334v-408h-130v104h-4q-27 -52 -82 -86t-140 -34q-82 0 -144.5 27.5t-104.5 77.5t-63.5 121.5t-21.5 160.5
q0 93 26 168t73.5 127.5t114.5 81t148 28.5q139 0 219 -62.5t94 -180.5h-167q-8 56 -46.5 90.5t-99.5 34.5z" />
    <glyph glyph-name="gcommaaccent" unicode="&#x123;" horiz-adv-x="646" 
d="M360 617h-157l79 165h105zM426 302q0 66 -30.5 101.5t-81.5 35.5q-50 0 -81.5 -40t-31.5 -121q0 -77 27.5 -118.5t85.5 -41.5q25 0 45.5 9.5t35.5 26.5t23 40t8 50v58zM309 -199q-125 0 -186 45.5t-67 121.5h153q8 -30 29 -46.5t73 -16.5q59 0 87 29t28 101v76h-3
q-7 -16 -19.5 -33t-31.5 -30.5t-45 -22t-60 -8.5q-105 0 -166.5 63t-61.5 198q0 66 18 116t49.5 84t73.5 51.5t91 17.5q31 0 55.5 -7t43.5 -19t32.5 -27t21.5 -31h2v73h152v-493q0 -122 -66 -182t-203 -60z" />
    <glyph glyph-name="Hcircumflex" unicode="&#x124;" horiz-adv-x="792" 
d="M241 0h-164v765h164v-319h308v319h166v-765h-166v318h-308v-318zM576 827h-115l-66 56h-1l-64 -56h-106l108 133h136z" />
    <glyph glyph-name="hcircumflex" unicode="&#x125;" horiz-adv-x="641" 
d="M420 314q0 29 -2.5 51t-13.5 37q-22 31 -69 31q-54 0 -81 -32t-27 -91v-310h-159v788h159v-338h2q9 18 24 35.5t36 31t48 22t60 8.5q97 0 139.5 -49.5t42.5 -149.5v-348h-159v314zM503 827h-115l-66 56h-1l-64 -56h-106l108 133h136z" />
    <glyph glyph-name="Hbar" unicode="&#x126;" horiz-adv-x="792" 
d="M549 564h-308v-118h308v118zM241 0h-164v564h-77v94h77v107h164v-107h308v107h166v-107h77v-94h-77v-564h-166v318h-308v-318z" />
    <glyph glyph-name="hbar" unicode="&#x127;" horiz-adv-x="641" 
d="M227 0h-159v607h-79v93h79v88h158v-88h151v-93h-151v-157h2q9 18 24 35.5t36.5 31t48.5 22t60 8.5q97 0 139.5 -49.5t42.5 -149.5v-348h-159v314q0 29 -2.5 51t-13.5 37q-22 31 -69 31q-54 0 -81 -32t-27 -91v-310z" />
    <glyph glyph-name="Itilde" unicode="&#x128;" horiz-adv-x="318" 
d="M77 765h164v-765h-164v765zM-31 819q1 32 7 60t19.5 49t35.5 33.5t54 12.5q24 0 43.5 -8t37 -18t32.5 -18t30 -8t28 12t21 41h71q-1 -32 -7 -60t-19.5 -49t-35.5 -33.5t-54 -12.5q-24 0 -43.5 8t-37 18t-33 18t-30.5 8q-13 0 -26.5 -11.5t-20.5 -41.5h-72z" />
    <glyph glyph-name="itilde" unicode="&#x129;" horiz-adv-x="295" 
d="M68 536h159v-536h-159v536zM-14.25 614q0 33 5.09961 63q5.10059 30 17 52.5t31.0244 35.5q19.124 13 47.1729 13q19.5498 0 36.124 -8q16.5752 -8 30.5996 -17.5t26.7744 -17.5q12.749 -8 25.499 -8q11.8994 0 23.7988 10q11.9004 10 18.7002 42h60.3477
q0 -34 -5.09961 -64t-17 -52.5q-11.8994 -22.5 -31.0234 -35.5q-19.125 -13 -47.1738 -13q-19.5498 0 -36.124 8t-30.5986 17.5q-14.0254 9.5 -26.7744 17.5q-12.75 8 -25.499 8q-11.9004 0 -23.7998 -10t-17.8496 -41h-61.1982z" />
    <glyph glyph-name="Imacron" unicode="&#x12a;" horiz-adv-x="318" 
d="M77 765h164v-765h-164v765zM-13 942h342v-104h-342v104z" />
    <glyph glyph-name="imacron" unicode="&#x12b;" horiz-adv-x="295" 
d="M68 536h159v-536h-159v536zM11.3994 740h273.597v-104h-273.597v104z" />
    <glyph glyph-name="Ibreve" unicode="&#x12c;" horiz-adv-x="318" 
d="M77 765h164v-765h-164v765zM158 815q-34 0 -63.5 9t-52 27.5t-36 48.5t-14.5 72h103q2 -30 20.5 -46.5t45.5 -16.5t45.5 16.5t21.5 46.5h97q-1 -42 -14.5 -72t-36 -48.5t-52.5 -27.5t-64 -9z" />
    <glyph glyph-name="ibreve" unicode="&#x12d;" horiz-adv-x="295" 
d="M68 536h159v-536h-159v536zM147.604 612q-31.501 0 -58.502 10q-27 10 -47.251 31.5q-20.25 21.5 -31.9512 54.5q-11.7002 33 -11.7002 80h94.5029q0 -37 15.75 -55.5q15.751 -18.5 41.8516 -18.5t42.3008 18.5q16.2012 18.5 16.2012 55.5h89.1016q0 -47 -11.7002 -80
t-31.9502 -54.5q-20.251 -21.5 -47.7021 -31.5q-27.4502 -10 -58.9512 -10z" />
    <glyph glyph-name="Iogonek" unicode="&#x12e;" horiz-adv-x="318" 
d="M77 765h164v-753q-39 -25 -53 -42.5t-14 -33.5q0 -17 12 -25.5t39 -9.5v-89h-29q-40 0 -67.5 6.5t-44 18.5t-23.5 28.5t-7 36.5q0 29 19 55t59 43h-55v765z" />
    <glyph glyph-name="iogonek" unicode="&#x12f;" horiz-adv-x="295" 
d="M67 773h161v-144h-161v144zM68 536h159v-527q-38 -23 -52 -39.5t-14 -33.5t12 -25.5t39 -9.5v-89h-29q-40 0 -67 6.5t-43.5 18.5t-24 28.5t-7.5 36.5q0 30 20.5 56t58.5 42h-52v536z" />
    <glyph glyph-name="Idotaccent" unicode="&#x130;" horiz-adv-x="318" 
d="M77 765h164v-765h-164v765zM90 970h137v-137h-137v137z" />
    <glyph glyph-name="dotlessi" unicode="&#x131;" horiz-adv-x="295" 
d="M68 536h159v-536h-159v536z" />
    <glyph glyph-name="IJ" unicode="&#x132;" horiz-adv-x="749" 
d="M351 -3v130h27q45 0 72.5 8.5t42.5 26t19.5 43t4.5 60.5v500h162v-520q0 -71 -18.5 -119t-54 -76.5t-86.5 -40.5t-116 -12h-53zM77 765h164v-765h-164v765z" />
    <glyph glyph-name="ij" unicode="&#x133;" horiz-adv-x="594" 
d="M67 773h161v-144h-161v144zM68 536h159v-536h-159v536zM366 773h161v-144h-161v144zM335 -206q-33 0 -52 4t-23 5v111q3 -2 13 -3.5t26 -1.5q35 0 51.5 17.5t16.5 58.5v551h159v-552q0 -55 -14.5 -91.5t-40 -58.5t-60.5 -31t-76 -9z" />
    <glyph glyph-name="Jcircumflex" unicode="&#x134;" horiz-adv-x="448" 
d="M478 827h-115l-66 56h-1l-64 -56h-106l108 133h136zM33 -3v130h37q48 0 76.5 8.5t44 26t20.5 43t5 60.5v500h162v-520q0 -71 -19 -119t-55.5 -76.5t-89 -40.5t-118.5 -12h-63z" />
    <glyph glyph-name="jcircumflex" unicode="&#x135;" horiz-adv-x="299" 
d="M-35 -86q3 -2 13 -3.5t26 -1.5q35 0 51.5 17.5t16.5 58.5v551h159v-552q0 -55 -14.5 -91.5t-40 -58.5t-60.5 -31t-76 -9q-33 0 -52 4t-23 5v111zM305.209 614h-98.1025l-62.1025 77h-0.899414l-59.4014 -77h-90.9023l99.002 174h113.403z" />
    <glyph glyph-name="Kcommaaccent" unicode="&#x136;" horiz-adv-x="735" 
d="M306 -64h154l-73 -156h-105zM241 0h-164v765h164v-341l279 341h183l-275 -320l287 -445h-188l-210 321l-76 -89v-232z" />
    <glyph glyph-name="kcommaaccent" unicode="&#x137;" horiz-adv-x="598" 
d="M244 -64h154l-73 -156h-105zM224 0h-156v788h156v-474l183 222h168l-179 -210l188 -326h-172l-122 219l-66 -80v-139z" />
    <glyph glyph-name="kgreenlandic" unicode="&#x138;" horiz-adv-x="598" 
d="M224 0h-156v536h156v-222l183 222h168l-179 -210l188 -326h-172l-122 219l-66 -80v-139z" />
    <glyph glyph-name="Lacute" unicode="&#x139;" horiz-adv-x="610" 
d="M164 960h158l-103 -133h-119zM77 765h164v-637h330v-128h-494v765z" />
    <glyph glyph-name="lacute" unicode="&#x13a;" horiz-adv-x="295" 
d="M144 962h158l-103 -133h-119zM68 788h159v-788h-159v788z" />
    <glyph glyph-name="Lcommaaccent" unicode="&#x13b;" horiz-adv-x="610" 
d="M248 -64h154l-73 -156h-105zM77 765h164v-637h330v-128h-494v765z" />
    <glyph glyph-name="lcommaaccent" unicode="&#x13c;" horiz-adv-x="295" 
d="M70 -64h154l-73 -156h-105zM68 788h159v-788h-159v788z" />
    <glyph glyph-name="Lcaron" unicode="&#x13d;" horiz-adv-x="610" 
d="M355 788h128l-65 -211h-79zM77 765h164v-637h330v-128h-494v765z" />
    <glyph glyph-name="lcaron" unicode="&#x13e;" horiz-adv-x="295" 
d="M296 788h125l-56 -187h-75zM68 788h159v-788h-159v788z" />
    <glyph glyph-name="Ldot" unicode="&#x13f;" horiz-adv-x="610" 
d="M77 765h164v-637h330v-128h-494v765zM378.95 496.668h166.091v-156.264h-166.091v156.264z" />
    <glyph glyph-name="ldot" unicode="&#x140;" horiz-adv-x="522" 
d="M68 788h159v-788h-159v788zM327.325 474.337h158.819v-149.422h-158.819v149.422z" />
    <glyph glyph-name="Lslash" unicode="&#x141;" horiz-adv-x="610" 
d="M77 263l-79 -29v119l79 29v383h164v-323l222 81v-119l-222 -81v-195h330v-128h-494v263z" />
    <glyph glyph-name="lslash" unicode="&#x142;" horiz-adv-x="297" 
d="M69 0v292l-74 -44v119l74 44v377h159v-282l76 45v-120l-76 -45v-386h-159z" />
    <glyph glyph-name="Nacute" unicode="&#x143;" horiz-adv-x="789" 
d="M395 960h158l-103 -133h-119zM77 765h181l247 -414q14 -25 24.5 -46t17.5 -36q8 -18 13 -32h3v528h150v-765h-173l-254 422q-16 25 -26.5 46t-17.5 37q-8 18 -14 33h-3v-538h-148v765z" />
    <glyph glyph-name="nacute" unicode="&#x144;" horiz-adv-x="641" 
d="M333 788h158l-88 -174h-121zM420 313q0 29 -2.5 51.5t-13.5 37.5q-22 31 -69 31q-54 0 -81 -32t-27 -91v-310h-159v536h153v-88h2q22 41 63.5 70t110.5 29q97 0 139.5 -49.5t42.5 -149.5v-348h-159v313z" />
    <glyph glyph-name="Ncommaaccent" unicode="&#x145;" horiz-adv-x="789" 
d="M318 -64h154l-73 -156h-105zM77 765h181l247 -414q14 -25 24.5 -46t17.5 -36q8 -18 13 -32h3v528h150v-765h-173l-254 422q-16 25 -26.5 46t-17.5 37q-8 18 -14 33h-3v-538h-148v765z" />
    <glyph glyph-name="ncommaaccent" unicode="&#x146;" horiz-adv-x="641" 
d="M247 -64h154l-73 -156h-105zM420 313q0 29 -2.5 51.5t-13.5 37.5q-22 31 -69 31q-54 0 -81 -32t-27 -91v-310h-159v536h153v-88h2q22 41 63.5 70t110.5 29q97 0 139.5 -49.5t42.5 -149.5v-348h-159v313z" />
    <glyph glyph-name="Ncaron" unicode="&#x147;" horiz-adv-x="789" 
d="M212 960h115l66 -56h1l64 56h106l-108 -133h-136zM77 765h181l247 -414q14 -25 24.5 -46t17.5 -36q8 -18 13 -32h3v528h150v-765h-173l-254 422q-16 25 -26.5 46t-17.5 37q-8 18 -14 33h-3v-538h-148v765z" />
    <glyph glyph-name="ncaron" unicode="&#x148;" horiz-adv-x="641" 
d="M163 788h109l69 -77h1l66 77h101l-110 -174h-126zM420 313q0 29 -2.5 51.5t-13.5 37.5q-22 31 -69 31q-54 0 -81 -32t-27 -91v-310h-159v536h153v-88h2q22 41 63.5 70t110.5 29q97 0 139.5 -49.5t42.5 -149.5v-348h-159v313z" />
    <glyph glyph-name="napostrophe" unicode="&#x149;" horiz-adv-x="641" 
d="M37 788h154l-73 -156h-105zM420 313q0 29 -2.5 51.5t-13.5 37.5q-22 31 -69 31q-54 0 -81 -32t-27 -91v-310h-159v536h153v-88h2q22 41 63.5 70t110.5 29q97 0 139.5 -49.5t42.5 -149.5v-348h-159v313z" />
    <glyph glyph-name="Eng" unicode="&#x14a;" horiz-adv-x="789" 
d="M377 -188v124h33q63 0 95 16t45 47l-263 423q-16 25 -27 46t-18 37q-9 18 -14 33h-3v-538h-148v765h180l247 -400q15 -25 25.5 -45.5t17.5 -36.5q8 -18 13 -33h3v515h150v-713q0 -68 -19 -114t-55 -74t-87.5 -40t-115.5 -12h-59z" />
    <glyph glyph-name="eng" unicode="&#x14b;" horiz-adv-x="641" 
d="M388 -206q-33 0 -51.5 4t-21.5 5v111q3 -2 12 -3.5t25 -1.5q35 0 51.5 17.5t16.5 58.5v328q0 29 -2.5 51.5t-13.5 37.5q-22 31 -69 31q-54 0 -81 -32t-27 -91v-310h-159v536h153v-88h2q22 41 63.5 70t110.5 29q97 0 139.5 -49.5t42.5 -149.5v-364q0 -55 -14.5 -91.5
t-40 -58.5t-60.5 -31t-76 -9z" />
    <glyph glyph-name="Omacron" unicode="&#x14c;" horiz-adv-x="822" 
d="M239 942h342v-104h-342v104zM50 380q0 94 26.5 168t74 124.5t114 77t146.5 26.5q84 0 151 -26t113.5 -76.5t71.5 -124t25 -169.5q0 -95 -25.5 -168.5t-73 -124t-114 -77t-148.5 -26.5q-172 0 -266.5 102.5t-94.5 293.5zM411 104q88 0 136 69.5t48 206.5q0 69 -13.5 121
t-38 87t-58.5 52.5t-74 17.5q-88 0 -135.5 -69t-47.5 -209q0 -139 46 -207.5t137 -68.5z" />
    <glyph glyph-name="omacron" unicode="&#x14d;" horiz-adv-x="619" 
d="M138 740h342v-104h-342v104zM309 -14q-63 0 -113.5 19.5t-85.5 56t-53.5 88.5t-18.5 118t19 118t54 88.5t85.5 55.5t113.5 19q61 0 111.5 -19t85.5 -55t54.5 -88.5t19.5 -118.5t-20 -118t-56 -88.5t-86 -56t-110 -19.5zM310 442q-30 0 -50.5 -13.5t-33 -36.5t-18.5 -55
t-6 -69q0 -39 6 -71t19 -55.5t33.5 -36t49.5 -12.5q30 0 50.5 13.5t32.5 37t17.5 55.5t5.5 69q0 39 -5.5 71t-18 55t-33 35.5t-49.5 12.5z" />
    <glyph glyph-name="Obreve" unicode="&#x14e;" horiz-adv-x="822" 
d="M410 815q-34 0 -63.5 9t-52 27.5t-36 48.5t-14.5 72h103q2 -30 20.5 -46.5t45.5 -16.5t45.5 16.5t21.5 46.5h97q-1 -42 -14.5 -72t-36 -48.5t-52.5 -27.5t-64 -9zM50 380q0 94 26.5 168t74 124.5t114 77t146.5 26.5q84 0 151 -26t113.5 -76.5t71.5 -124t25 -169.5
q0 -95 -25.5 -168.5t-73 -124t-114 -77t-148.5 -26.5q-172 0 -266.5 102.5t-94.5 293.5zM411 104q88 0 136 69.5t48 206.5q0 69 -13.5 121t-38 87t-58.5 52.5t-74 17.5q-88 0 -135.5 -69t-47.5 -209q0 -139 46 -207.5t137 -68.5z" />
    <glyph glyph-name="obreve" unicode="&#x14f;" horiz-adv-x="619" 
d="M309 -14q-63 0 -113.5 19.5t-85.5 56t-53.5 88.5t-18.5 118t19 118t54 88.5t85.5 55.5t113.5 19q61 0 111.5 -19t85.5 -55t54.5 -88.5t19.5 -118.5t-20 -118t-56 -88.5t-86 -56t-110 -19.5zM310 442q-30 0 -50.5 -13.5t-33 -36.5t-18.5 -55t-6 -69q0 -39 6 -71t19 -55.5
t33.5 -36t49.5 -12.5q30 0 50.5 13.5t32.5 37t17.5 55.5t5.5 69q0 39 -5.5 71t-18 55t-33 35.5t-49.5 12.5zM309 612q-35 0 -65 10t-52.5 31.5t-35.5 54.5t-13 80h105q0 -37 17.5 -55.5t46.5 -18.5t47 18.5t18 55.5h99q0 -47 -13 -80t-35.5 -54.5t-53 -31.5t-65.5 -10z" />
    <glyph glyph-name="Ohungarumlaut" unicode="&#x150;" horiz-adv-x="822" 
d="M475 964h126l-69 -133h-92zM297 964h125l-56 -133h-91zM50 380q0 94 26.5 168t74 124.5t114 77t146.5 26.5q84 0 151 -26t113.5 -76.5t71.5 -124t25 -169.5q0 -95 -25.5 -168.5t-73 -124t-114 -77t-148.5 -26.5q-172 0 -266.5 102.5t-94.5 293.5zM411 104q88 0 136 69.5
t48 206.5q0 69 -13.5 121t-38 87t-58.5 52.5t-74 17.5q-88 0 -135.5 -69t-47.5 -209q0 -139 46 -207.5t137 -68.5z" />
    <glyph glyph-name="ohungarumlaut" unicode="&#x151;" horiz-adv-x="619" 
d="M391 788h127l-86 -174h-93zM214 788h128l-73 -174h-94zM309 -14q-63 0 -113.5 19.5t-85.5 56t-53.5 88.5t-18.5 118t19 118t54 88.5t85.5 55.5t113.5 19q61 0 111.5 -19t85.5 -55t54.5 -88.5t19.5 -118.5t-20 -118t-56 -88.5t-86 -56t-110 -19.5zM310 442
q-30 0 -50.5 -13.5t-33 -36.5t-18.5 -55t-6 -69q0 -39 6 -71t19 -55.5t33.5 -36t49.5 -12.5q30 0 50.5 13.5t32.5 37t17.5 55.5t5.5 69q0 39 -5.5 71t-18 55t-33 35.5t-49.5 12.5z" />
    <glyph glyph-name="OE" unicode="&#x152;" horiz-adv-x="1156" 
d="M588 428q0 112 -45 171t-131 59q-39 0 -73 -16t-58.5 -49.5t-38.5 -86.5t-14 -126q0 -138 47.5 -207t134.5 -69q46 0 79.5 16t55.5 45t32.5 69.5t10.5 89.5v104zM587 77q-29 -41 -79 -66.5t-127 -25.5q-74 0 -135 25t-105 74.5t-68 123.5t-24 172q0 99 26.5 173.5
t72.5 124t108.5 74t133.5 24.5q61 0 113 -22.5t84 -73.5h1v85h501v-125h-336v-197h318v-122h-318v-197h345v-124h-510v77h-1z" />
    <glyph glyph-name="oe" unicode="&#x153;" horiz-adv-x="972" 
d="M771 328q-4 58 -27.5 90t-71.5 32q-47 0 -72 -33t-31 -95h202v6zM310 442q-30 0 -50.5 -13.5t-33 -36.5t-18.5 -55t-6 -69q0 -39 6 -71t19 -55.5t33.5 -36t49.5 -12.5q30 0 50.5 13.5t32.5 37t17.5 55.5t5.5 69q0 39 -5.5 71t-18 55t-33 35.5t-49.5 12.5zM928 156
q-12 -79 -79.5 -124.5t-175.5 -45.5q-65 0 -109 19.5t-73 56.5q-30 -37 -75.5 -56.5t-106.5 -19.5q-63 0 -113.5 19.5t-85.5 56t-53.5 88.5t-18.5 118t19 118t54 88.5t85.5 55.5t113.5 19t108.5 -19.5t75.5 -56.5q29 36 72.5 56t105.5 20q69 0 118.5 -21t81 -58t46.5 -87.5
t15 -109.5v-42h-364q5 -72 32 -105t78 -33q24 0 40 5.5t26.5 14t16.5 20t10 23.5h156z" />
    <glyph glyph-name="Racute" unicode="&#x154;" horiz-adv-x="714" 
d="M358 960h158l-103 -133h-119zM355 408q27 0 51.5 6.5t42.5 21t29 38t11 57.5q0 35 -12 58t-31 37t-42.5 19.5t-45.5 5.5h-117v-243h114zM359 291h-118v-291h-164v765h299q37 0 77 -6t77 -22q54 -24 90.5 -71t36.5 -126q0 -45 -13 -79.5t-34 -60t-47.5 -43t-53.5 -27.5v-2
l171 -328h-177z" />
    <glyph glyph-name="racute" unicode="&#x155;" horiz-adv-x="427" 
d="M219 788h158l-88 -174h-121zM68 536h150v-113h2q11 30 30 53t42.5 38.5t50.5 23t54 7.5h9v-144h-28q-73 0 -112.5 -29.5t-39.5 -106.5v-265h-158v536z" />
    <glyph glyph-name="Rcommaaccent" unicode="&#x156;" horiz-adv-x="714" 
d="M281 -64h154l-73 -156h-105zM355 408q27 0 51.5 6.5t42.5 21t29 38t11 57.5q0 35 -12 58t-31 37t-42.5 19.5t-45.5 5.5h-117v-243h114zM359 291h-118v-291h-164v765h299q37 0 77 -6t77 -22q54 -24 90.5 -71t36.5 -126q0 -45 -13 -79.5t-34 -60t-47.5 -43t-53.5 -27.5v-2
l171 -328h-177z" />
    <glyph glyph-name="rcommaaccent" unicode="&#x157;" horiz-adv-x="427" 
d="M68 -64h154l-73 -156h-105zM68 536h150v-113h2q11 30 30 53t42.5 38.5t50.5 23t54 7.5h9v-144h-28q-73 0 -112.5 -29.5t-39.5 -106.5v-265h-158v536z" />
    <glyph glyph-name="Rcaron" unicode="&#x158;" horiz-adv-x="714" 
d="M174 960h115l66 -56h1l64 56h106l-108 -133h-136zM355 408q27 0 51.5 6.5t42.5 21t29 38t11 57.5q0 35 -12 58t-31 37t-42.5 19.5t-45.5 5.5h-117v-243h114zM359 291h-118v-291h-164v765h299q37 0 77 -6t77 -22q54 -24 90.5 -71t36.5 -126q0 -45 -13 -79.5t-34 -60
t-47.5 -43t-53.5 -27.5v-2l171 -328h-177z" />
    <glyph glyph-name="rcaron" unicode="&#x159;" horiz-adv-x="427" 
d="M58 788h109l69 -77h1l66 77h101l-110 -174h-126zM68 536h150v-113h2q11 30 30 53t42.5 38.5t50.5 23t54 7.5h9v-144h-28q-73 0 -112.5 -29.5t-39.5 -106.5v-265h-158v536z" />
    <glyph glyph-name="Sacute" unicode="&#x15a;" horiz-adv-x="699" 
d="M467 557q-2 19 -9 37t-21 32t-35 22.5t-49 8.5q-54 0 -84.5 -25.5t-30.5 -66.5q0 -38 23 -61.5t78 -33.5l116 -21q103 -19 152.5 -72.5t49.5 -138.5q0 -124 -80 -189t-227 -65q-72 0 -127.5 16.5t-94 47.5t-60 74t-24.5 97h171q6 -50 40.5 -82.5t98.5 -32.5
q68 0 100.5 30t32.5 74q0 40 -24.5 62.5t-84.5 33.5l-114 22q-44 9 -80.5 26.5t-62.5 44.5t-40 63t-14 82q0 51 19 93.5t56 74t90 49t122 17.5q73 0 125 -17.5t86 -47.5t51 -69.5t19 -84.5h-168zM352 960h158l-103 -133h-119z" />
    <glyph glyph-name="sacute" unicode="&#x15b;" horiz-adv-x="536" 
d="M248 788h158l-88 -174h-121zM344 387q-2 26 -21 43.5t-56 17.5t-56 -16t-19 -40q0 -23 13.5 -36t48.5 -18l91 -12q74 -10 114.5 -47.5t40.5 -110.5q0 -45 -17.5 -79t-48 -57t-73.5 -35t-94 -12q-60 0 -103 13t-71.5 36.5t-43 54.5t-17.5 67h146q2 -29 22 -49t68 -20
q38 0 61.5 15t23.5 44q0 24 -13 37t-51 18l-86 12q-75 11 -116 49t-41 111q0 35 13.5 67t40.5 56t69 38.5t99 14.5q52 0 91.5 -12t66.5 -33.5t41 -51.5t17 -65h-140z" />
    <glyph glyph-name="Scircumflex" unicode="&#x15c;" horiz-adv-x="699" 
d="M530 827h-115l-66 56h-1l-64 -56h-106l108 133h136zM467 557q-2 19 -9 37t-21 32t-35 22.5t-49 8.5q-54 0 -84.5 -25.5t-30.5 -66.5q0 -38 23 -61.5t78 -33.5l116 -21q103 -19 152.5 -72.5t49.5 -138.5q0 -124 -80 -189t-227 -65q-72 0 -127.5 16.5t-94 47.5t-60 74
t-24.5 97h171q6 -50 40.5 -82.5t98.5 -32.5q68 0 100.5 30t32.5 74q0 40 -24.5 62.5t-84.5 33.5l-114 22q-44 9 -80.5 26.5t-62.5 44.5t-40 63t-14 82q0 51 19 93.5t56 74t90 49t122 17.5q73 0 125 -17.5t86 -47.5t51 -69.5t19 -84.5h-168z" />
    <glyph glyph-name="scircumflex" unicode="&#x15d;" horiz-adv-x="536" 
d="M443 614h-109l-69 77h-1l-66 -77h-101l110 174h126zM344 387q-2 26 -21 43.5t-56 17.5t-56 -16t-19 -40q0 -23 13.5 -36t48.5 -18l91 -12q74 -10 114.5 -47.5t40.5 -110.5q0 -45 -17.5 -79t-48 -57t-73.5 -35t-94 -12q-60 0 -103 13t-71.5 36.5t-43 54.5t-17.5 67h146
q2 -29 22 -49t68 -20q38 0 61.5 15t23.5 44q0 24 -13 37t-51 18l-86 12q-75 11 -116 49t-41 111q0 35 13.5 67t40.5 56t69 38.5t99 14.5q52 0 91.5 -12t66.5 -33.5t41 -51.5t17 -65h-140z" />
    <glyph glyph-name="Scedilla" unicode="&#x15e;" horiz-adv-x="699" 
d="M350 -232q-52 0 -78 23.5t-28 55.5h77q3 -9 10 -15t21 -6q17 0 24.5 9t7.5 23q0 31 -32 31q-17 0 -27 -13h-65l49 109q-125 10 -192.5 72t-72.5 162h171q6 -50 40.5 -82.5t98.5 -32.5q68 0 100.5 30t32.5 74q0 40 -24.5 62.5t-84.5 33.5l-114 22q-44 9 -80.5 26.5
t-62.5 44.5t-40 63t-14 82q0 51 19 93.5t56 74t90 49t122 17.5q73 0 125 -17.5t86 -47.5t51 -69.5t19 -84.5h-168q-2 19 -9 37t-21 32t-35 22.5t-49 8.5q-54 0 -84.5 -25.5t-30.5 -66.5q0 -38 23 -61.5t78 -33.5l116 -21q103 -19 152.5 -72.5t49.5 -138.5q0 -121 -77 -186.5
t-219 -67.5l-20 -43h2q14 10 40 10q36 0 60 -23.5t24 -65.5q0 -18 -7 -35t-21 -30t-36.5 -21t-52.5 -8z" />
    <glyph glyph-name="scedilla" unicode="&#x15f;" horiz-adv-x="536" 
d="M261 -232q-52 0 -78 23.5t-28 55.5h77q3 -9 10 -15t21 -6q17 0 24.5 9t7.5 23q0 31 -32 31q-17 0 -27 -13h-65l50 111q-48 5 -82.5 20t-57.5 37.5t-35 51t-14 60.5h146q2 -29 22 -49t68 -20q38 0 61.5 15t23.5 44q0 24 -13 37t-51 18l-86 12q-75 11 -116 49t-41 111
q0 35 13.5 67t40.5 56t69 38.5t99 14.5q52 0 91.5 -12t66.5 -33.5t41 -51.5t17 -65h-140q-2 26 -21 43.5t-56 17.5t-56 -16t-19 -40q0 -23 13.5 -36t48.5 -18l91 -12q74 -10 114.5 -47.5t40.5 -110.5q0 -45 -17 -79t-47.5 -57t-72.5 -35t-91 -12l-20 -44h2q14 10 40 10
q36 0 60 -23.5t24 -65.5q0 -18 -7 -35t-21 -30t-36.5 -21t-52.5 -8z" />
    <glyph glyph-name="Scaron" unicode="&#x160;" horiz-adv-x="699" 
d="M170 960h115l66 -56h1l64 56h106l-108 -133h-136zM467 557q-2 19 -9 37t-21 32t-35 22.5t-49 8.5q-54 0 -84.5 -25.5t-30.5 -66.5q0 -38 23 -61.5t78 -33.5l116 -21q103 -19 152.5 -72.5t49.5 -138.5q0 -124 -80 -189t-227 -65q-72 0 -127.5 16.5t-94 47.5t-60 74
t-24.5 97h171q6 -50 40.5 -82.5t98.5 -32.5q68 0 100.5 30t32.5 74q0 40 -24.5 62.5t-84.5 33.5l-114 22q-44 9 -80.5 26.5t-62.5 44.5t-40 63t-14 82q0 51 19 93.5t56 74t90 49t122 17.5q73 0 125 -17.5t86 -47.5t51 -69.5t19 -84.5h-168z" />
    <glyph glyph-name="scaron" unicode="&#x161;" horiz-adv-x="536" 
d="M87 788h109l69 -77h1l66 77h101l-110 -174h-126zM344 387q-2 26 -21 43.5t-56 17.5t-56 -16t-19 -40q0 -23 13.5 -36t48.5 -18l91 -12q74 -10 114.5 -47.5t40.5 -110.5q0 -45 -17.5 -79t-48 -57t-73.5 -35t-94 -12q-60 0 -103 13t-71.5 36.5t-43 54.5t-17.5 67h146
q2 -29 22 -49t68 -20q38 0 61.5 15t23.5 44q0 24 -13 37t-51 18l-86 12q-75 11 -116 49t-41 111q0 35 13.5 67t40.5 56t69 38.5t99 14.5q52 0 91.5 -12t66.5 -33.5t41 -51.5t17 -65h-140z" />
    <glyph glyph-name="Tcommaaccent" unicode="&#x162;" horiz-adv-x="662" 
d="M255 -64h154l-73 -156h-105zM639 636h-226v-636h-164v636h-226v129h616v-129z" />
    <glyph glyph-name="tcommaaccent" unicode="&#x163;" horiz-adv-x="401" 
d="M172 -64h154l-73 -156h-105zM255 687v-151h120v-110h-118v-237q0 -41 16.5 -59.5t57.5 -18.5q7 0 15 0.5t15 1.5q8 1 15 2v-116q-16 -2 -44 -4t-62 -2q-39 0 -70.5 9t-53.5 28.5t-34 51.5t-12 77v267h-79v109h18q25 0 41 3.5t24.5 15.5t11.5 34t3 58v41h136z" />
    <glyph glyph-name="Tcaron" unicode="&#x164;" horiz-adv-x="662" 
d="M154 960h115l66 -56h1l64 56h106l-108 -133h-136zM639 636h-226v-636h-164v636h-226v129h616v-129z" />
    <glyph glyph-name="tcaron" unicode="&#x165;" horiz-adv-x="401" 
d="M345 788h125l-56 -187h-75zM255 687v-151h120v-110h-118v-237q0 -41 16.5 -59.5t57.5 -18.5q7 0 15 0.5t15 1.5q8 1 15 2v-116q-16 -2 -44 -4t-62 -2q-39 0 -70.5 9t-53.5 28.5t-34 51.5t-12 77v267h-79v109h18q25 0 41 3.5t24.5 15.5t11.5 34t3 58v41h136z" />
    <glyph glyph-name="Tbar" unicode="&#x166;" horiz-adv-x="662" 
d="M413 0h-164v372h-177v100h177v164h-226v129h616v-129h-226v-164h178v-100h-178v-372z" />
    <glyph glyph-name="tbar" unicode="&#x167;" horiz-adv-x="401" 
d="M376 -1q-16 -2 -44 -4t-62 -2q-39 0 -70.5 9t-53.5 28.5t-34 51.5t-12 77v71h-79v98h79v103h-79v104h18q25 0 41 3.5t24.5 15.5t11.5 34t3 58v41h136v-151h120v-105h-118v-103h118v-98h-118v-41q0 -41 16.5 -59.5t57.5 -18.5q7 0 15 0.5t15 1.5q8 1 15 2v-116z" />
    <glyph glyph-name="Utilde" unicode="&#x168;" horiz-adv-x="761" 
d="M69 765h164l-1 -446q0 -21 0.5 -42.5t3.5 -42t9 -38.5t17 -32q21 -26 51 -38t68 -12q42 0 72.5 12t50.5 38q10 14 15.5 32t8 38.5t2.5 42v42.5v446h162v-498q0 -72 -22.5 -125.5t-63.5 -88.5t-99 -52t-128 -17q-71 0 -128 17t-97.5 52t-62.5 88t-22 126v498zM191 819
q1 32 7 60t19.5 49t35.5 33.5t54 12.5q24 0 43.5 -8t37 -18t32.5 -18t30 -8t28 12t21 41h71q-1 -32 -7 -60t-19.5 -49t-35.5 -33.5t-54 -12.5q-24 0 -43.5 8t-37 18t-33 18t-30.5 8q-13 0 -26.5 -11.5t-20.5 -41.5h-72z" />
    <glyph glyph-name="utilde" unicode="&#x169;" horiz-adv-x="637" 
d="M222 223q0 -29 3 -51t13 -37q21 -31 68 -31q105 0 105 139v293h159v-536h-153v87h-2q-21 -41 -61.5 -69t-106.5 -28q-97 0 -140.5 47t-43.5 142v357h159v-313zM127 614q0 33 6 63t20 52.5t36.5 35.5t55.5 13q23 0 42.5 -8t36 -17.5t31.5 -17.5t30 -8q14 0 28 10t22 42h71
q0 -34 -6 -64t-20 -52.5t-36.5 -35.5t-55.5 -13q-23 0 -42.5 8t-36 17.5t-31.5 17.5t-30 8q-14 0 -28 -10t-21 -41h-72z" />
    <glyph glyph-name="Umacron" unicode="&#x16a;" horiz-adv-x="761" 
d="M69 765h164l-1 -446q0 -21 0.5 -42.5t3.5 -42t9 -38.5t17 -32q21 -26 51 -38t68 -12q42 0 72.5 12t50.5 38q10 14 15.5 32t8 38.5t2.5 42v42.5v446h162v-498q0 -72 -22.5 -125.5t-63.5 -88.5t-99 -52t-128 -17q-71 0 -128 17t-97.5 52t-62.5 88t-22 126v498zM209 942h342
v-104h-342v104z" />
    <glyph glyph-name="umacron" unicode="&#x16b;" horiz-adv-x="637" 
d="M222 223q0 -29 3 -51t13 -37q21 -31 68 -31q105 0 105 139v293h159v-536h-153v87h-2q-21 -41 -61.5 -69t-106.5 -28q-97 0 -140.5 47t-43.5 142v357h159v-313zM145 740h342v-104h-342v104z" />
    <glyph glyph-name="Ubreve" unicode="&#x16c;" horiz-adv-x="761" 
d="M69 765h164l-1 -446q0 -21 0.5 -42.5t3.5 -42t9 -38.5t17 -32q21 -26 51 -38t68 -12q42 0 72.5 12t50.5 38q10 14 15.5 32t8 38.5t2.5 42v42.5v446h162v-498q0 -72 -22.5 -125.5t-63.5 -88.5t-99 -52t-128 -17q-71 0 -128 17t-97.5 52t-62.5 88t-22 126v498zM380 815
q-34 0 -63.5 9t-52 27.5t-36 48.5t-14.5 72h103q2 -30 20.5 -46.5t45.5 -16.5t45.5 16.5t21.5 46.5h97q-1 -42 -14.5 -72t-36 -48.5t-52.5 -27.5t-64 -9z" />
    <glyph glyph-name="ubreve" unicode="&#x16d;" horiz-adv-x="637" 
d="M222 223q0 -29 3 -51t13 -37q21 -31 68 -31q105 0 105 139v293h159v-536h-153v87h-2q-21 -41 -61.5 -69t-106.5 -28q-97 0 -140.5 47t-43.5 142v357h159v-313zM316 612q-35 0 -65 10t-52.5 31.5t-35.5 54.5t-13 80h105q0 -37 17.5 -55.5t46.5 -18.5t47 18.5t18 55.5h99
q0 -47 -13 -80t-35.5 -54.5t-53 -31.5t-65.5 -10z" />
    <glyph glyph-name="Uring" unicode="&#x16e;" horiz-adv-x="761" 
d="M69 765h164l-1 -446q0 -21 0.5 -42.5t3.5 -42t9 -38.5t17 -32q21 -26 51 -38t68 -12q42 0 72.5 12t50.5 38q10 14 15.5 32t8 38.5t2.5 42v42.5v446h162v-498q0 -72 -22.5 -125.5t-63.5 -88.5t-99 -52t-128 -17q-71 0 -128 17t-97.5 52t-62.5 88t-22 126v498zM380 797
q-62 0 -96.5 33.5t-34.5 88.5t36.5 89.5t95.5 34.5q63 0 97 -34.5t34 -89.5t-36 -88.5t-96 -33.5zM380 980q-24 0 -38.5 -17t-14.5 -44t14 -44t40 -17q24 0 38 17t14 44t-13.5 44t-39.5 17z" />
    <glyph glyph-name="uring" unicode="&#x16f;" horiz-adv-x="637" 
d="M316 602q-62 0 -96.5 33.5t-34.5 89.5q0 27 9.5 49.5t27 39t42 25.5t53.5 9q63 0 97 -34.5t34 -88.5q0 -56 -36 -89.5t-96 -33.5zM316 785q-24 0 -38.5 -16.5t-14.5 -44.5q0 -27 14 -43.5t40 -16.5q24 0 38 16.5t14 43.5q0 28 -13.5 44.5t-39.5 16.5zM222 223
q0 -29 3 -51t13 -37q21 -31 68 -31q105 0 105 139v293h159v-536h-153v87h-2q-21 -41 -61.5 -69t-106.5 -28q-97 0 -140.5 47t-43.5 142v357h159v-313z" />
    <glyph glyph-name="Uhungarumlaut" unicode="&#x170;" horiz-adv-x="761" 
d="M445 964h126l-69 -133h-92zM267 964h125l-56 -133h-91zM69 765h164l-1 -446q0 -21 0.5 -42.5t3.5 -42t9 -38.5t17 -32q21 -26 51 -38t68 -12q42 0 72.5 12t50.5 38q10 14 15.5 32t8 38.5t2.5 42v42.5v446h162v-498q0 -72 -22.5 -125.5t-63.5 -88.5t-99 -52t-128 -17
q-71 0 -128 17t-97.5 52t-62.5 88t-22 126v498z" />
    <glyph glyph-name="uhungarumlaut" unicode="&#x171;" horiz-adv-x="637" 
d="M222 223q0 -29 3 -51t13 -37q21 -31 68 -31q105 0 105 139v293h159v-536h-153v87h-2q-21 -41 -61.5 -69t-106.5 -28q-97 0 -140.5 47t-43.5 142v357h159v-313zM398 788h127l-86 -174h-93zM221 788h128l-73 -174h-94z" />
    <glyph glyph-name="Uogonek" unicode="&#x172;" horiz-adv-x="761" 
d="M69 765h164l-1 -446q0 -21 0.5 -42.5t3.5 -42t9 -38.5t17 -32q20 -26 50.5 -38t68.5 -12q42 0 72.5 12t50.5 38q11 14 16.5 32t7.5 38.5t2 42v42.5v446h162v-498q0 -64 -17 -111t-46 -80t-66.5 -52t-78.5 -27q-26 -5 -42.5 -12t-26 -15t-13 -17t-3.5 -17q0 -17 12 -25.5
t39 -9.5v-89h-29q-80 0 -111.5 25.5t-31.5 64.5q0 26 15.5 48t50.5 37q-63 4 -114 22.5t-87 53t-55 85.5t-19 119v498z" />
    <glyph glyph-name="uogonek" unicode="&#x173;" horiz-adv-x="637" 
d="M417 87h-2q-21 -41 -61.5 -69t-106.5 -28q-97 0 -140.5 47t-43.5 142v357h159v-313q0 -29 3 -51t13 -37q21 -31 68 -31q105 0 105 139v293h159v-528q-36 -20 -50.5 -37.5t-14.5 -34.5q0 -19 14 -26.5t41 -8.5v-89h-29q-80 0 -113 24t-33 66q0 30 20.5 56t59.5 42h-48v87z
" />
    <glyph glyph-name="Wcircumflex" unicode="&#x174;" horiz-adv-x="1067" 
d="M724 827h-115l-66 56h-1l-64 -56h-106l108 133h136zM224 0l-203 765h170l106 -435q7 -29 12 -52.5t7 -40.5q3 -20 4 -36h2q1 15 5 35q3 17 8 40.5t13 52.5l119 436h150l120 -435q8 -29 13.5 -52.5t9.5 -40.5q4 -20 7 -36h1q1 15 5 35q2 17 6.5 40.5t11.5 52.5l105 436
h150l-202 -765h-161l-123 452q-8 29 -13 51t-7 38q-3 18 -4 32h-2q-2 -14 -5 -32q-3 -16 -7 -37.5t-12 -50.5l-122 -453h-164z" />
    <glyph glyph-name="wcircumflex" unicode="&#x175;" horiz-adv-x="860" 
d="M612 614h-109l-69 77h-1l-66 -77h-101l110 174h126zM17 536h153l71 -270q5 -21 9 -41t6 -36q3 -18 5 -36h3q3 18 7 36l9 36t11 40l80 271h129l80 -271q6 -20 10.5 -40t8.5 -36q4 -18 7 -36h4q2 18 6 36q3 16 7.5 36t9.5 40l70 271h139l-155 -536h-153l-65 213
q-8 24 -14.5 52.5t-11.5 52.5q-6 28 -11 57h-2q-7 -29 -13 -57q-6 -25 -12.5 -53t-14.5 -52l-66 -213h-151z" />
    <glyph glyph-name="Ycircumflex" unicode="&#x176;" horiz-adv-x="697" 
d="M267 320l-256 445h181l161 -301h2l163 301h168l-255 -442v-323h-164v320zM535 827h-115l-66 56h-1l-64 -56h-106l108 133h136z" />
    <glyph glyph-name="ycircumflex" unicode="&#x177;" horiz-adv-x="571" 
d="M17 536h164l88 -282q7 -22 11.5 -41t7.5 -33q4 -17 5 -31h3q1 14 5 31q3 14 7 33t11 41l83 282h155l-188 -553q-16 -47 -35 -81t-46 -56.5t-64 -33.5t-89 -11q-39 0 -58 3t-21 4v116q7 -2 22 -3.5t32 -1.5q45 0 68.5 14.5t34.5 50.5l4 13zM472 614h-109l-69 77h-1
l-66 -77h-101l110 174h126z" />
    <glyph glyph-name="Ydieresis" unicode="&#x178;" horiz-adv-x="697" 
d="M267 320l-256 445h181l161 -301h2l163 301h168l-255 -442v-323h-164v320zM395 965h136v-137h-136v137zM180 965h136v-137h-136v137z" />
    <glyph glyph-name="Zacute" unicode="&#x179;" horiz-adv-x="658" 
d="M335 960h158l-103 -133h-119zM53 765h560v-113l-383 -524h389v-128h-583v113l384 525h-367v127z" />
    <glyph glyph-name="zacute" unicode="&#x17a;" horiz-adv-x="544" 
d="M260 788h158l-88 -174h-121zM54 536h448v-103l-268 -316h273v-117h-463v104l268 317h-258v115z" />
    <glyph glyph-name="Zdotaccent" unicode="&#x17b;" horiz-adv-x="658" 
d="M53 765h560v-113l-383 -524h389v-128h-583v113l384 525h-367v127zM265 970h137v-137h-137v137z" />
    <glyph glyph-name="zdotaccent" unicode="&#x17c;" horiz-adv-x="544" 
d="M54 536h448v-103l-268 -316h273v-117h-463v104l268 317h-258v115zM209 773h137v-137h-137v137z" />
    <glyph glyph-name="Zcaron" unicode="&#x17d;" horiz-adv-x="658" 
d="M152 960h115l66 -56h1l64 56h106l-108 -133h-136zM53 765h560v-113l-383 -524h389v-128h-583v113l384 525h-367v127z" />
    <glyph glyph-name="zcaron" unicode="&#x17e;" horiz-adv-x="544" 
d="M99 788h109l69 -77h1l66 77h101l-110 -174h-126zM54 536h448v-103l-268 -316h273v-117h-463v104l268 317h-258v115z" />
    <glyph glyph-name="florin" unicode="&#x192;" horiz-adv-x="477" 
d="M215 -189h-153l69 537h-101v111h115l14 110q8 66 27.5 109t48 68.5t65 35.5t78.5 10q28 0 48 -2.5t25 -3.5v-116q-3 1 -12.5 2.5t-27.5 1.5t-33.5 -3.5t-28 -15t-21.5 -32t-13 -54.5l-15 -110h119v-111h-133z" />
    <glyph glyph-name="Aringacute" unicode="&#x1fa;" horiz-adv-x="761" 
d="M373 624q-1 -3 -8 -33.5t-22 -77.5l-71 -223h202l-70 222q-8 25 -13 45.5t-9 35.5q-4 18 -7 31h-2zM514 170h-281l-56 -170h-157l267 765h184l271 -765h-172zM380 1202h158l-103 -133h-119zM379 797q-62 0 -96.5 33.5t-34.5 88.5t36.5 89.5t95.5 34.5q63 0 97 -34.5
t34 -89.5t-36 -88.5t-96 -33.5zM379 980q-24 0 -38.5 -17t-14.5 -44t14 -44t40 -17q24 0 38 17t14 44t-13.5 44t-39.5 17z" />
    <glyph glyph-name="aringacute" unicode="&#x1fb;" horiz-adv-x="584" 
d="M256 94q21 0 40 8t33.5 24.5t23.5 41.5t9 58v17q-63 -4 -97.5 -10t-53.5 -19q-14 -9 -20 -23t-6 -31q0 -29 19 -47.5t52 -18.5zM51 377q5 81 65 126t166 45q65 0 109.5 -13.5t72 -40t39.5 -66.5t12 -94v-185q0 -22 8.5 -31t34.5 -9v-110h-53q-58 0 -88 15t-43 59h-2
q-26 -38 -65.5 -58.5t-96.5 -20.5q-85 0 -133.5 42t-48.5 117q0 91 81 134q43 23 104.5 29.5t147.5 10.5v29q0 90 -79 90q-39 0 -58 -19.5t-21 -49.5h-152zM297 584q-62 0 -96.5 33.5t-34.5 89.5q0 27 9.5 49.5t27 39t42 25.5t53.5 9q63 0 97 -34.5t34 -88.5
q0 -56 -36 -89.5t-96 -33.5zM297 767q-24 0 -38.5 -16.5t-14.5 -44.5q0 -27 14 -43.5t40 -16.5q24 0 38 16.5t14 43.5q0 28 -13.5 44.5t-39.5 16.5zM306 997h158l-103 -133h-119z" />
    <glyph glyph-name="AEacute" unicode="&#x1fc;" horiz-adv-x="1093" 
d="M615 960h158l-103 -133h-119zM525 640h-47l-156 -337h203v337zM182 0h-170l372 765h642v-125h-336v-197h318v-122h-318v-197h345v-124h-510v183h-258z" />
    <glyph glyph-name="aeacute" unicode="&#x1fd;" horiz-adv-x="915" 
d="M440 788h158l-88 -174h-121zM714 328q-5 58 -28 90t-72 32q-48 0 -73 -34t-30 -94h203v6zM256 94q21 0 40.5 8.5t34 25t23.5 41t9 57.5v13q-63 0 -98 -6t-54 -19q-14 -9 -20 -23t-6 -31q0 -30 19.5 -48t51.5 -18zM871 156q-13 -81 -77.5 -125.5t-173.5 -44.5q-44 0 -78 8
t-59.5 21.5t-43 32t-29.5 39.5h-2q-29 -42 -77 -67.5t-121 -25.5q-85 0 -133.5 42t-48.5 117q0 91 81 134q43 23 105 29t147 8v32q0 43 -19 66.5t-60 23.5q-40 0 -58.5 -20t-20.5 -49h-152q5 81 65 126t168 45q66 0 104.5 -18.5t58.5 -49.5h2q26 32 68 50.5t99 18.5
q69 0 118.5 -21t80.5 -58.5t45.5 -88t14.5 -108.5v-42h-364q5 -74 32 -106t78 -32q24 0 40 5.5t26.5 14t17 20t9.5 23.5h157z" />
    <glyph glyph-name="Oslashacute" unicode="&#x1fe;" horiz-adv-x="822" 
d="M411 660q-90 0 -138.5 -69.5t-48.5 -210.5q0 -38 3 -73t11 -64l295 368q-25 26 -56 37.5t-66 11.5zM411 101q89 0 138.5 70t49.5 209q0 48 -5.5 85.5t-15.5 66.5l-300 -374q22 -27 54.5 -42t78.5 -15zM772 380q0 -95 -25.5 -168.5t-73 -124t-114 -77t-148.5 -26.5
q-67 0 -122.5 16t-98.5 47l-58 -72h-108l105 131q-79 100 -79 274q0 94 26.5 168t74 124.5t114 77t146.5 26.5q124 0 210 -56l58 73h108l-103 -129q43 -51 65.5 -121.5t22.5 -162.5zM406 960h158l-103 -133h-119z" />
    <glyph glyph-name="oslashacute" unicode="&#x1ff;" horiz-adv-x="619" 
d="M310 445q-32 0 -53.5 -13.5t-34.5 -37.5t-19 -56.5t-6 -69.5q0 -41 6 -74l180 223q-26 28 -73 28zM310 91q32 0 53.5 13.5t34.5 37.5t18.5 56t5.5 70q0 20 -1.5 38t-3.5 35l-181 -222q26 -28 74 -28zM581 268q0 -66 -20 -118t-56 -88.5t-86 -56t-110 -19.5q-87 0 -150 37
l-50 -61h-94l87 108q-31 36 -47.5 85.5t-16.5 112.5q0 66 19 118t54 88.5t85.5 55.5t113.5 19q87 0 150 -37l49 60h95l-87 -108q31 -35 47.5 -84.5t16.5 -111.5zM294 788h158l-88 -174h-121z" />
    <glyph glyph-name="Scommaaccent" unicode="&#x218;" horiz-adv-x="699" 
d="M275 -64h154l-73 -156h-105zM467 557q-2 19 -9 37t-21 32t-35 22.5t-49 8.5q-54 0 -84.5 -25.5t-30.5 -66.5q0 -38 23 -61.5t78 -33.5l116 -21q103 -19 152.5 -72.5t49.5 -138.5q0 -124 -80 -189t-227 -65q-72 0 -127.5 16.5t-94 47.5t-60 74t-24.5 97h171
q6 -50 40.5 -82.5t98.5 -32.5q68 0 100.5 30t32.5 74q0 40 -24.5 62.5t-84.5 33.5l-114 22q-44 9 -80.5 26.5t-62.5 44.5t-40 63t-14 82q0 51 19 93.5t56 74t90 49t122 17.5q73 0 125 -17.5t86 -47.5t51 -69.5t19 -84.5h-168z" />
    <glyph glyph-name="scommaaccent" unicode="&#x219;" horiz-adv-x="536" 
d="M190 -64h154l-73 -156h-105zM344 387q-2 26 -21 43.5t-56 17.5t-56 -16t-19 -40q0 -23 13.5 -36t48.5 -18l91 -12q74 -10 114.5 -47.5t40.5 -110.5q0 -45 -17.5 -79t-48 -57t-73.5 -35t-94 -12q-60 0 -103 13t-71.5 36.5t-43 54.5t-17.5 67h146q2 -29 22 -49t68 -20
q38 0 61.5 15t23.5 44q0 24 -13 37t-51 18l-86 12q-75 11 -116 49t-41 111q0 35 13.5 67t40.5 56t69 38.5t99 14.5q52 0 91.5 -12t66.5 -33.5t41 -51.5t17 -65h-140z" />
    <glyph glyph-name="uni021A" unicode="&#x21a;" horiz-adv-x="662" 
d="M255 -64h154l-73 -156h-105zM639 636h-226v-636h-164v636h-226v129h616v-129z" />
    <glyph glyph-name="uni021B" unicode="&#x21b;" horiz-adv-x="401" 
d="M172 -64h154l-73 -156h-105zM255 687v-151h120v-110h-118v-237q0 -41 16.5 -59.5t57.5 -18.5q7 0 15 0.5t15 1.5q8 1 15 2v-116q-16 -2 -44 -4t-62 -2q-39 0 -70.5 9t-53.5 28.5t-34 51.5t-12 77v267h-79v109h18q25 0 41 3.5t24.5 15.5t11.5 34t3 58v41h136z" />
    <glyph glyph-name="uni0237" unicode="&#x237;" horiz-adv-x="299" 
d="M-35 -86q3 -2 13 -3.5t26 -1.5q35 0 51.5 17.5t16.5 58.5v551h159v-552q0 -55 -14.5 -91.5t-40 -58.5t-60.5 -31t-76 -9q-33 0 -52 4t-23 5v111z" />
    <glyph glyph-name="circumflex" unicode="&#x2c6;" horiz-adv-x="369" 
d="M358 614h-109l-69 77h-1l-66 -77h-101l110 174h126z" />
    <glyph glyph-name="caron" unicode="&#x2c7;" horiz-adv-x="369" 
d="M12 788h109l69 -77h1l66 77h101l-110 -174h-126z" />
    <glyph glyph-name="breve" unicode="&#x2d8;" horiz-adv-x="369" 
d="M184 612q-35 0 -65 10t-52.5 31.5t-35.5 54.5t-13 80h105q0 -37 17.5 -55.5t46.5 -18.5t47 18.5t18 55.5h99q0 -47 -13 -80t-35.5 -54.5t-53 -31.5t-65.5 -10z" />
    <glyph glyph-name="dotaccent" unicode="&#x2d9;" horiz-adv-x="369" 
d="M116 773h137v-137h-137v137z" />
    <glyph glyph-name="ring" unicode="&#x2da;" horiz-adv-x="369" 
d="M188 602q-62 0 -96.5 33.5t-34.5 89.5q0 27 9.5 49.5t27 39t42 25.5t53.5 9q63 0 97 -34.5t34 -88.5q0 -56 -36 -89.5t-96 -33.5zM188 785q-24 0 -38.5 -16.5t-14.5 -44.5q0 -27 14 -43.5t40 -16.5q24 0 38 16.5t14 43.5q0 28 -13.5 44.5t-39.5 16.5z" />
    <glyph glyph-name="ogonek" unicode="&#x2db;" horiz-adv-x="369" 
d="M198 9q2 -1 11.5 -2t21.5 -3q13 -2 31 -4q-27 -18 -38.5 -33t-11.5 -31q0 -17 12 -25.5t39 -9.5v-89h-29q-80 0 -111.5 25.5t-31.5 64.5q0 33 26 62.5t81 44.5z" />
    <glyph glyph-name="tilde" unicode="&#x2dc;" horiz-adv-x="369" 
d="M-5 614q0 33 6 63t20 52.5t36.5 35.5t55.5 13q23 0 42.5 -8t36 -17.5t31.5 -17.5t30 -8q14 0 28 10t22 42h71q0 -34 -6 -64t-20 -52.5t-36.5 -35.5t-55.5 -13q-23 0 -42.5 8t-36 17.5t-31.5 17.5t-30 8q-14 0 -28 -10t-21 -41h-72z" />
    <glyph glyph-name="hungarumlaut" unicode="&#x2dd;" horiz-adv-x="413" 
d="M260 788h127l-86 -174h-93zM83 788h128l-73 -174h-94z" />
    <glyph glyph-name="Wgrave" unicode="&#x1e80;" horiz-adv-x="1067" 
d="M603 827h-120l-103 133h159zM224 0l-203 765h170l106 -435q7 -29 12 -52.5t7 -40.5q3 -20 4 -36h2q1 15 5 35q3 17 8 40.5t13 52.5l119 436h150l120 -435q8 -29 13.5 -52.5t9.5 -40.5q4 -20 7 -36h1q1 15 5 35q2 17 6.5 40.5t11.5 52.5l105 436h150l-202 -765h-161
l-123 452q-8 29 -13 51t-7 38q-3 18 -4 32h-2q-2 -14 -5 -32q-3 -16 -7 -37.5t-12 -50.5l-122 -453h-164z" />
    <glyph glyph-name="wgrave" unicode="&#x1e81;" horiz-adv-x="860" 
d="M17 536h153l71 -270q5 -21 9 -41t6 -36q3 -18 5 -36h3q3 18 7 36l9 36t11 40l80 271h129l80 -271q6 -20 10.5 -40t8.5 -36q4 -18 7 -36h4q2 18 6 36q3 16 7.5 36t9.5 40l70 271h139l-155 -536h-153l-65 213q-8 24 -14.5 52.5t-11.5 52.5q-6 28 -11 57h-2q-7 -29 -13 -57
q-6 -25 -12.5 -53t-14.5 -52l-66 -213h-151zM501 614h-121l-88 174h158z" />
    <glyph glyph-name="Wacute" unicode="&#x1e82;" horiz-adv-x="1067" 
d="M545 960h158l-103 -133h-119zM224 0l-203 765h170l106 -435q7 -29 12 -52.5t7 -40.5q3 -20 4 -36h2q1 15 5 35q3 17 8 40.5t13 52.5l119 436h150l120 -435q8 -29 13.5 -52.5t9.5 -40.5q4 -20 7 -36h1q1 15 5 35q2 17 6.5 40.5t11.5 52.5l105 436h150l-202 -765h-161
l-123 452q-8 29 -13 51t-7 38q-3 18 -4 32h-2q-2 -14 -5 -32q-3 -16 -7 -37.5t-12 -50.5l-122 -453h-164z" />
    <glyph glyph-name="wacute" unicode="&#x1e83;" horiz-adv-x="860" 
d="M416 788h158l-88 -174h-121zM17 536h153l71 -270q5 -21 9 -41t6 -36q3 -18 5 -36h3q3 18 7 36l9 36t11 40l80 271h129l80 -271q6 -20 10.5 -40t8.5 -36q4 -18 7 -36h4q2 18 6 36q3 16 7.5 36t9.5 40l70 271h139l-155 -536h-153l-65 213q-8 24 -14.5 52.5t-11.5 52.5
q-6 28 -11 57h-2q-7 -29 -13 -57q-6 -25 -12.5 -53t-14.5 -52l-66 -213h-151z" />
    <glyph glyph-name="Wdieresis" unicode="&#x1e84;" horiz-adv-x="1067" 
d="M584 965h136v-137h-136v137zM369 965h136v-137h-136v137zM224 0l-203 765h170l106 -435q7 -29 12 -52.5t7 -40.5q3 -20 4 -36h2q1 15 5 35q3 17 8 40.5t13 52.5l119 436h150l120 -435q8 -29 13.5 -52.5t9.5 -40.5q4 -20 7 -36h1q1 15 5 35q2 17 6.5 40.5t11.5 52.5
l105 436h150l-202 -765h-161l-123 452q-8 29 -13 51t-7 38q-3 18 -4 32h-2q-2 -14 -5 -32q-3 -16 -7 -37.5t-12 -50.5l-122 -453h-164z" />
    <glyph glyph-name="wdieresis" unicode="&#x1e85;" horiz-adv-x="860" 
d="M471 773h137v-137h-137v137zM263 773h136v-137h-136v137zM17 536h153l71 -270q5 -21 9 -41t6 -36q3 -18 5 -36h3q3 18 7 36l9 36t11 40l80 271h129l80 -271q6 -20 10.5 -40t8.5 -36q4 -18 7 -36h4q2 18 6 36q3 16 7.5 36t9.5 40l70 271h139l-155 -536h-153l-65 213
q-8 24 -14.5 52.5t-11.5 52.5q-6 28 -11 57h-2q-7 -29 -13 -57q-6 -25 -12.5 -53t-14.5 -52l-66 -213h-151z" />
    <glyph glyph-name="Ygrave" unicode="&#x1ef2;" horiz-adv-x="697" 
d="M267 320l-256 445h181l161 -301h2l163 301h168l-255 -442v-323h-164v320zM413 827h-120l-103 133h159z" />
    <glyph glyph-name="ygrave" unicode="&#x1ef3;" horiz-adv-x="571" 
d="M17 536h164l88 -282q7 -22 11.5 -41t7.5 -33q4 -17 5 -31h3q1 14 5 31q3 14 7 33t11 41l83 282h155l-188 -553q-16 -47 -35 -81t-46 -56.5t-64 -33.5t-89 -11q-39 0 -58 3t-21 4v116q7 -2 22 -3.5t32 -1.5q45 0 68.5 14.5t34.5 50.5l4 13zM361 614h-121l-88 174h158z" />
    <glyph glyph-name="uni2009" unicode="&#x2009;" horiz-adv-x="48" 
 />
    <glyph glyph-name="endash" unicode="&#x2013;" horiz-adv-x="524" 
d="M57 369h410v-113h-410v113z" />
    <glyph glyph-name="emdash" unicode="&#x2014;" horiz-adv-x="894" 
d="M57 367h780v-109h-780v109z" />
    <glyph glyph-name="quoteleft" unicode="&#x2018;" horiz-adv-x="289" 
d="M192 504h-162l120 261h101z" />
    <glyph glyph-name="quoteright" unicode="&#x2019;" horiz-adv-x="289" 
d="M98 765h161l-120 -261h-101z" />
    <glyph glyph-name="quotesinglbase" unicode="&#x201a;" horiz-adv-x="289" 
d="M100 148h162l-121 -261h-101z" />
    <glyph glyph-name="quotedblleft" unicode="&#x201c;" horiz-adv-x="496" 
d="M397 504h-158l117 261h101zM190 504h-159l117 261h101z" />
    <glyph glyph-name="quotedblright" unicode="&#x201d;" horiz-adv-x="495" 
d="M309 765h158l-117 -261h-101zM101 765h158l-117 -261h-101z" />
    <glyph glyph-name="quotedblbase" unicode="&#x201e;" horiz-adv-x="494" 
d="M307 148h159l-117 -261h-101zM100 148h158l-117 -261h-101z" />
    <glyph glyph-name="dagger" unicode="&#x2020;" horiz-adv-x="334" 
d="M222 290h-110v268h-87v105h87v102h110v-102h88v-105h-88v-268z" />
    <glyph glyph-name="daggerdbl" unicode="&#x2021;" horiz-adv-x="334" 
d="M222 290h-110v102h-87v93h87v85h-87v93h87v102h110v-102h88v-93h-88v-85h88v-93h-88v-102z" />
    <glyph glyph-name="bullet" unicode="&#x2022;" horiz-adv-x="340" 
d="M169 185q-53 0 -86.5 33.5t-33.5 89.5q0 27 9.5 49.5t26 39t38.5 25.5t47 9q54 0 87.5 -34.5t33.5 -88.5q0 -28 -9.5 -50.5t-26 -38.5t-39 -25t-47.5 -9z" />
    <glyph glyph-name="ellipsis" unicode="&#x2026;" horiz-adv-x="900" 
d="M670 159h169v-159h-169v159zM365 159h170v-159h-170v159zM61 159h169v-159h-169v159z" />
    <glyph glyph-name="perthousand" unicode="&#x2030;" horiz-adv-x="1317" 
d="M668 781h114l-534 -821h-114zM230 381q-36 0 -68 11.5t-56 34t-37.5 56.5t-13.5 79t14.5 79t38.5 56.5t55.5 33.5t66.5 11q36 0 68 -11t56 -33.5t38.5 -56.5t14.5 -79t-14.5 -79t-38.5 -56.5t-56 -34t-68 -11.5zM229 466q32 0 50.5 24t18.5 72t-18.5 72.5t-50.5 24.5
t-49.5 -23.5t-17.5 -73.5q0 -48 17.5 -72t49.5 -24zM1085 -7q-36 0 -68 11.5t-56 34t-37.5 56.5t-13.5 79t14 79t38 56.5t56 33.5t67 11q36 0 68 -11t56 -33.5t38 -56.5t14 -79t-14 -79t-38 -56.5t-56 -34t-68 -11.5zM679 -7q-36 0 -68 11.5t-56 34t-37.5 56.5t-13.5 79
t14 79t38 56.5t56 33.5t67 11q36 0 68 -11t56 -33.5t38 -56.5t14 -79t-14 -79t-38 -56.5t-56 -34t-68 -11.5zM1084 78q31 0 50 24t19 72t-19 72.5t-50 24.5q-32 0 -50 -23.5t-18 -73.5q0 -48 18 -72t50 -24zM678 78q31 0 50 24t19 72t-19 72.5t-50 24.5q-32 0 -50 -23.5
t-18 -73.5q0 -48 18 -72t50 -24z" />
    <glyph glyph-name="uni2032" unicode="&#x2032;" horiz-adv-x="289" 
d="M78 765h162l-81 -261h-102z" />
    <glyph glyph-name="uni2033" unicode="&#x2033;" horiz-adv-x="495" 
d="M289 765h158l-78 -261h-101zM82 765h158l-78 -261h-101z" />
    <glyph glyph-name="guilsinglleft" unicode="&#x2039;" horiz-adv-x="313" 
d="M261 464l-97 -206l99 -201h-117l-108 204l107 203h116z" />
    <glyph glyph-name="guilsinglright" unicode="&#x203a;" horiz-adv-x="312" 
d="M51 57l98 206l-99 201h117l107 -203l-106 -204h-117z" />
    <glyph glyph-name="fraction" unicode="&#x2044;" horiz-adv-x="234" 
d="M335 781h111l-547 -821h-111z" />
    <glyph glyph-name="Euro" unicode="&#x20ac;" horiz-adv-x="716" 
d="M671 215q-2 -49 -20 -91t-52.5 -73t-85 -48.5t-116.5 -17.5q-248 0 -290 265h-78v77h71q-1 10 -1 19.5v20.5v21t1 20h-73v77h81q23 134 99 200t199 66q63 0 111.5 -17.5t82 -49t52.5 -74t22 -93.5h-164q-2 23 -9.5 45t-20.5 39t-33 27.5t-48 10.5q-54 0 -86 -36t-44 -118
h179v-77h-185q-1 -9 -1 -18.5v-20.5v-21.5t1 -20.5h187v-77h-181q12 -83 44 -117t86 -34q28 0 48.5 9t34 24.5t21 37t10.5 45.5h158z" />
    <glyph glyph-name="trademark" unicode="&#x2122;" horiz-adv-x="713" 
d="M274 699h-92v-240h-76v240h-91v66h259v-66zM309 765h122l50 -157q3 -11 4.5 -19.5t3.5 -14.5q2 -7 3 -13h3q1 6 3 13q2 6 3.5 14.5t5.5 19.5l50 157h120v-306h-75v224h-3q-2 -8 -5 -18q-5 -19 -14 -44l-54 -162h-68l-56 161q-5 13 -8 25l-5 20q-3 10 -4 18h-4v-224h-72
v306z" />
    <glyph glyph-name="onethird" unicode="&#x2153;" horiz-adv-x="917" 
d="M118 614h-94v76h14q20 0 36.5 4t29.5 13q24 18 24 58h105v-431h-115v280zM648 183v71h41q25 0 43 13.5t18 38.5t-16.5 38t-40.5 13q-31 0 -44.5 -16t-14.5 -38h-113q1 24 10 48t30 43.5t55 32t84 12.5q81 0 123.5 -34t42.5 -83q0 -35 -21 -60.5t-64 -36.5v-2
q96 -17 96 -103q0 -25 -11.5 -48.5t-34 -41.5t-56 -28.5t-78.5 -10.5q-51 0 -85 12t-55 31t-30 43.5t-10 49.5h116q2 -26 20 -39.5t43 -13.5q31 0 48.5 16.5t17.5 39.5q0 25 -17 39t-47 14h-50zM613 781h111l-547 -821h-111z" />
    <glyph glyph-name="twothirds" unicode="&#x2154;" horiz-adv-x="1017" 
d="M34 614q2 72 47 114.5t133 42.5q45 0 77.5 -10t53 -27t30.5 -40t10 -49q0 -24 -6.5 -44t-20 -38.5t-33 -36.5t-45.5 -39l-79 -65v-2h187v-86h-358v61l174 151q35 29 49 49t14 43q0 24 -14.5 38t-39.5 14q-27 0 -46.5 -16.5t-19.5 -59.5h-113zM747 183v71h41q25 0 43 13.5
t18 38.5t-16.5 38t-40.5 13q-31 0 -44.5 -16t-14.5 -38h-113q1 24 10 48t30 43.5t55 32t84 12.5q81 0 123.5 -34t42.5 -83q0 -35 -21 -60.5t-64 -36.5v-2q96 -17 96 -103q0 -25 -11.5 -48.5t-34 -41.5t-56 -28.5t-78.5 -10.5q-51 0 -85 12t-55 31t-30 43.5t-10 49.5h116
q2 -26 20 -39.5t43 -13.5q31 0 48.5 16.5t17.5 39.5q0 25 -17 39t-47 14h-50zM733 781h111l-547 -821h-111z" />
    <glyph glyph-name="oneeighth" unicode="&#x215b;" horiz-adv-x="915" 
d="M118 614h-94v76h14q20 0 36.5 4t29.5 13q24 18 24 58h105v-431h-115v280zM526 319q0 53 41.5 85.5t126.5 32.5t126.5 -32.5t41.5 -86.5q0 -38 -18.5 -60t-47.5 -33v-2q38 -10 60.5 -33.5t22.5 -68.5q0 -57 -47 -93.5t-138 -36.5q-96 0 -140 35.5t-44 94.5q0 42 22.5 66.5
t59.5 35.5v2q-29 10 -47.5 33t-18.5 61zM694 366q-26 0 -42.5 -13.5t-16.5 -42.5q0 -27 16.5 -41.5t42.5 -14.5t42.5 14.5t16.5 41.5q0 29 -16.5 42.5t-42.5 13.5zM694 63q30 0 50 15.5t20 46.5q0 32 -19.5 47.5t-50.5 15.5t-51 -15.5t-20 -47.5q0 -31 21 -46.5t50 -15.5z
M612 781h111l-547 -821h-111z" />
    <glyph glyph-name="threeeighths" unicode="&#x215c;" horiz-adv-x="992" 
d="M168 517v71h41q25 0 43 13.5t18 38.5t-16.5 38t-40.5 13q-31 0 -44.5 -16t-14.5 -38h-113q1 24 10 48t30 43.5t55 32t84 12.5q81 0 123.5 -34t42.5 -83q0 -35 -21 -60.5t-64 -36.5v-2q96 -17 96 -103q0 -25 -11.5 -48.5t-34 -41.5t-56 -28.5t-78.5 -10.5q-51 0 -85 12
t-55 31t-30 43.5t-10 49.5h116q2 -26 20 -39.5t43 -13.5q31 0 48.5 16.5t17.5 39.5q0 25 -17 39t-47 14h-50zM603 320q0 53 41.5 85.5t126.5 32.5t126.5 -32.5t41.5 -86.5q0 -38 -18.5 -60t-47.5 -33v-2q38 -10 60.5 -33.5t22.5 -68.5q0 -57 -47 -93.5t-138 -36.5
q-96 0 -140 35.5t-44 94.5q0 42 22.5 66.5t59.5 35.5v2q-29 10 -47.5 33t-18.5 61zM771 367q-26 0 -42.5 -13.5t-16.5 -42.5q0 -27 16.5 -41.5t42.5 -14.5t42.5 14.5t16.5 41.5q0 29 -16.5 42.5t-42.5 13.5zM771 64q30 0 50 15.5t20 46.5q0 32 -19.5 47.5t-50.5 15.5
t-51 -15.5t-20 -47.5q0 -31 21 -46.5t50 -15.5zM708 781h111l-547 -821h-111z" />
    <glyph glyph-name="fiveeighths" unicode="&#x215d;" horiz-adv-x="988" 
d="M280 474q0 29 -18.5 47.5t-47.5 18.5q-40 0 -63 -29h-100l20 254h293v-88h-205l-9 -104h1q13 17 38 30.5t63 13.5q63 0 102 -34.5t39 -101.5q0 -32 -11 -60.5t-33.5 -49.5t-56.5 -33.5t-81 -12.5q-50 0 -83 11.5t-53 30.5t-29 43t-11 49h115q2 -26 19.5 -38.5t43.5 -12.5
q29 0 48 17t19 49zM599 319q0 53 41.5 85.5t126.5 32.5t126.5 -32.5t41.5 -86.5q0 -38 -18.5 -60t-47.5 -33v-2q38 -10 60.5 -33.5t22.5 -68.5q0 -57 -47 -93.5t-138 -36.5q-96 0 -140 35.5t-44 94.5q0 42 22.5 66.5t59.5 35.5v2q-29 10 -47.5 33t-18.5 61zM767 366
q-26 0 -42.5 -13.5t-16.5 -42.5q0 -27 16.5 -41.5t42.5 -14.5t42.5 14.5t16.5 41.5q0 29 -16.5 42.5t-42.5 13.5zM767 63q30 0 50 15.5t20 46.5q0 32 -19.5 47.5t-50.5 15.5t-51 -15.5t-20 -47.5q0 -31 21 -46.5t50 -15.5zM701 781h111l-547 -821h-111z" />
    <glyph glyph-name="seveneighths" unicode="&#x215e;" horiz-adv-x="920" 
d="M230 677h-202v88h337v-62l-183 -369h-121zM531 319q0 53 41.5 85.5t126.5 32.5t126.5 -32.5t41.5 -86.5q0 -38 -18.5 -60t-47.5 -33v-2q38 -10 60.5 -33.5t22.5 -68.5q0 -57 -47 -93.5t-138 -36.5q-96 0 -140 35.5t-44 94.5q0 42 22.5 66.5t59.5 35.5v2q-29 10 -47.5 33
t-18.5 61zM699 366q-26 0 -42.5 -13.5t-16.5 -42.5q0 -27 16.5 -41.5t42.5 -14.5t42.5 14.5t16.5 41.5q0 29 -16.5 42.5t-42.5 13.5zM699 63q30 0 50 15.5t20 46.5q0 32 -19.5 47.5t-50.5 15.5t-51 -15.5t-20 -47.5q0 -31 21 -46.5t50 -15.5zM610 781h111l-547 -821h-111z
" />
    <glyph glyph-name="minus" unicode="&#x2212;" horiz-adv-x="632" 
d="M76 416h480v-116h-480v116z" />
    <glyph glyph-name="approxequal" unicode="&#x2248;" horiz-adv-x="633" 
d="M80 380q0 33 8 63t25 52.5t42.5 36t60.5 13.5q24 0 51 -7t53 -16t49 -16t41 -7t30 10.5t16 39.5h91q0 -34 -7.5 -64t-23 -52.5t-39.5 -35.5t-57 -13q-26 0 -53 7t-53 16t-49.5 16t-40.5 7q-41 0 -45 -50h-99zM80 181q0 34 8 64t25 52.5t42.5 35.5t60.5 13q24 0 51 -7
t53 -16t49 -16t41 -7t30 10.5t16 39.5h91q0 -34 -7.5 -64t-23 -52.5t-39.5 -35.5t-57 -13q-26 0 -53 7t-53 16t-49.5 16t-40.5 7q-41 0 -45 -50h-99z" />
    <glyph glyph-name="notequal" unicode="&#x2260;" horiz-adv-x="633" 
d="M244 90h-94l48 105h-122v115h175l41 90h-216v115h269l51 111h94l-51 -111h117v-115h-170l-41 -90h211v-115h-264z" />
    <glyph glyph-name="lessequal" unicode="&#x2264;" horiz-adv-x="633" 
d="M64 390v83l496 223v-126l-316 -135l316 -138v-130zM64 0v115h496v-115h-496z" />
    <glyph glyph-name="greaterequal" unicode="&#x2265;" horiz-adv-x="633" 
d="M569 473v-83l-496 -223v126l316 136l-316 137v130zM73 0v115h496v-115h-496z" />
    <glyph glyph-name="uni24C5" unicode="&#x24c5;" horiz-adv-x="899" 
d="M55 380q0 84 30 156.5t82.5 126t124.5 84t157 30.5t157 -30.5t125 -84t83 -126t30 -156.5t-30 -156.5t-83 -125.5t-125 -83.5t-157 -30.5t-157 30.5t-124.5 83.5t-82.5 125.5t-30 156.5zM449 41q71 0 131.5 26t104.5 71.5t69 107.5t25 134t-25 134t-69 108t-104.5 72
t-131.5 26t-131 -26t-104 -72t-69 -108t-25 -134t25 -134t69 -107.5t104 -71.5t131 -26zM300 172v422h172q75 0 120.5 -36t45.5 -107q0 -75 -46.5 -111t-122.5 -36h-64v-132h-105zM459 381q35 0 56.5 16.5t21.5 52.5t-21 51.5t-56 15.5h-55v-136h54z" />
    <glyph glyph-name="quotedblright.sc" horiz-adv-x="495" 
d="M309 644h158l-117 -261h-101zM101 644h158l-117 -261h-101z" />
    <glyph glyph-name="Ibreve.sc" horiz-adv-x="319" 
d="M80 644h159v-644h-159v644zM160 711q-35 0 -65 10t-52.5 31.5t-35.5 54.5t-13 80h105q0 -37 17.5 -55.5t46.5 -18.5t47 18.5t18 55.5h99q0 -47 -13 -80t-35.5 -54.5t-53 -31.5t-65.5 -10z" />
    <glyph glyph-name="exclamdown.uc" horiz-adv-x="330" 
d="M257.005 -22.9521h-183.989l32.998 544.967h118.993zM253.005 765v-151.99h-174.989v151.99h174.989z" />
    <glyph glyph-name="hyphen.uc" horiz-adv-x="425" 
d="M57 421h312v-121h-312v121z" />
    <glyph glyph-name="endash.uc" horiz-adv-x="524" 
d="M57 414h410v-113h-410v113z" />
    <glyph glyph-name="emdash.uc" horiz-adv-x="894" 
d="M57 412h780v-109h-780v109z" />
    <glyph glyph-name="guilsinglleft.uc" horiz-adv-x="313" 
d="M261 524l-97 -206l99 -201h-117l-108 204l107 203h116z" />
    <glyph glyph-name="guilsinglright.uc" horiz-adv-x="312" 
d="M51 117l98 206l-99 201h117l107 -203l-106 -204h-117z" />
    <glyph glyph-name="guillemotleft.uc" horiz-adv-x="531" 
d="M480 524l-97 -206l98 -201h-116l-108 204l107 203h116zM261 524l-97 -206l99 -201h-117l-108 204l107 203h116z" />
    <glyph glyph-name="guillemotright.uc" horiz-adv-x="544" 
d="M57 117l99 206l-100 201h118l106 -203l-105 -204h-118zM283 117l97 206l-98 201h116l108 -203l-107 -204h-116z" />
    <glyph glyph-name="parenleft.uc" horiz-adv-x="366" 
d="M229 -100q-27 37 -55.5 84.5t-52 104.5t-38.5 124.5t-15 145.5q0 79 15 146.5t38.5 124.5t52 103.5t55.5 84.5h114q-26 -46 -50 -96.5t-42 -107t-29 -120t-11 -135.5q0 -71 11 -134.5t29 -120t42 -107.5t50 -97h-114z" />
    <glyph glyph-name="parenright.uc" horiz-adv-x="357" 
d="M23 -100q26 46 50 97t42 107.5t29 120t11 134.5q0 72 -11 135.5t-29 120t-42 107t-50 96.5h113q27 -38 56 -84.5t52 -103.5t38 -124.5t15 -146.5q0 -78 -15 -145.5t-38 -124.5t-52 -104.5t-56 -84.5h-113z" />
    <glyph glyph-name="space_uni0326" horiz-adv-x="369" 
d="M133 -51h154l-73 -156h-105z" />
    <glyph glyph-name="grave.uc" horiz-adv-x="368" 
d="M266 827h-120l-103 133h159z" />
    <glyph glyph-name="bracketleft.uc" horiz-adv-x="386" 
d="M97 818h264v-96h-133v-726h133v-96h-264v918z" />
    <glyph glyph-name="bracketright.uc" horiz-adv-x="386" 
d="M289 -100h-264v96h133v726h-133v96h264v-918z" />
    <glyph glyph-name="braceleft.uc" horiz-adv-x="413" 
d="M42 303v109h30q34 0 47 15.5t13 52.5v153q0 55 15 91.5t46.5 58t80 30.5t114.5 9v-92q-40 0 -65.5 -6t-39.5 -19t-19.5 -34.5t-5.5 -52.5v-128q0 -23 -3.5 -44t-12.5 -38t-24.5 -29.5t-39.5 -17.5v-4q24 -5 39.5 -17.5t24.5 -30t12.5 -39t3.5 -45.5v-125q0 -31 5.5 -52.5
t19.5 -34.5t39.5 -19t65.5 -6v-92q-66 0 -114.5 8.5t-80 29.5t-46.5 56t-15 87v158q0 37 -13 52.5t-47 15.5h-30z" />
    <glyph glyph-name="braceright.uc" horiz-adv-x="413" 
d="M372 306h-30q-35 0 -47.5 -15.5t-12.5 -52.5v-153q0 -55 -15.5 -91.5t-47 -58t-80 -30.5t-114.5 -9v92q40 0 65.5 6t40 19t20 34.5t5.5 52.5v129q0 22 3.5 43t12.5 38t24.5 29.5t39.5 17.5v4q-24 5 -39.5 17.5t-24.5 30t-12.5 39t-3.5 45.5v125q0 31 -5.5 52.5t-20 34.5
t-40 19t-65.5 6v92q66 0 114.5 -8.5t80 -29.5t47 -56t15.5 -87v-158q0 -37 12.5 -52.5t47.5 -15.5h30v-109z" />
    <glyph glyph-name="slash.uc" horiz-adv-x="559" 
d="M427 811h120l-432 -902h-120z" />
    <glyph glyph-name="backslash.uc" horiz-adv-x="559" 
d="M12 811h120l431 -902h-120z" />
    <glyph glyph-name="bar.uc" horiz-adv-x="289" 
d="M89 811h108v-902h-108v902z" />
    <glyph glyph-name="acute.uc" horiz-adv-x="368" 
d="M157 960h158l-103 -133h-119z" />
    <glyph glyph-name="at.uc" horiz-adv-x="1022" 
d="M720 126q-57 0 -95 24.5t-44 72.5h-3q-23 -42 -60 -68.5t-95 -26.5q-74 0 -115 46.5t-41 131.5q0 51 15.5 101t44.5 89t70.5 63t94.5 24q49 0 78.5 -22t40.5 -52h2l11 58h128l-59 -277q-9 -44 5.5 -67t49.5 -23q24 0 47.5 12t42 38t30 66.5t11.5 97.5q0 71 -26.5 132
t-73.5 105.5t-112 70t-143 25.5q-82 0 -153.5 -31.5t-124.5 -86.5t-83.5 -130.5t-30.5 -162.5q0 -88 27.5 -159t76.5 -121t116 -77t146 -27q81 0 147 24.5t110 59.5l44 -45q-50 -42 -126 -73t-182 -31q-95 0 -175 32.5t-138.5 91.5t-91 141.5t-32.5 183.5q0 103 36.5 190
t100 150.5t150 99.5t185.5 36q93 0 172.5 -28.5t137 -80t90.5 -124t33 -159.5q0 -78 -20 -133.5t-53.5 -91.5t-76.5 -52.5t-89 -16.5zM468 218q36 0 66 31.5t41 84.5l9 44q4 23 2.5 44t-10 37t-22.5 25.5t-35 9.5q-30 0 -52.5 -18t-37 -45.5t-21.5 -61t-7 -63.5
q0 -41 16.5 -64.5t50.5 -23.5z" />
    <glyph glyph-name="f.short" horiz-adv-x="371" 
d="M251 0h-155v426h-77v110h77v72q0 53 14 89t39 57.5t60.5 30.5t79.5 9q31 0 52.5 -2.5t25.5 -3.5v-111q-2 1 -14 2t-30 1q-35 0 -53.5 -17t-18.5 -63v-64h105v-110h-105v-426z" />
    <glyph glyph-name="f_f.short" horiz-adv-x="735" 
d="M251 0h-155v426h-77v110h77v64q0 54 14 89.5t39 57t60.5 30.5t79.5 9q31 0 52.5 -2.5t25.5 -3.5v-111q-2 1 -14 2.5t-30 1.5q-35 0 -53.5 -17.5t-18.5 -62.5v-57h209v72q0 53 14 89t39 57.5t60.5 30.5t79.5 9q31 0 52.5 -2.5t25.5 -3.5v-111q-2 1 -14 2t-30 1
q-35 0 -53.5 -17t-18.5 -63v-64h105v-110h-105v-426h-155v426h-209v-426z" />
    <glyph glyph-name="macron.uc" horiz-adv-x="369" 
d="M13 942h342v-104h-342v104z" />
    <glyph glyph-name="circumflex.uc" horiz-adv-x="369" 
d="M361 827h-115l-66 56h-1l-64 -56h-106l108 133h136z" />
    <glyph glyph-name="caron.uc" horiz-adv-x="369" 
d="M9 960h115l66 -56h1l64 56h106l-108 -133h-136z" />
    <glyph glyph-name="breve.uc" horiz-adv-x="369" 
d="M184 815q-34 0 -63.5 9t-52 27.5t-36 48.5t-14.5 72h103q2 -30 20.5 -46.5t45.5 -16.5t45.5 16.5t21.5 46.5h97q-1 -42 -14.5 -72t-36 -48.5t-52.5 -27.5t-64 -9z" />
    <glyph glyph-name="caron.alt" horiz-adv-x="369" 
d="M138 788h125l-56 -187h-75z" />
    <glyph glyph-name="dotaccent.uc" horiz-adv-x="369" 
d="M116 970h137v-137h-137v137z" />
    <glyph glyph-name="ring.uc" horiz-adv-x="369" 
d="M188 797q-62 0 -96.5 33.5t-34.5 88.5t36.5 89.5t95.5 34.5q63 0 97 -34.5t34 -89.5t-36 -88.5t-96 -33.5zM188 980q-24 0 -38.5 -17t-14.5 -44t14 -44t40 -17q24 0 38 17t14 44t-13.5 44t-39.5 17z" />
    <glyph glyph-name="sterling.tab" 
d="M565 0h-518v92l40 29q24 17 39.5 35t22.5 39t6 47t-11 60h-104v97h70l-9 27q-28 79 -20.5 139.5t40.5 102t87 63t119 21.5q63 0 107.5 -15.5t73 -45t42.5 -70.5t15 -92h-150q-1 23 -5.5 44t-15 36.5t-27 25t-40.5 9.5q-61 0 -81.5 -50.5t4.5 -139.5l15 -55h177v-97h-152
q8 -55 -8.5 -94t-55.5 -71l-11 -9v-2h350v-126z" />
    <glyph glyph-name="tilde.uc" horiz-adv-x="369" 
d="M-5 819q1 32 7 60t19.5 49t35.5 33.5t54 12.5q24 0 43.5 -8t37 -18t32.5 -18t30 -8t28 12t21 41h71q-1 -32 -7 -60t-19.5 -49t-35.5 -33.5t-54 -12.5q-24 0 -43.5 8t-37 18t-33 18t-30.5 8q-13 0 -26.5 -11.5t-20.5 -41.5h-72z" />
    <glyph glyph-name="cent.tab" 
d="M553 199q-4 -97 -61 -149.5t-150 -60.5v-105h-69v104q-113 11 -171 84t-58 196q0 121 59.5 194.5t169.5 84.5v88h69v-87q94 -8 149.5 -59t58.5 -145h-141q-3 35 -19 63t-48 38v-352q37 11 53 41.5t18 64.5h140zM273 444q-23 -8 -39 -25t-25.5 -40.5t-13.5 -51.5t-4 -57
q0 -27 3 -55t12 -52.5t25 -42.5t42 -26v350z" />
    <glyph glyph-name="plus.tab" 
d="M362 104h-125v196h-190v116h190v194h125v-194h191v-116h-191v-196z" />
    <glyph glyph-name="minus.tab" 
d="M60 416h480v-116h-480v116z" />
    <glyph glyph-name="multiply.tab" 
d="M47 181l169 166l-168 166l86 87l166 -168l166 168l86 -85l-168 -167l168 -166l-86 -87l-167 169l-166 -169z" />
    <glyph glyph-name="divide.tab" 
d="M223 635h153v-143h-153v143zM60 416h480v-116h-480v116zM223 78v144h153v-144h-153z" />
    <glyph glyph-name="equal.tab" 
d="M60 515h480v-115h-480v115zM60 195v115h480v-115h-480z" />
    <glyph glyph-name="less.tab" 
d="M50 297v72l496 253v-130l-316 -156l316 -157v-134z" />
    <glyph glyph-name="greater.tab" 
d="M550 366v-71l-497 -253v130l316 156l-316 157v133z" />
    <glyph glyph-name="florin.tab" 
d="M291 -189h-153l68 537h-101v111h115l14 110q8 66 28 109t48.5 68.5t64.5 35.5t78 10q29 0 49 -2.5t24 -3.5v-116q-2 1 -11.5 2.5t-28.5 1.5q-17 0 -32.5 -3.5t-28 -15t-21.5 -32t-13 -54.5l-15 -110h119v-111h-133z" />
    <glyph glyph-name="plusminus.tab" 
d="M362 199h-125v170h-190v116h190v168h125v-168h191v-116h-191v-170zM47 115h506v-115h-506v115z" />
    <glyph glyph-name="notequal.tab" 
d="M227 90h-94l48 105h-122v115h175l41 90h-216v115h269l51 111h94l-51 -111h117v-115h-170l-41 -90h211v-115h-264z" />
    <glyph glyph-name="approxequal.tab" 
d="M66 380q0 33 8.5 63t25 52.5t42 36t60.5 13.5q24 0 51 -7t53 -16t49.5 -16t40.5 -7q18 0 30.5 10.5t15.5 39.5h92q0 -34 -7.5 -64t-23 -52.5t-40 -35.5t-57.5 -13q-26 0 -53 7t-53 16t-49.5 16t-40.5 7q-39 0 -45 -50h-99zM66 181q0 34 8.5 64t25 52.5t42 35.5t60.5 13
q24 0 51 -7t53 -16t49.5 -16t40.5 -7q18 0 30.5 10.5t15.5 39.5h92q0 -34 -7.5 -64t-23 -52.5t-40 -35.5t-57.5 -13q-26 0 -53 7t-53 16t-49.5 16t-40.5 7q-39 0 -45 -50h-99z" />
    <glyph glyph-name="lessequal.tab" 
d="M50 390v83l497 223v-126l-317 -135l317 -138v-130zM50 0v115h497v-115h-497z" />
    <glyph glyph-name="greaterequal.tab" 
d="M550 473v-83l-497 -223v126l317 136l-317 137v130zM53 0v115h497v-115h-497z" />
    <glyph glyph-name="period.tab" horiz-adv-x="300" 
d="M65 159h169v-159h-169v159z" />
    <glyph glyph-name="comma.tab" horiz-adv-x="300" 
d="M90 159h164l-110 -276h-106z" />
    <glyph glyph-name="colon.tab" horiz-adv-x="300" 
d="M66 527h167v-159h-167v159zM66 0v159h167v-159h-167z" />
    <glyph glyph-name="semicolon.tab" horiz-adv-x="300" 
d="M80 527h167v-159h-167v159zM29 -117l52 276h164l-110 -276h-106z" />
    <glyph glyph-name="hungarumlaut.uc" horiz-adv-x="413" 
d="M252 964h126l-69 -133h-92zM74 964h125l-56 -133h-91z" />
    <glyph glyph-name="currency.tab" 
d="M210 348q0 -42 24 -68.5t64 -26.5q41 0 65 26.5t24 68.5t-24 68.5t-65 26.5q-40 0 -64 -26.5t-24 -68.5zM113 348q0 23 5 43.5t13 39.5l-97 96l86 86l96 -98q38 19 82 19q23 0 44.5 -5.5t39.5 -14.5l98 100l86 -86l-101 -98q19 -38 19 -82q0 -46 -19 -82l100 -98l-86 -86
l-98 99q-36 -18 -83 -18q-45 0 -82 17l-97 -99l-85 86l98 96q-19 40 -19 85z" />
    <glyph glyph-name="percent.tab" horiz-adv-x="900" 
d="M662 781h113l-534 -821h-113zM222 381q-35 0 -65 11.5t-53 34t-36 56.5t-13 79t13.5 79t37 56.5t53.5 33.5t63 11q34 0 64.5 -11t53.5 -33.5t36.5 -56.5t13.5 -79t-13.5 -79t-36.5 -56.5t-53.5 -34t-64.5 -11.5zM221 466q30 0 47 24t17 72t-17 72.5t-47 24.5
q-62 0 -62 -97q0 -96 62 -96zM677 -7q-35 0 -65 11.5t-53 34t-36 56.5t-13 79t13.5 79t36.5 56.5t53.5 33.5t63.5 11q34 0 64.5 -11t53.5 -33.5t36.5 -56.5t13.5 -79t-13.5 -79t-36.5 -56.5t-53.5 -34t-64.5 -11.5zM676 78q30 0 46.5 24t16.5 72t-16.5 72.5t-46.5 24.5
q-63 0 -63 -97q0 -96 63 -96z" />
    <glyph glyph-name="perthousand.tab" horiz-adv-x="1200" 
d="M626 781h114l-534 -821h-114zM55 562q0 45 13 79t34.5 56.5t50 33.5t59.5 11q32 0 60.5 -11t50.5 -33.5t34.5 -56.5t12.5 -79t-12.5 -79t-34.5 -56.5t-50.5 -34t-60.5 -11.5q-33 0 -61.5 11.5t-49.5 34t-33.5 56.5t-12.5 79zM211 466q27 0 43 24t16 72t-16 72.5t-43 24.5
t-42 -23.5t-15 -73.5q0 -48 15 -72t42 -24zM987 -7q-32 0 -60.5 11.5t-49.5 34t-33.5 56.5t-12.5 79t12.5 79t34 56.5t50 33.5t59.5 11q32 0 60.5 -11t50.5 -33.5t34.5 -56.5t12.5 -79t-12.5 -79t-34.5 -56.5t-50.5 -34t-60.5 -11.5zM617 -7q-33 0 -61.5 11.5t-49.5 34
t-33.5 56.5t-12.5 79t12.5 79t34 56.5t50 33.5t60.5 11q31 0 59.5 -11t50.5 -33.5t34.5 -56.5t12.5 -79t-12.5 -79t-34.5 -56.5t-50.5 -34t-59.5 -11.5zM986 78q26 0 42.5 24t16.5 72t-16.5 72.5t-42.5 24.5t-42 -23.5t-16 -73.5q0 -48 16 -72t42 -24zM616 78q26 0 42 24
t16 72t-16 72.5t-42 24.5q-27 0 -42.5 -23.5t-15.5 -73.5q0 -48 15.5 -72t42.5 -24z" />
    <glyph glyph-name="idotaccent" horiz-adv-x="295" 
d="M67 773h161v-144h-161v144zM68 536h159v-536h-159v536z" />
    <glyph glyph-name="A.sc" horiz-adv-x="688" 
d="M337 514q-1 -2 -7.5 -29.5t-23.5 -81.5l-54 -165h168l-54 165q-9 27 -14.5 48t-8.5 35q-4 17 -4 28h-2zM456 132h-240l-46 -132h-151l236 644h177l237 -644h-168z" />
    <glyph glyph-name="AE.sc" horiz-adv-x="966" 
d="M459 531h-38l-131 -277h169v277zM169 0h-157l325 644h559v-113h-281v-154h267v-110h-267v-155h290v-112h-446v151h-218z" />
    <glyph glyph-name="B.sc" horiz-adv-x="666" 
d="M80 0v644h285q112 0 169.5 -39.5t57.5 -121.5q0 -30 -10 -53t-25.5 -39.5t-36 -27.5t-41.5 -17v-3q30 -5 56 -17.5t45.5 -32t30.5 -45.5t11 -59q0 -47 -18 -82.5t-51.5 -59t-80.5 -35.5t-105 -12h-287zM339 381q46 0 73 19t27 62q0 39 -26.5 59t-71.5 20h-102v-160h100z
M357 106q50 0 78.5 19.5t28.5 70.5q0 43 -29 63.5t-80 20.5h-116v-174h118z" />
    <glyph glyph-name="C.sc" horiz-adv-x="694" 
d="M366 544q-62 0 -101 -55t-39 -169q0 -115 36 -169t101 -54q53 0 82.5 32.5t34.5 92.5h161q-5 -112 -78.5 -174t-198.5 -62q-79 0 -136.5 23t-95.5 65t-56.5 102.5t-18.5 135.5q0 79 21.5 142t61.5 107.5t97.5 68t129.5 23.5q131 0 201 -59t74 -174h-163q-9 124 -113 124z
" />
    <glyph glyph-name="D.sc" horiz-adv-x="708" 
d="M80 644h238q74 0 135.5 -18.5t106 -56.5t69 -97.5t24.5 -141.5q0 -83 -24.5 -144.5t-68.5 -103t-105.5 -62t-135.5 -20.5h-239v644zM314 111q38 0 69.5 11t54 36.5t35 66.5t12.5 102q0 58 -12.5 97.5t-34.5 64t-53 35t-67 10.5h-79v-423h75z" />
    <glyph glyph-name="Dcroat.sc" horiz-adv-x="727" 
d="M100 0v273h-61v99h61v272h238q74 0 135.5 -18.5t106 -56.5t69 -97.5t24.5 -141.5q0 -83 -24.5 -144.5t-68.5 -103t-105.5 -62t-134.5 -20.5h-240zM334 111q38 0 69.5 11t54 36.5t35 66.5t12.5 102q0 58 -12.5 97.5t-34.5 64t-52.5 35t-67.5 10.5h-78v-162h130v-99h-130
v-162h74z" />
    <glyph glyph-name="E.sc" horiz-adv-x="594" 
d="M80 644h445v-113h-286v-154h271v-110h-271v-155h295v-112h-454v644z" />
    <glyph glyph-name="Eng.sc" horiz-adv-x="718" 
d="M331 -166v113h42q51 0 77.5 11t37.5 39l-204 327q-14 23 -25 43.5t-19 35.5q-9 18 -15 33h-3v-436h-142v644h170l187 -316q14 -24 24 -44l17 -34q8 -17 14 -30h3v424h143v-596q0 -63 -17 -104.5t-49.5 -65.5t-79 -34t-104.5 -10h-57z" />
    <glyph glyph-name="Eth.sc" horiz-adv-x="727" 
d="M100 0v273h-61v99h61v272h238q74 0 135.5 -18.5t106 -56.5t69 -97.5t24.5 -141.5q0 -83 -24.5 -144.5t-68.5 -103t-105.5 -62t-134.5 -20.5h-240zM334 111q38 0 69.5 11t54 36.5t35 66.5t12.5 102q0 58 -12.5 97.5t-34.5 64t-52.5 35t-67.5 10.5h-78v-162h130v-99h-130
v-162h74z" />
    <glyph glyph-name="F.sc" horiz-adv-x="566" 
d="M239 0h-159v644h436v-116h-277v-176h260v-113h-260v-239z" />
    <glyph glyph-name="G.sc" horiz-adv-x="727" 
d="M373 546q-72 0 -111.5 -56t-39.5 -171q0 -62 11 -104.5t30.5 -69t47 -38.5t60.5 -12q62 0 101 35t39 99v10h-142v106h286v-345h-117v86h-3q-24 -44 -70 -71.5t-118 -27.5q-74 0 -129 23.5t-91 66t-53.5 102t-17.5 131.5q0 78 22.5 141.5t64 108.5t100.5 69t132 24
q126 0 195.5 -56t77.5 -153h-161q-6 48 -35 75t-79 27z" />
    <glyph glyph-name="H.sc" horiz-adv-x="725" 
d="M239 0h-159v644h159v-265h246v265h160v-644h-160v263h-246v-263z" />
    <glyph glyph-name="I.sc" horiz-adv-x="319" 
d="M80 644h159v-644h-159v644z" />
    <glyph glyph-name="IJ.sc" horiz-adv-x="711" 
d="M341 -2v119h24q39 0 62 7.5t35 22t16 35.5t4 49v413h157v-431q0 -62 -17.5 -103.5t-49.5 -66.5t-78.5 -35t-104.5 -10h-48zM80 644h159v-644h-159v644z" />
    <glyph glyph-name="J.sc" horiz-adv-x="420" 
d="M36 -2v119h36q39 0 62.5 7.5t36 22t16.5 35.5t4 49v413h157v-431q0 -62 -17 -103.5t-49.5 -66.5t-78.5 -35t-104 -10h-63z" />
    <glyph glyph-name="K.sc" horiz-adv-x="678" 
d="M239 0h-159v644h159v-284l237 284h167l-232 -274l239 -370h-180l-167 263l-64 -74v-189z" />
    <glyph glyph-name="L.sc" horiz-adv-x="571" 
d="M80 644h159v-525h274v-119h-433v644z" />
    <glyph glyph-name="M.sc" horiz-adv-x="880" 
d="M80 644h225l107 -332q6 -20 11 -37.5t8 -31.5q4 -16 7 -30h3q3 14 7 30q3 14 7.5 31.5t11.5 37.5l105 332h228v-644h-153v504h-2q-5 -19 -11 -42q-5 -20 -12.5 -46.5t-17.5 -56.5l-114 -359h-112l-115 360q-10 30 -17 56t-12 46q-6 23 -10 42h-3v-504h-141v644z" />
    <glyph glyph-name="N.sc" horiz-adv-x="718" 
d="M80 644h170l186 -317q14 -24 24.5 -44t17.5 -34q8 -17 14 -31h3v426h143v-644h-161l-193 324q-14 23 -24.5 43.5t-18.5 36.5q-9 18 -16 33h-3v-437h-142v644z" />
    <glyph glyph-name="O.sc" horiz-adv-x="742" 
d="M57 320q0 78 22 140t63 105t99 65.5t130 22.5q151 0 232.5 -86.5t81.5 -246.5q0 -79 -22 -141t-62.5 -104.5t-98.5 -65t-131 -22.5q-155 0 -234.5 86.5t-79.5 246.5zM371 96q71 0 108.5 56t37.5 168t-41 169t-105 57q-71 0 -108 -56t-37 -170q0 -113 35 -168.5t110 -55.5
z" />
    <glyph glyph-name="OE.sc" horiz-adv-x="1022" 
d="M518 370q0 80 -37 128t-103 48q-30 0 -57.5 -12.5t-48 -39.5t-32.5 -70t-12 -103q0 -112 39.5 -168.5t108.5 -56.5q71 0 106.5 45.5t35.5 123.5v105zM514 65q-22 -33 -64 -55t-106 -22q-65 0 -118 21t-90.5 63t-58 104t-20.5 144t22.5 144.5t62.5 104.5t93.5 63t115.5 21
q52 0 96.5 -20.5t67.5 -60.5h2v72h435v-113h-281v-154h267v-110h-267v-155h290v-112h-444v65h-3z" />
    <glyph glyph-name="Oslash.sc" horiz-adv-x="742" 
d="M371 549q-74 0 -113 -57t-39 -172q0 -33 3 -60.5t8 -50.5l244 296q-38 44 -103 44zM371 93q73 0 113 56.5t40 170.5q0 66 -14 114l-246 -299q37 -42 107 -42zM685 320q0 -79 -22 -141t-62.5 -104.5t-98.5 -65t-131 -22.5q-56 0 -103 12.5t-84 38.5l-49 -59h-95l89 108
q-72 86 -72 233q0 78 22 140t63 105t99 65.5t130 22.5q108 0 185 -49l53 64h95l-93 -113q74 -86 74 -235z" />
    <glyph glyph-name="P.sc" horiz-adv-x="616" 
d="M239 214v-214h-159v644h246q55 0 102 -11.5t81 -37t53 -65t19 -96.5q0 -60 -19.5 -102t-54.5 -68.5t-85 -38t-110 -11.5h-73zM314 325q54 0 85 27t31 82t-31 79t-84 24h-76v-212h75z" />
    <glyph glyph-name="Q.sc" horiz-adv-x="741" 
d="M57 320q0 78 22 140t62.5 105t99 65.5t131.5 22.5q149 0 231 -87t83 -246q-1 -93 -32 -163t-94 -104v-4q49 -6 78.5 -29.5t51.5 -66.5l-131 -72q-17 30 -32 50.5t-32 34t-36.5 19.5t-44.5 6q-15 0 -22.5 -1t-21.5 -1q-157 0 -235 86t-78 245zM371 94q72 0 109 54t37 170
q0 114 -40 171t-105 57q-73 0 -109.5 -57.5t-36.5 -170.5q0 -224 145 -224z" />
    <glyph glyph-name="R.sc" horiz-adv-x="663" 
d="M328 344q22 0 42.5 5t36 17t25 31t9.5 47q0 25 -9 43.5t-24.5 30.5t-35.5 17.5t-42 5.5h-91v-197h89zM330 245h-91v-245h-159v644h268q31 0 64 -3.5t68 -16.5q24 -8 46 -22.5t39 -36t27.5 -49.5t10.5 -63q0 -39 -10.5 -68t-28 -50t-40.5 -35.5t-48 -23.5v-2l150 -274
h-169z" />
    <glyph glyph-name="S.sc" horiz-adv-x="630" 
d="M407 469q-2 31 -24 54t-68 23q-40 0 -65.5 -19t-25.5 -53q0 -32 19 -49.5t62 -24.5l105 -17q87 -14 128.5 -61t41.5 -119q0 -54 -19.5 -94.5t-54.5 -67.5t-84.5 -41t-109.5 -14q-62 0 -110.5 14.5t-82.5 40.5t-52.5 63t-19.5 81h158q3 -41 31 -66t81 -25q56 0 80.5 23
t24.5 58q0 29 -19 49t-66 28l-104 18q-76 13 -121 58.5t-45 125.5q0 42 16.5 78t48 63t78.5 42.5t107 15.5q64 0 110 -14.5t75 -39t43.5 -58t17.5 -72.5h-156z" />
    <glyph glyph-name="T.sc" horiz-adv-x="592" 
d="M564 524h-188v-524h-160v524h-188v120h536v-120z" />
    <glyph glyph-name="Tbar.sc" horiz-adv-x="592" 
d="M564 524h-188v-131h145v-90h-145v-303h-160v303h-147v90h147v131h-188v120h536v-120z" />
    <glyph glyph-name="Thorn.sc" horiz-adv-x="613" 
d="M239 133v-133h-159v644h159v-122h104q51 0 93.5 -10.5t74 -33.5t49 -59t17.5 -87q0 -55 -18.5 -93t-50.5 -61.5t-77 -34t-97 -10.5h-95zM324 237q48 2 74.5 25t26.5 68q0 49 -28.5 69.5t-76.5 20.5h-81v-183h85z" />
    <glyph glyph-name="U.sc" horiz-adv-x="693" 
d="M74 644h158v-393q0 -29 4 -57.5t18 -48.5q29 -40 94 -40q67 0 96 41q14 19 17 47.5t3 57.5v393h155v-416q0 -62 -19.5 -107.5t-55 -75.5t-85.5 -44.5t-112 -14.5q-63 0 -114 14t-86 44t-54 75.5t-19 108.5v416z" />
    <glyph glyph-name="V.sc" horiz-adv-x="652" 
d="M17 644h167l120 -385q8 -27 13 -48.5t8 -36.5q4 -18 5 -32h3q2 14 6 32q3 15 8.5 37t14.5 49l121 384h152l-219 -644h-178z" />
    <glyph glyph-name="W.sc" horiz-adv-x="927" 
d="M190 0l-170 644h164l78 -337q5 -25 9.5 -48t6.5 -41q3 -21 4 -39h2q1 17 5 36q3 17 7.5 38.5t11.5 46.5l93 344h142l95 -347q7 -25 11.5 -46t7.5 -37q4 -18 6 -35h2q1 18 4 37q2 17 5.5 38.5t9.5 46.5l77 343h146l-169 -644h-153l-98 356q-7 23 -11 44.5t-6 37.5
q-3 18 -4 34h-2q-1 -17 -4 -35q-5 -34 -17 -81l-97 -356h-156z" />
    <glyph glyph-name="X.sc" horiz-adv-x="677" 
d="M247 333l-204 311h178l122 -201h1l127 201h162l-207 -306l228 -338h-186l-139 222h-2l-144 -222h-164z" />
    <glyph glyph-name="Y.sc" horiz-adv-x="623" 
d="M233 271l-220 373h171l133 -248h2l132 248h159l-219 -373v-271h-158v271z" />
    <glyph glyph-name="Z.sc" horiz-adv-x="606" 
d="M62 644h494v-104l-325 -423h328v-117h-513v104l326 424h-310v116z" />
    <glyph glyph-name="ampersand.sc" horiz-adv-x="703" 
d="M251 495q0 -12 2 -22t8 -20.5t16.5 -22.5t27.5 -30q35 23 54.5 46t19.5 55q0 29 -17 45.5t-45 16.5q-30 0 -48 -19.5t-18 -48.5zM243 279q-23 -15 -39 -36.5t-16 -53.5q0 -46 28 -71t73 -25q32 0 56.5 11.5t44.5 31.5l-143 146zM619 0q-27 0 -47 3t-37.5 9.5t-33.5 18
t-34 28.5q-37 -34 -84.5 -53t-110.5 -19q-110 0 -168 49.5t-58 134.5q0 58 36.5 103t101.5 82q-32 33 -49.5 64.5t-17.5 75.5q0 33 13.5 61.5t39.5 49.5t63 33.5t85 12.5q45 0 80 -11t59.5 -30t37 -44.5t12.5 -55.5t-9.5 -54t-27 -44.5t-42.5 -39.5t-56 -40l87 -90
q11 24 22.5 50.5t23.5 54.5h136q-25 -52 -47.5 -100.5t-48.5 -90.5q15 -14 26.5 -22.5t23.5 -13t25.5 -6t31.5 -1.5v-115h-33z" />
    <glyph glyph-name="uni0237.sc" horiz-adv-x="420" 
d="M36 -2v119h36q39 0 62.5 7.5t36 22t16.5 35.5t4 49v413h157v-431q0 -62 -17 -103.5t-49.5 -66.5t-78.5 -35t-104 -10h-63z" />
    <glyph glyph-name="exclam.sc" horiz-adv-x="345" 
d="M86 644h172l-31 -438h-110zM92 0v134h160v-134h-160z" />
    <glyph glyph-name="exclamdown.sc" horiz-adv-x="345" 
d="M252 510h-160v134h160v-134zM258 0h-172l32 438h109z" />
    <glyph glyph-name="germandbls.sc" horiz-adv-x="1259" 
d="M407 469q-2 31 -24 54t-68 23q-40 0 -65.5 -19t-25.5 -53q0 -32 19 -49.5t62 -24.5l105 -17q87 -14 128.5 -61t41.5 -119q0 -54 -19.5 -94.5t-54.5 -67.5t-84.5 -41t-109.5 -14q-62 0 -110.5 14.5t-82.5 40.5t-52.5 63t-19.5 81h158q3 -41 31 -66t81 -25q56 0 80.5 23
t24.5 58q0 29 -19 49t-66 28l-104 18q-76 13 -121 58.5t-45 125.5q0 42 16.5 78t48 63t78.5 42.5t107 15.5q64 0 110 -14.5t75 -39t43.5 -58t17.5 -72.5h-156zM1037 469q-2 31 -24 54t-68 23q-40 0 -65.5 -19t-25.5 -53q0 -32 19 -49.5t62 -24.5l105 -17q87 -14 128.5 -61
t41.5 -119q0 -54 -19.5 -94.5t-54.5 -67.5t-84.5 -41t-109.5 -14q-62 0 -110.5 14.5t-82.5 40.5t-52.5 63t-19.5 81h158q3 -41 31 -66t81 -25q56 0 80.5 23t24.5 58q0 29 -19 49t-66 28l-104 18q-76 13 -121 58.5t-45 125.5q0 42 16.5 78t48 63t78.5 42.5t107 15.5
q64 0 110 -14.5t75 -39t43.5 -58t17.5 -72.5h-156z" />
    <glyph glyph-name="question.sc" horiz-adv-x="566" 
d="M219 206v42q0 29 9 50t40 46l53 43q29 23 38.5 41t9.5 44q0 32 -22 53.5t-63 21.5q-51 0 -75.5 -29.5t-24.5 -83.5h-137q-1 47 14 87t45.5 69.5t75.5 46t105 16.5q56 0 98.5 -13.5t71.5 -37t44 -55.5t15 -70q0 -60 -23.5 -97t-65.5 -69l-58 -45q-16 -12 -19 -20.5
t-3 -27.5v-12h-128zM201 138h161v-138h-161v138z" />
    <glyph glyph-name="questiondown.sc" horiz-adv-x="566" 
d="M364 507h-161v137h161v-137zM278 -9q-56 0 -98.5 13.5t-71.5 37t-44 56t-15 70.5q0 59 24 95.5t65 69.5l58 46q7 6 11.5 10.5t7 9.5t3 11t0.5 16v12h128v-42q0 -29 -9 -50t-40 -46l-53 -43q-29 -23 -38.5 -41t-9.5 -44q0 -32 22 -53t62 -21q51 0 76 29t25 83h137
q1 -47 -14 -87t-45.5 -69t-75.5 -46t-105 -17z" />
    <glyph glyph-name="quotedblleft.sc" horiz-adv-x="496" 
d="M397 383h-158l117 261h101zM190 383h-159l117 261h101z" />
    <glyph glyph-name="space.tab" horiz-adv-x="300" 
 />
    <glyph glyph-name="quoteleft.sc" horiz-adv-x="289" 
d="M192 383h-162l120 261h101z" />
    <glyph glyph-name="quoteright.sc" horiz-adv-x="289" 
d="M98 644h161l-120 -261h-101z" />
    <glyph glyph-name="Lslash.sc" horiz-adv-x="571" 
d="M80 216l-64 -22v106l64 22v322h159v-266l187 65v-105l-187 -66v-153h274v-119h-433v216z" />
    <glyph glyph-name="AEacute.sc" horiz-adv-x="966" 
d="M548 887h158l-88 -174h-121zM459 531h-38l-131 -277h169v277zM169 0h-157l325 644h559v-113h-281v-154h267v-110h-267v-155h290v-112h-446v151h-218z" />
    <glyph glyph-name="Aacute.sc" horiz-adv-x="688" 
d="M334 887h158l-88 -174h-121zM337 514q-1 -2 -7.5 -29.5t-23.5 -81.5l-54 -165h168l-54 165q-9 27 -14.5 48t-8.5 35q-4 17 -4 28h-2zM456 132h-240l-46 -132h-151l236 644h177l237 -644h-168z" />
    <glyph glyph-name="Abreve.sc" horiz-adv-x="688" 
d="M337 514q-1 -2 -7.5 -29.5t-23.5 -81.5l-54 -165h168l-54 165q-9 27 -14.5 48t-8.5 35q-4 17 -4 28h-2zM456 132h-240l-46 -132h-151l236 644h177l237 -644h-168zM343 711q-35 0 -65 10t-52.5 31.5t-35.5 54.5t-13 80h105q0 -37 17.5 -55.5t46.5 -18.5t47 18.5t18 55.5
h99q0 -47 -13 -80t-35.5 -54.5t-53 -31.5t-65.5 -10z" />
    <glyph glyph-name="Acircumflex.sc" horiz-adv-x="688" 
d="M521 713h-109l-69 77h-1l-66 -77h-101l110 174h126zM337 514q-1 -2 -7.5 -29.5t-23.5 -81.5l-54 -165h168l-54 165q-9 27 -14.5 48t-8.5 35q-4 17 -4 28h-2zM456 132h-240l-46 -132h-151l236 644h177l237 -644h-168z" />
    <glyph glyph-name="Adieresis.sc" horiz-adv-x="688" 
d="M379 872h137v-137h-137v137zM171 872h136v-137h-136v137zM337 514q-1 -2 -7.5 -29.5t-23.5 -81.5l-54 -165h168l-54 165q-9 27 -14.5 48t-8.5 35q-4 17 -4 28h-2zM456 132h-240l-46 -132h-151l236 644h177l237 -644h-168z" />
    <glyph glyph-name="Agrave.sc" horiz-adv-x="688" 
d="M337 514q-1 -2 -7.5 -29.5t-23.5 -81.5l-54 -165h168l-54 165q-9 27 -14.5 48t-8.5 35q-4 17 -4 28h-2zM456 132h-240l-46 -132h-151l236 644h177l237 -644h-168zM410 713h-121l-88 174h158z" />
    <glyph glyph-name="Amacron.sc" horiz-adv-x="688" 
d="M337 514q-1 -2 -7.5 -29.5t-23.5 -81.5l-54 -165h168l-54 165q-9 27 -14.5 48t-8.5 35q-4 17 -4 28h-2zM456 132h-240l-46 -132h-151l236 644h177l237 -644h-168zM172 839h342v-104h-342v104z" />
    <glyph glyph-name="Aogonek.sc" horiz-adv-x="688" 
d="M637 -188q-40 0 -67 6.5t-43.5 18.5t-24 28.5t-7.5 36.5q0 27 17 52.5t55 45.5h-65l-46 132h-240l-46 -132h-151l236 644h177l235 -640q-29 -20 -40.5 -35t-11.5 -32q0 -35 51 -36v-89h-29zM337 514q-1 -2 -7.5 -29.5t-23.5 -81.5l-54 -165h168l-54 165q-9 27 -14.5 48
t-8.5 35q-4 17 -4 28h-2z" />
    <glyph glyph-name="Aring.sc" horiz-adv-x="688" 
d="M343 701q-62 0 -96.5 33.5t-34.5 89.5q0 27 9.5 49.5t27 39t42 25.5t53.5 9q63 0 97 -34.5t34 -88.5q0 -56 -36 -89.5t-96 -33.5zM343 884q-24 0 -38.5 -16.5t-14.5 -44.5q0 -27 14 -43.5t40 -16.5q24 0 38 16.5t14 43.5q0 28 -13.5 44.5t-39.5 16.5zM337 514
q-1 -2 -7.5 -29.5t-23.5 -81.5l-54 -165h168l-54 165q-9 27 -14.5 48t-8.5 35q-4 17 -4 28h-2zM456 132h-240l-46 -132h-151l236 644h177l237 -644h-168z" />
    <glyph glyph-name="uni01FA.sc" horiz-adv-x="688" 
d="M343 701q-62 0 -96.5 33.5t-34.5 89.5q0 27 9.5 49.5t27 39t42 25.5t53.5 9q63 0 97 -34.5t34 -88.5q0 -56 -36 -89.5t-96 -33.5zM343 884q-24 0 -38.5 -16.5t-14.5 -44.5q0 -27 14 -43.5t40 -16.5q24 0 38 16.5t14 43.5q0 28 -13.5 44.5t-39.5 16.5zM337 514
q-1 -2 -7.5 -29.5t-23.5 -81.5l-54 -165h168l-54 165q-9 27 -14.5 48t-8.5 35q-4 17 -4 28h-2zM456 132h-240l-46 -132h-151l236 644h177l237 -644h-168zM346 1119h158l-103 -133h-119z" />
    <glyph glyph-name="Atilde.sc" horiz-adv-x="688" 
d="M337 514q-1 -2 -7.5 -29.5t-23.5 -81.5l-54 -165h168l-54 165q-9 27 -14.5 48t-8.5 35q-4 17 -4 28h-2zM456 132h-240l-46 -132h-151l236 644h177l237 -644h-168zM154 713q0 33 6 63t20 52.5t36.5 35.5t55.5 13q23 0 42.5 -8t36 -17.5t31.5 -17.5t30 -8q14 0 28 10t22 42
h71q0 -34 -6 -64t-20 -52.5t-36.5 -35.5t-55.5 -13q-23 0 -42.5 8t-36 17.5t-31.5 17.5t-30 8q-14 0 -28 -10t-21 -41h-72z" />
    <glyph glyph-name="Cacute.sc" horiz-adv-x="694" 
d="M354 887h158l-88 -174h-121zM366 544q-62 0 -101 -55t-39 -169q0 -115 36 -169t101 -54q53 0 82.5 32.5t34.5 92.5h161q-5 -112 -78.5 -174t-198.5 -62q-79 0 -136.5 23t-95.5 65t-56.5 102.5t-18.5 135.5q0 79 21.5 142t61.5 107.5t97.5 68t129.5 23.5q131 0 201 -59
t74 -174h-163q-9 124 -113 124z" />
    <glyph glyph-name="Ccaron.sc" horiz-adv-x="694" 
d="M184 887h109l69 -77h1l66 77h101l-110 -174h-126zM366 544q-62 0 -101 -55t-39 -169q0 -115 36 -169t101 -54q53 0 82.5 32.5t34.5 92.5h161q-5 -112 -78.5 -174t-198.5 -62q-79 0 -136.5 23t-95.5 65t-56.5 102.5t-18.5 135.5q0 79 21.5 142t61.5 107.5t97.5 68
t129.5 23.5q131 0 201 -59t74 -174h-163q-9 124 -113 124z" />
    <glyph glyph-name="Ccedilla.sc" horiz-adv-x="694" 
d="M363 -232q-52 0 -78 23.5t-28 55.5h77q3 -9 10 -15t21 -6q17 0 24.5 9t7.5 23q0 31 -32 31q-17 0 -27 -13h-65l50 112q-68 6 -118 31t-83 67t-49 99t-16 127q0 79 21.5 142t61.5 107.5t97.5 68t129.5 23.5q131 0 201 -59t74 -174h-163q-9 124 -113 124q-62 0 -101 -55
t-39 -169q0 -115 36 -169t101 -54q53 0 82.5 32.5t34.5 92.5h161q-5 -110 -75 -171.5t-191 -64.5l-21 -45h2q14 10 40 10q36 0 60 -23.5t24 -65.5q0 -18 -7 -35t-21 -30t-36.5 -21t-52.5 -8z" />
    <glyph glyph-name="Ccircumflex.sc" horiz-adv-x="694" 
d="M541 713h-109l-69 77h-1l-66 -77h-101l110 174h126zM366 544q-62 0 -101 -55t-39 -169q0 -115 36 -169t101 -54q53 0 82.5 32.5t34.5 92.5h161q-5 -112 -78.5 -174t-198.5 -62q-79 0 -136.5 23t-95.5 65t-56.5 102.5t-18.5 135.5q0 79 21.5 142t61.5 107.5t97.5 68
t129.5 23.5q131 0 201 -59t74 -174h-163q-9 124 -113 124z" />
    <glyph glyph-name="Cdotaccent.sc" horiz-adv-x="694" 
d="M366 544q-62 0 -101 -55t-39 -169q0 -115 36 -169t101 -54q53 0 82.5 32.5t34.5 92.5h161q-5 -112 -78.5 -174t-198.5 -62q-79 0 -136.5 23t-95.5 65t-56.5 102.5t-18.5 135.5q0 79 21.5 142t61.5 107.5t97.5 68t129.5 23.5q131 0 201 -59t74 -174h-163q-9 124 -113 124z
M294 872h137v-137h-137v137z" />
    <glyph glyph-name="Dcaron.sc" horiz-adv-x="708" 
d="M80 644h238q74 0 135.5 -18.5t106 -56.5t69 -97.5t24.5 -141.5q0 -83 -24.5 -144.5t-68.5 -103t-105.5 -62t-135.5 -20.5h-239v644zM314 111q38 0 69.5 11t54 36.5t35 66.5t12.5 102q0 58 -12.5 97.5t-34.5 64t-53 35t-67 10.5h-79v-423h75zM159 887h109l69 -77h1l66 77
h101l-110 -174h-126z" />
    <glyph glyph-name="Eacute.sc" horiz-adv-x="594" 
d="M298 887h158l-88 -174h-121zM80 644h445v-113h-286v-154h271v-110h-271v-155h295v-112h-454v644z" />
    <glyph glyph-name="Ecaron.sc" horiz-adv-x="594" 
d="M128 887h109l69 -77h1l66 77h101l-110 -174h-126zM80 644h445v-113h-286v-154h271v-110h-271v-155h295v-112h-454v644z" />
    <glyph glyph-name="Ecircumflex.sc" horiz-adv-x="594" 
d="M484 713h-109l-69 77h-1l-66 -77h-101l110 174h126zM80 644h445v-113h-286v-154h271v-110h-271v-155h295v-112h-454v644z" />
    <glyph glyph-name="Edieresis.sc" horiz-adv-x="594" 
d="M343 872h137v-137h-137v137zM135 872h136v-137h-136v137zM80 644h445v-113h-286v-154h271v-110h-271v-155h295v-112h-454v644z" />
    <glyph glyph-name="Edotaccent.sc" horiz-adv-x="594" 
d="M238 872h137v-137h-137v137zM80 644h445v-113h-286v-154h271v-110h-271v-155h295v-112h-454v644z" />
    <glyph glyph-name="Egrave.sc" horiz-adv-x="594" 
d="M373 713h-121l-88 174h158zM80 644h445v-113h-286v-154h271v-110h-271v-155h295v-112h-454v644z" />
    <glyph glyph-name="Emacron.sc" horiz-adv-x="594" 
d="M136 839h342v-104h-342v104zM80 644h445v-113h-286v-154h271v-110h-271v-155h295v-112h-454v644z" />
    <glyph glyph-name="Eogonek.sc" horiz-adv-x="594" 
d="M535 -188h-29q-80 0 -111.5 25.5t-31.5 64.5q0 29 19.5 55t60.5 43h-363v644h445v-113h-286v-154h271v-110h-271v-155h295v-112q-27 -18 -38.5 -33t-11.5 -31q0 -17 12 -25.5t39 -9.5v-89z" />
    <glyph glyph-name="Gbreve.sc" horiz-adv-x="727" 
d="M373 546q-72 0 -111.5 -56t-39.5 -171q0 -62 11 -104.5t30.5 -69t47 -38.5t60.5 -12q62 0 101 35t39 99v10h-142v106h286v-345h-117v86h-3q-24 -44 -70 -71.5t-118 -27.5q-74 0 -129 23.5t-91 66t-53.5 102t-17.5 131.5q0 78 22.5 141.5t64 108.5t100.5 69t132 24
q126 0 195.5 -56t77.5 -153h-161q-6 48 -35 75t-79 27zM362 711q-35 0 -65 10t-52.5 31.5t-35.5 54.5t-13 80h105q0 -37 17.5 -55.5t46.5 -18.5t47 18.5t18 55.5h99q0 -47 -13 -80t-35.5 -54.5t-53 -31.5t-65.5 -10z" />
    <glyph glyph-name="Gcircumflex.sc" horiz-adv-x="727" 
d="M539 713h-109l-69 77h-1l-66 -77h-101l110 174h126zM373 546q-72 0 -111.5 -56t-39.5 -171q0 -62 11 -104.5t30.5 -69t47 -38.5t60.5 -12q62 0 101 35t39 99v10h-142v106h286v-345h-117v86h-3q-24 -44 -70 -71.5t-118 -27.5q-74 0 -129 23.5t-91 66t-53.5 102
t-17.5 131.5q0 78 22.5 141.5t64 108.5t100.5 69t132 24q126 0 195.5 -56t77.5 -153h-161q-6 48 -35 75t-79 27z" />
    <glyph glyph-name="Gcommaaccent.sc" horiz-adv-x="727" 
d="M286 -64h154l-73 -156h-105zM373 546q-72 0 -111.5 -56t-39.5 -171q0 -62 11 -104.5t30.5 -69t47 -38.5t60.5 -12q62 0 101 35t39 99v10h-142v106h286v-345h-117v86h-3q-24 -44 -70 -71.5t-118 -27.5q-74 0 -129 23.5t-91 66t-53.5 102t-17.5 131.5q0 78 22.5 141.5
t64 108.5t100.5 69t132 24q126 0 195.5 -56t77.5 -153h-161q-6 48 -35 75t-79 27z" />
    <glyph glyph-name="Gdotaccent.sc" horiz-adv-x="727" 
d="M373 546q-72 0 -111.5 -56t-39.5 -171q0 -62 11 -104.5t30.5 -69t47 -38.5t60.5 -12q62 0 101 35t39 99v10h-142v106h286v-345h-117v86h-3q-24 -44 -70 -71.5t-118 -27.5q-74 0 -129 23.5t-91 66t-53.5 102t-17.5 131.5q0 78 22.5 141.5t64 108.5t100.5 69t132 24
q126 0 195.5 -56t77.5 -153h-161q-6 48 -35 75t-79 27zM293 872h137v-137h-137v137z" />
    <glyph glyph-name="Hcircumflex.sc" horiz-adv-x="725" 
d="M540 713h-109l-69 77h-1l-66 -77h-101l110 174h126zM239 0h-159v644h159v-265h246v265h160v-644h-160v263h-246v-263z" />
    <glyph glyph-name="Iacute.sc" horiz-adv-x="319" 
d="M151 887h158l-88 -174h-121zM80 644h159v-644h-159v644z" />
    <glyph glyph-name="questiondown.uc" horiz-adv-x="591" 
d="M188.024 185.035q0 -41.9971 26.499 -66.9961q26.498 -24.998 75.4951 -24.998q23.998 0 45.4971 7q21.499 6.99902 37.498 23.998t25.498 44.4971q9.5 27.499 9.5 67.4961h151.99q1 -58.9961 -16.499 -107.993t-51.9971 -84.4951t-85.9941 -54.9961
q-51.4971 -19.499 -118.493 -19.499t-115.493 16.499t-79.4951 44.4971t-45.4971 65.9961q-14.499 37.9971 -14.499 80.9951q0 34.998 7 61.9961q6.99902 26.998 20.498 49.9971q13.499 22.998 32.998 43.4971t43.4971 40.4971l66.9961 55.9971q15.999 12.999 21.999 22.999
q6 9.99902 6 30.998v42.9971h136.991v-63.9961q0 -23.999 -2 -39.998t-8.49902 -28.498q-6.5 -12.499 -18.499 -24.998t-31.998 -28.498l-56.9971 -46.9971q-28.998 -23.999 -45.4971 -46.998q-16.499 -22.998 -16.499 -60.9961zM387.013 765v-151.99h-174.989v151.99
h174.989z" />
    <glyph glyph-name="Icircumflex.sc" horiz-adv-x="319" 
d="M337 713h-109l-69 77h-1l-66 -77h-101l110 174h126zM80 644h159v-644h-159v644z" />
    <glyph glyph-name="Idieresis.sc" horiz-adv-x="319" 
d="M196 872h137v-137h-137v137zM-12 872h136v-137h-136v137zM80 644h159v-644h-159v644z" />
    <glyph glyph-name="Igrave.sc" horiz-adv-x="319" 
d="M80 644h159v-644h-159v644zM226 713h-121l-88 174h158z" />
    <glyph glyph-name="Imacron.sc" horiz-adv-x="319" 
d="M80 644h159v-644h-159v644zM-11 839h342v-104h-342v104z" />
    <glyph glyph-name="Iogonek.sc" horiz-adv-x="319" 
d="M209 -188q-40 0 -67 6.5t-43.5 18.5t-24 28.5t-7.5 36.5q0 29 19 55t60 43h-66v644h159v-641q-27 -18 -39.5 -33.5t-12.5 -32.5q0 -18 12 -26.5t39 -9.5v-89h-29z" />
    <glyph glyph-name="Itilde.sc" horiz-adv-x="319" 
d="M80 644h159v-644h-159v644zM-29 713q0 33 6 63t20 52.5t36.5 35.5t55.5 13q23 0 42.5 -8t36 -17.5t31.5 -17.5t30 -8q14 0 28 10t22 42h71q0 -34 -6 -64t-20 -52.5t-36.5 -35.5t-55.5 -13q-23 0 -42.5 8t-36 17.5t-31.5 17.5t-30 8q-14 0 -28 -10t-21 -41h-72z" />
    <glyph glyph-name="Jcircumflex.sc" horiz-adv-x="420" 
d="M447 713h-109l-69 77h-1l-66 -77h-101l110 174h126zM36 -2v119h36q39 0 62.5 7.5t36 22t16.5 35.5t4 49v413h157v-431q0 -62 -17 -103.5t-49.5 -66.5t-78.5 -35t-104 -10h-63z" />
    <glyph glyph-name="Kcommaaccent.sc" horiz-adv-x="678" 
d="M282 -64h154l-73 -156h-105zM239 0h-159v644h159v-284l237 284h167l-232 -274l239 -370h-180l-167 263l-64 -74v-189z" />
    <glyph glyph-name="Lacute.sc" horiz-adv-x="571" 
d="M80 644h159v-525h274v-119h-433v644zM154 887h158l-88 -174h-121z" />
    <glyph glyph-name="Lcaron.sc" horiz-adv-x="571" 
d="M80 644h159v-525h274v-119h-433v644zM320 644h125l-56 -187h-75z" />
    <glyph glyph-name="Lcommaaccent.sc" horiz-adv-x="571" 
d="M80 644h159v-525h274v-119h-433v644zM220 -64h154l-73 -156h-105z" />
    <glyph glyph-name="Nacute.sc" horiz-adv-x="718" 
d="M350 887h158l-88 -174h-121zM80 644h170l186 -317q14 -24 24.5 -44t17.5 -34q8 -17 14 -31h3v426h143v-644h-161l-193 324q-14 23 -24.5 43.5t-18.5 36.5q-9 18 -16 33h-3v-437h-142v644z" />
    <glyph glyph-name="Ncaron.sc" horiz-adv-x="718" 
d="M180 887h109l69 -77h1l66 77h101l-110 -174h-126zM80 644h170l186 -317q14 -24 24.5 -44t17.5 -34q8 -17 14 -31h3v426h143v-644h-161l-193 324q-14 23 -24.5 43.5t-18.5 36.5q-9 18 -16 33h-3v-437h-142v644z" />
    <glyph glyph-name="Ncommaaccent.sc" horiz-adv-x="718" 
d="M283 -64h154l-73 -156h-105zM80 644h170l186 -317q14 -24 24.5 -44t17.5 -34q8 -17 14 -31h3v426h143v-644h-161l-193 324q-14 23 -24.5 43.5t-18.5 36.5q-9 18 -16 33h-3v-437h-142v644z" />
    <glyph glyph-name="Ntilde.sc" horiz-adv-x="718" 
d="M80 644h170l186 -317q14 -24 24.5 -44t17.5 -34q8 -17 14 -31h3v426h143v-644h-161l-193 324q-14 23 -24.5 43.5t-18.5 36.5q-9 18 -16 33h-3v-437h-142v644zM170 713q0 33 6 63t20 52.5t36.5 35.5t55.5 13q23 0 42.5 -8t36 -17.5t31.5 -17.5t30 -8q14 0 28 10t22 42h71
q0 -34 -6 -64t-20 -52.5t-36.5 -35.5t-55.5 -13q-23 0 -42.5 8t-36 17.5t-31.5 17.5t-30 8q-14 0 -28 -10t-21 -41h-72z" />
    <glyph glyph-name="Oacute.sc" horiz-adv-x="742" 
d="M57 320q0 78 22 140t63 105t99 65.5t130 22.5q151 0 232.5 -86.5t81.5 -246.5q0 -79 -22 -141t-62.5 -104.5t-98.5 -65t-131 -22.5q-155 0 -234.5 86.5t-79.5 246.5zM371 96q71 0 108.5 56t37.5 168t-41 169t-105 57q-71 0 -108 -56t-37 -170q0 -113 35 -168.5t110 -55.5
zM362 887h158l-88 -174h-121z" />
    <glyph glyph-name="Obreve.sc" horiz-adv-x="742" 
d="M57 320q0 78 22 140t63 105t99 65.5t130 22.5q151 0 232.5 -86.5t81.5 -246.5q0 -79 -22 -141t-62.5 -104.5t-98.5 -65t-131 -22.5q-155 0 -234.5 86.5t-79.5 246.5zM371 96q71 0 108.5 56t37.5 168t-41 169t-105 57q-71 0 -108 -56t-37 -170q0 -113 35 -168.5t110 -55.5
zM371 711q-35 0 -65 10t-52.5 31.5t-35.5 54.5t-13 80h105q0 -37 17.5 -55.5t46.5 -18.5t47 18.5t18 55.5h99q0 -47 -13 -80t-35.5 -54.5t-53 -31.5t-65.5 -10z" />
    <glyph glyph-name="Ocircumflex.sc" horiz-adv-x="742" 
d="M549 713h-109l-69 77h-1l-66 -77h-101l110 174h126zM57 320q0 78 22 140t63 105t99 65.5t130 22.5q151 0 232.5 -86.5t81.5 -246.5q0 -79 -22 -141t-62.5 -104.5t-98.5 -65t-131 -22.5q-155 0 -234.5 86.5t-79.5 246.5zM371 96q71 0 108.5 56t37.5 168t-41 169t-105 57
q-71 0 -108 -56t-37 -170q0 -113 35 -168.5t110 -55.5z" />
    <glyph glyph-name="Odieresis.sc" horiz-adv-x="742" 
d="M407 872h137v-137h-137v137zM199 872h136v-137h-136v137zM57 320q0 78 22 140t63 105t99 65.5t130 22.5q151 0 232.5 -86.5t81.5 -246.5q0 -79 -22 -141t-62.5 -104.5t-98.5 -65t-131 -22.5q-155 0 -234.5 86.5t-79.5 246.5zM371 96q71 0 108.5 56t37.5 168t-41 169
t-105 57q-71 0 -108 -56t-37 -170q0 -113 35 -168.5t110 -55.5z" />
    <glyph glyph-name="Ograve.sc" horiz-adv-x="742" 
d="M57 320q0 78 22 140t63 105t99 65.5t130 22.5q151 0 232.5 -86.5t81.5 -246.5q0 -79 -22 -141t-62.5 -104.5t-98.5 -65t-131 -22.5q-155 0 -234.5 86.5t-79.5 246.5zM371 96q71 0 108.5 56t37.5 168t-41 169t-105 57q-71 0 -108 -56t-37 -170q0 -113 35 -168.5t110 -55.5
zM437 713h-121l-88 174h158z" />
    <glyph glyph-name="Ohungarumlaut.sc" horiz-adv-x="742" 
d="M57 320q0 78 22 140t63 105t99 65.5t130 22.5q151 0 232.5 -86.5t81.5 -246.5q0 -79 -22 -141t-62.5 -104.5t-98.5 -65t-131 -22.5q-155 0 -234.5 86.5t-79.5 246.5zM371 96q71 0 108.5 56t37.5 168t-41 169t-105 57q-71 0 -108 -56t-37 -170q0 -113 35 -168.5t110 -55.5
zM453 887h127l-86 -174h-93zM276 887h128l-73 -174h-94z" />
    <glyph glyph-name="Omacron.sc" horiz-adv-x="742" 
d="M57 320q0 78 22 140t63 105t99 65.5t130 22.5q151 0 232.5 -86.5t81.5 -246.5q0 -79 -22 -141t-62.5 -104.5t-98.5 -65t-131 -22.5q-155 0 -234.5 86.5t-79.5 246.5zM371 96q71 0 108.5 56t37.5 168t-41 169t-105 57q-71 0 -108 -56t-37 -170q0 -113 35 -168.5t110 -55.5
zM200 839h342v-104h-342v104z" />
    <glyph glyph-name="Oslashacute.sc" horiz-adv-x="742" 
d="M363 887h158l-88 -174h-121zM371 549q-74 0 -113 -57t-39 -172q0 -33 3 -60.5t8 -50.5l244 296q-38 44 -103 44zM371 93q73 0 113 56.5t40 170.5q0 66 -14 114l-246 -299q37 -42 107 -42zM685 320q0 -79 -22 -141t-62.5 -104.5t-98.5 -65t-131 -22.5q-56 0 -103 12.5
t-84 38.5l-49 -59h-95l89 108q-72 86 -72 233q0 78 22 140t63 105t99 65.5t130 22.5q108 0 185 -49l53 64h95l-93 -113q74 -86 74 -235z" />
    <glyph glyph-name="Otilde.sc" horiz-adv-x="742" 
d="M57 320q0 78 22 140t63 105t99 65.5t130 22.5q151 0 232.5 -86.5t81.5 -246.5q0 -79 -22 -141t-62.5 -104.5t-98.5 -65t-131 -22.5q-155 0 -234.5 86.5t-79.5 246.5zM371 96q71 0 108.5 56t37.5 168t-41 169t-105 57q-71 0 -108 -56t-37 -170q0 -113 35 -168.5t110 -55.5
zM182 713q0 33 6 63t20 52.5t36.5 35.5t55.5 13q23 0 42.5 -8t36 -17.5t31.5 -17.5t30 -8q14 0 28 10t22 42h71q0 -34 -6 -64t-20 -52.5t-36.5 -35.5t-55.5 -13q-23 0 -42.5 8t-36 17.5t-31.5 17.5t-30 8q-14 0 -28 -10t-21 -41h-72z" />
    <glyph glyph-name="Racute.sc" horiz-adv-x="663" 
d="M309 887h158l-88 -174h-121zM328 344q22 0 42.5 5t36 17t25 31t9.5 47q0 25 -9 43.5t-24.5 30.5t-35.5 17.5t-42 5.5h-91v-197h89zM330 245h-91v-245h-159v644h268q31 0 64 -3.5t68 -16.5q24 -8 46 -22.5t39 -36t27.5 -49.5t10.5 -63q0 -39 -10.5 -68t-28 -50
t-40.5 -35.5t-48 -23.5v-2l150 -274h-169z" />
    <glyph glyph-name="Rcaron.sc" horiz-adv-x="663" 
d="M139 887h109l69 -77h1l66 77h101l-110 -174h-126zM328 344q22 0 42.5 5t36 17t25 31t9.5 47q0 25 -9 43.5t-24.5 30.5t-35.5 17.5t-42 5.5h-91v-197h89zM330 245h-91v-245h-159v644h268q31 0 64 -3.5t68 -16.5q24 -8 46 -22.5t39 -36t27.5 -49.5t10.5 -63
q0 -39 -10.5 -68t-28 -50t-40.5 -35.5t-48 -23.5v-2l150 -274h-169z" />
    <glyph glyph-name="Rcommaaccent.sc" horiz-adv-x="656" 
d="M262 -51h154l-73 -156h-105zM328 344q22 0 42.5 5t36 17t25 31t9.5 47q0 25 -9 43.5t-24.5 30.5t-35.5 17.5t-42 5.5h-91v-197h89zM330 245h-91v-245h-159v644h268q31 0 64 -3.5t68 -16.5q24 -8 46 -22.5t39 -36t27.5 -49.5t10.5 -63q0 -39 -10.5 -68t-28 -50
t-40.5 -35.5t-48 -23.5v-2l150 -274h-169z" />
    <glyph glyph-name="Sacute.sc" horiz-adv-x="630" 
d="M307 887h158l-88 -174h-121zM407 469q-2 31 -24 54t-68 23q-40 0 -65.5 -19t-25.5 -53q0 -32 19 -49.5t62 -24.5l105 -17q87 -14 128.5 -61t41.5 -119q0 -54 -19.5 -94.5t-54.5 -67.5t-84.5 -41t-109.5 -14q-62 0 -110.5 14.5t-82.5 40.5t-52.5 63t-19.5 81h158
q3 -41 31 -66t81 -25q56 0 80.5 23t24.5 58q0 29 -19 49t-66 28l-104 18q-76 13 -121 58.5t-45 125.5q0 42 16.5 78t48 63t78.5 42.5t107 15.5q64 0 110 -14.5t75 -39t43.5 -58t17.5 -72.5h-156z" />
    <glyph glyph-name="Scaron.sc" horiz-adv-x="630" 
d="M137 887h109l69 -77h1l66 77h101l-110 -174h-126zM407 469q-2 31 -24 54t-68 23q-40 0 -65.5 -19t-25.5 -53q0 -32 19 -49.5t62 -24.5l105 -17q87 -14 128.5 -61t41.5 -119q0 -54 -19.5 -94.5t-54.5 -67.5t-84.5 -41t-109.5 -14q-62 0 -110.5 14.5t-82.5 40.5t-52.5 63
t-19.5 81h158q3 -41 31 -66t81 -25q56 0 80.5 23t24.5 58q0 29 -19 49t-66 28l-104 18q-76 13 -121 58.5t-45 125.5q0 42 16.5 78t48 63t78.5 42.5t107 15.5q64 0 110 -14.5t75 -39t43.5 -58t17.5 -72.5h-156z" />
    <glyph glyph-name="Scedilla.sc" horiz-adv-x="630" 
d="M316 -232q-52 0 -78 23.5t-28 55.5h77q3 -9 10 -15t21 -6q17 0 24.5 9t7.5 23q0 31 -32 31q-17 0 -27 -13h-65l50 111q-108 8 -167.5 62t-61.5 136h158q3 -41 31 -66t81 -25q56 0 80.5 23t24.5 58q0 29 -19 49t-66 28l-104 18q-76 13 -121 58.5t-45 125.5q0 42 16.5 78
t48 63t78.5 42.5t107 15.5q64 0 110 -14.5t75 -39t43.5 -58t17.5 -72.5h-156q-2 31 -24 54t-68 23q-40 0 -65.5 -19t-25.5 -53q0 -32 19 -49.5t62 -24.5l105 -17q87 -14 128.5 -61t41.5 -119q0 -52 -18 -91.5t-51 -67t-79.5 -42t-103.5 -16.5l-21 -45h2q14 10 40 10
q36 0 60 -23.5t24 -65.5q0 -18 -7 -35t-21 -30t-36.5 -21t-52.5 -8z" />
    <glyph glyph-name="Scircumflex.sc" horiz-adv-x="630" 
d="M494 713h-109l-69 77h-1l-66 -77h-101l110 174h126zM407 469q-2 31 -24 54t-68 23q-40 0 -65.5 -19t-25.5 -53q0 -32 19 -49.5t62 -24.5l105 -17q87 -14 128.5 -61t41.5 -119q0 -54 -19.5 -94.5t-54.5 -67.5t-84.5 -41t-109.5 -14q-62 0 -110.5 14.5t-82.5 40.5t-52.5 63
t-19.5 81h158q3 -41 31 -66t81 -25q56 0 80.5 23t24.5 58q0 29 -19 49t-66 28l-104 18q-76 13 -121 58.5t-45 125.5q0 42 16.5 78t48 63t78.5 42.5t107 15.5q64 0 110 -14.5t75 -39t43.5 -58t17.5 -72.5h-156z" />
    <glyph glyph-name="Scommaaccent.sc" horiz-adv-x="630" 
d="M241 -64h154l-73 -156h-105zM407 469q-2 31 -24 54t-68 23q-40 0 -65.5 -19t-25.5 -53q0 -32 19 -49.5t62 -24.5l105 -17q87 -14 128.5 -61t41.5 -119q0 -54 -19.5 -94.5t-54.5 -67.5t-84.5 -41t-109.5 -14q-62 0 -110.5 14.5t-82.5 40.5t-52.5 63t-19.5 81h158
q3 -41 31 -66t81 -25q56 0 80.5 23t24.5 58q0 29 -19 49t-66 28l-104 18q-76 13 -121 58.5t-45 125.5q0 42 16.5 78t48 63t78.5 42.5t107 15.5q64 0 110 -14.5t75 -39t43.5 -58t17.5 -72.5h-156z" />
    <glyph glyph-name="Tcaron.sc" horiz-adv-x="592" 
d="M564 524h-188v-524h-160v524h-188v120h536v-120zM117 887h109l69 -77h1l66 77h101l-110 -174h-126z" />
    <glyph glyph-name="Tcommaaccent.sc" horiz-adv-x="592" 
d="M564 524h-188v-524h-160v524h-188v120h536v-120zM220 -64h154l-73 -156h-105z" />
    <glyph glyph-name="Uacute.sc" horiz-adv-x="693" 
d="M337 887h158l-88 -174h-121zM74 644h158v-393q0 -29 4 -57.5t18 -48.5q29 -40 94 -40q67 0 96 41q14 19 17 47.5t3 57.5v393h155v-416q0 -62 -19.5 -107.5t-55 -75.5t-85.5 -44.5t-112 -14.5q-63 0 -114 14t-86 44t-54 75.5t-19 108.5v416z" />
    <glyph glyph-name="Ubreve.sc" horiz-adv-x="693" 
d="M74 644h158v-393q0 -29 4 -57.5t18 -48.5q29 -40 94 -40q67 0 96 41q14 19 17 47.5t3 57.5v393h155v-416q0 -62 -19.5 -107.5t-55 -75.5t-85.5 -44.5t-112 -14.5q-63 0 -114 14t-86 44t-54 75.5t-19 108.5v416zM346 711q-35 0 -65 10t-52.5 31.5t-35.5 54.5t-13 80h105
q0 -37 17.5 -55.5t46.5 -18.5t47 18.5t18 55.5h99q0 -47 -13 -80t-35.5 -54.5t-53 -31.5t-65.5 -10z" />
    <glyph glyph-name="Ucircumflex.sc" horiz-adv-x="693" 
d="M524 713h-109l-69 77h-1l-66 -77h-101l110 174h126zM74 644h158v-393q0 -29 4 -57.5t18 -48.5q29 -40 94 -40q67 0 96 41q14 19 17 47.5t3 57.5v393h155v-416q0 -62 -19.5 -107.5t-55 -75.5t-85.5 -44.5t-112 -14.5q-63 0 -114 14t-86 44t-54 75.5t-19 108.5v416z" />
    <glyph glyph-name="Udieresis.sc" horiz-adv-x="693" 
d="M382 872h137v-137h-137v137zM174 872h136v-137h-136v137zM74 644h158v-393q0 -29 4 -57.5t18 -48.5q29 -40 94 -40q67 0 96 41q14 19 17 47.5t3 57.5v393h155v-416q0 -62 -19.5 -107.5t-55 -75.5t-85.5 -44.5t-112 -14.5q-63 0 -114 14t-86 44t-54 75.5t-19 108.5v416z
" />
    <glyph glyph-name="Ugrave.sc" horiz-adv-x="693" 
d="M413 713h-121l-88 174h158zM74 644h158v-393q0 -29 4 -57.5t18 -48.5q29 -40 94 -40q67 0 96 41q14 19 17 47.5t3 57.5v393h155v-416q0 -62 -19.5 -107.5t-55 -75.5t-85.5 -44.5t-112 -14.5q-63 0 -114 14t-86 44t-54 75.5t-19 108.5v416z" />
    <glyph glyph-name="Uhungarumlaut.sc" horiz-adv-x="693" 
d="M428 887h127l-86 -174h-93zM251 887h128l-73 -174h-94zM74 644h158v-393q0 -29 4 -57.5t18 -48.5q29 -40 94 -40q67 0 96 41q14 19 17 47.5t3 57.5v393h155v-416q0 -62 -19.5 -107.5t-55 -75.5t-85.5 -44.5t-112 -14.5q-63 0 -114 14t-86 44t-54 75.5t-19 108.5v416z" />
    <glyph glyph-name="Umacron.sc" horiz-adv-x="693" 
d="M175 839h342v-104h-342v104zM74 644h158v-393q0 -29 4 -57.5t18 -48.5q29 -40 94 -40q67 0 96 41q14 19 17 47.5t3 57.5v393h155v-416q0 -62 -19.5 -107.5t-55 -75.5t-85.5 -44.5t-112 -14.5q-63 0 -114 14t-86 44t-54 75.5t-19 108.5v416z" />
    <glyph glyph-name="Uogonek.sc" horiz-adv-x="693" 
d="M74 644h158v-393q0 -29 4 -57.5t18 -48.5q29 -40 94 -40q67 0 96 41q14 19 17 47.5t3 57.5v393h155v-416q0 -52 -13.5 -91t-36.5 -67t-55 -45.5t-68 -26.5q-49 -12 -68 -29.5t-19 -40.5q0 -34 52 -34v-89h-29q-80 0 -111.5 25t-31.5 65q0 28 17 51.5t53 40.5v1
q-110 8 -172.5 65.5t-62.5 174.5v416z" />
    <glyph glyph-name="Uring.sc" horiz-adv-x="693" 
d="M346 701q-62 0 -96.5 33.5t-34.5 89.5q0 27 9.5 49.5t27 39t42 25.5t53.5 9q63 0 97 -34.5t34 -88.5q0 -56 -36 -89.5t-96 -33.5zM346 884q-24 0 -38.5 -16.5t-14.5 -44.5q0 -27 14 -43.5t40 -16.5q24 0 38 16.5t14 43.5q0 28 -13.5 44.5t-39.5 16.5zM74 644h158v-393
q0 -29 4 -57.5t18 -48.5q29 -40 94 -40q67 0 96 41q14 19 17 47.5t3 57.5v393h155v-416q0 -62 -19.5 -107.5t-55 -75.5t-85.5 -44.5t-112 -14.5q-63 0 -114 14t-86 44t-54 75.5t-19 108.5v416z" />
    <glyph glyph-name="Utilde.sc" horiz-adv-x="693" 
d="M74 644h158v-393q0 -29 4 -57.5t18 -48.5q29 -40 94 -40q67 0 96 41q14 19 17 47.5t3 57.5v393h155v-416q0 -62 -19.5 -107.5t-55 -75.5t-85.5 -44.5t-112 -14.5q-63 0 -114 14t-86 44t-54 75.5t-19 108.5v416zM157 713q0 33 6 63t20 52.5t36.5 35.5t55.5 13
q23 0 42.5 -8t36 -17.5t31.5 -17.5t30 -8q14 0 28 10t22 42h71q0 -34 -6 -64t-20 -52.5t-36.5 -35.5t-55.5 -13q-23 0 -42.5 8t-36 17.5t-31.5 17.5t-30 8q-14 0 -28 -10t-21 -41h-72z" />
    <glyph glyph-name="Wacute.sc" horiz-adv-x="927" 
d="M190 0l-170 644h164l78 -337q5 -25 9.5 -48t6.5 -41q3 -21 4 -39h2q1 17 5 36q3 17 7.5 38.5t11.5 46.5l93 344h142l95 -347q7 -25 11.5 -46t7.5 -37q4 -18 6 -35h2q1 18 4 37q2 17 5.5 38.5t9.5 46.5l77 343h146l-169 -644h-153l-98 356q-7 23 -11 44.5t-6 37.5
q-3 18 -4 34h-2q-1 -17 -4 -35q-5 -34 -17 -81l-97 -356h-156zM463 887h158l-88 -174h-121z" />
    <glyph glyph-name="Wcircumflex.sc" horiz-adv-x="927" 
d="M641 713h-109l-69 77h-1l-66 -77h-101l110 174h126zM190 0l-170 644h164l78 -337q5 -25 9.5 -48t6.5 -41q3 -21 4 -39h2q1 17 5 36q3 17 7.5 38.5t11.5 46.5l93 344h142l95 -347q7 -25 11.5 -46t7.5 -37q4 -18 6 -35h2q1 18 4 37q2 17 5.5 38.5t9.5 46.5l77 343h146
l-169 -644h-153l-98 356q-7 23 -11 44.5t-6 37.5q-3 18 -4 34h-2q-1 -17 -4 -35q-5 -34 -17 -81l-97 -356h-156z" />
    <glyph glyph-name="Wdieresis.sc" horiz-adv-x="927" 
d="M499 872h137v-137h-137v137zM291 872h136v-137h-136v137zM190 0l-170 644h164l78 -337q5 -25 9.5 -48t6.5 -41q3 -21 4 -39h2q1 17 5 36q3 17 7.5 38.5t11.5 46.5l93 344h142l95 -347q7 -25 11.5 -46t7.5 -37q4 -18 6 -35h2q1 18 4 37q2 17 5.5 38.5t9.5 46.5l77 343h146
l-169 -644h-153l-98 356q-7 23 -11 44.5t-6 37.5q-3 18 -4 34h-2q-1 -17 -4 -35q-5 -34 -17 -81l-97 -356h-156z" />
    <glyph glyph-name="Wgrave.sc" horiz-adv-x="927" 
d="M190 0l-170 644h164l78 -337q5 -25 9.5 -48t6.5 -41q3 -21 4 -39h2q1 17 5 36q3 17 7.5 38.5t11.5 46.5l93 344h142l95 -347q7 -25 11.5 -46t7.5 -37q4 -18 6 -35h2q1 18 4 37q2 17 5.5 38.5t9.5 46.5l77 343h146l-169 -644h-153l-98 356q-7 23 -11 44.5t-6 37.5
q-3 18 -4 34h-2q-1 -17 -4 -35q-5 -34 -17 -81l-97 -356h-156zM530 713h-121l-88 174h158z" />
    <glyph glyph-name="Yacute.sc" horiz-adv-x="623" 
d="M303 887h158l-88 -174h-121zM233 271l-220 373h171l133 -248h2l132 248h159l-219 -373v-271h-158v271z" />
    <glyph glyph-name="Ycircumflex.sc" horiz-adv-x="623" 
d="M490 713h-109l-69 77h-1l-66 -77h-101l110 174h126zM233 271l-220 373h171l133 -248h2l132 248h159l-219 -373v-271h-158v271z" />
    <glyph glyph-name="Ydieresis.sc" horiz-adv-x="623" 
d="M348 872h137v-137h-137v137zM140 872h136v-137h-136v137zM233 271l-220 373h171l133 -248h2l132 248h159l-219 -373v-271h-158v271z" />
    <glyph glyph-name="Ygrave.sc" horiz-adv-x="623" 
d="M233 271l-220 373h171l133 -248h2l132 248h159l-219 -373v-271h-158v271zM379 713h-121l-88 174h158z" />
    <glyph glyph-name="Zacute.sc" horiz-adv-x="606" 
d="M295 887h158l-88 -174h-121zM62 644h494v-104l-325 -423h328v-117h-513v104l326 424h-310v116z" />
    <glyph glyph-name="Zcaron.sc" horiz-adv-x="606" 
d="M125 887h109l69 -77h1l66 77h101l-110 -174h-126zM62 644h494v-104l-325 -423h328v-117h-513v104l326 424h-310v116z" />
    <glyph glyph-name="Zdotaccent.sc" horiz-adv-x="606" 
d="M62 644h494v-104l-325 -423h328v-117h-513v104l326 424h-310v116zM236 872h137v-137h-137v137z" />
    <glyph glyph-name="Ldot.sc" horiz-adv-x="571" 
d="M379 427h133v-129h-133v129zM80 644h159v-525h274v-119h-433v644z" />
    <glyph glyph-name="napostrophe.sc" horiz-adv-x="718" 
d="M80 644h170l186 -317q14 -23 24.5 -43.5t17.5 -34.5q8 -18 14 -31h3v426h143v-644h-161l-193 324q-15 23 -25.5 43t-18.5 36q-9 18 -15 34h-3v-437h-142v644z" />
    <glyph glyph-name="Hbar.sc" horiz-adv-x="725" 
d="M485 473h-246v-95h246v95zM239 0h-159v473h-65v84h65v87h159v-87h246v87h160v-87h66v-84h-66v-473h-160v263h-246v-263z" />
    <glyph glyph-name="Idotaccent.sc" horiz-adv-x="319" 
d="M80 644h159v-644h-159v644zM91 872h137v-137h-137v137z" />
    <glyph glyph-name="Ebreve.sc" horiz-adv-x="594" 
d="M80 644h445v-113h-286v-154h271v-110h-271v-155h295v-112h-454v644zM300 711q-35 0 -65 10t-52.5 31.5t-35.5 54.5t-13 80h105q0 -37 17.5 -55.5t46.5 -18.5t47 18.5t18 55.5h99q0 -47 -13 -80t-35.5 -54.5t-53 -31.5t-65.5 -10z" />
    <glyph glyph-name="yen.tab" 
d="M222 148h-185v76h185v81h-187v76h173l-197 360h176l118 -240h2l121 240h161l-199 -360h173v-76h-185v-81h187v-76h-187v-148h-156v148z" />
    <glyph glyph-name="eight.den" horiz-adv-x="440" 
d="M52 319q0 53 41.5 85.5t126.5 32.5t126.5 -32.5t41.5 -86.5q0 -38 -18.5 -60t-47.5 -33v-2q38 -10 60.5 -33.5t22.5 -68.5q0 -57 -47 -93.5t-138 -36.5q-96 0 -140 35.5t-44 94.5q0 42 22.5 66.5t59.5 35.5v2q-29 10 -47.5 33t-18.5 61zM220 366q-26 0 -42.5 -13.5
t-16.5 -42.5q0 -27 16.5 -41.5t42.5 -14.5t42.5 14.5t16.5 41.5q0 29 -16.5 42.5t-42.5 13.5zM220 63q30 0 50 15.5t20 46.5q0 32 -19.5 47.5t-50.5 15.5t-51 -15.5t-20 -47.5q0 -31 21 -46.5t50 -15.5z" />
    <glyph glyph-name="five.den" horiz-adv-x="433" 
d="M280 140q0 29 -18.5 47.5t-47.5 18.5q-40 0 -63 -29h-100l20 254h293v-88h-205l-9 -104h1q13 17 38 30.5t63 13.5q63 0 102 -34.5t39 -101.5q0 -32 -11 -60.5t-33.5 -49.5t-56.5 -33.5t-81 -12.5q-50 0 -83 11.5t-53 30.5t-29 43t-11 49h115q2 -26 19.5 -38.5t43.5 -12.5
q29 0 48 17t19 49z" />
    <glyph glyph-name="four.den" horiz-adv-x="450" 
d="M259 170v184h-3q-4 -9 -9 -20q-5 -9 -11.5 -20.5t-14.5 -22.5l-88 -121h126zM362 90v-90h-107v90h-226v76l196 265h137v-256h56v-85h-56z" />
    <glyph glyph-name="nine.den" horiz-adv-x="449" 
d="M219 357q-24 0 -46 -16t-22 -52q0 -35 20 -52.5t48 -17.5q29 0 48.5 17.5t19.5 52.5t-22 51.5t-46 16.5zM42 107h58q25 0 56 1q9 -40 58 -40q41 0 59.5 33.5t18.5 93.5h-2q-31 -49 -105 -49q-29 0 -55 8t-46.5 25t-32.5 43t-12 63q0 30 11.5 57.5t34.5 48.5t57.5 33
t80.5 12q89 0 139 -53.5t50 -157.5q0 -117 -53.5 -175.5t-150.5 -58.5q-76 0 -118.5 33t-47.5 83z" />
    <glyph glyph-name="one.den" horiz-adv-x="305" 
d="M118 280h-94v76h14q20 0 36.5 4t29.5 13q24 18 24 58h105v-431h-115v280z" />
    <glyph glyph-name="seven.den" horiz-adv-x="390" 
d="M230 343h-202v88h337v-62l-183 -369h-121z" />
    <glyph glyph-name="six.den" horiz-adv-x="451" 
d="M292 325q-4 17 -17 26.5t-35 9.5q-35 0 -57.5 -29.5t-24.5 -98.5h2q19 26 46 40.5t67 14.5q62 0 101.5 -35t39.5 -105q0 -31 -11.5 -59.5t-34 -50t-57 -34.5t-80.5 -13q-42 0 -77 12t-60 37.5t-39 65.5t-14 96q0 58 15 102t41.5 73t63.5 44t81 15q43 0 72.5 -8.5
t48.5 -23.5t29 -35t13 -44h-113zM234 69q26 0 47 17.5t21 55.5q0 35 -19 54t-49 19q-31 0 -50 -18t-19 -55q0 -38 21.5 -55.5t47.5 -17.5z" />
    <glyph glyph-name="three.den" horiz-adv-x="437" 
d="M168 183v71h41q25 0 43 13.5t18 38.5t-16.5 38t-40.5 13q-31 0 -44.5 -16t-14.5 -38h-113q1 24 10 48t30 43.5t55 32t84 12.5q81 0 123.5 -34t42.5 -83q0 -35 -21 -60.5t-64 -36.5v-2q96 -17 96 -103q0 -25 -11.5 -48.5t-34 -41.5t-56 -28.5t-78.5 -10.5q-51 0 -85 12
t-55 31t-30 43.5t-10 49.5h116q2 -26 20 -39.5t43 -13.5q31 0 48.5 16.5t17.5 39.5q0 25 -17 39t-47 14h-50z" />
    <glyph glyph-name="two.den" horiz-adv-x="430" 
d="M34 280q2 72 47 114.5t133 42.5q45 0 77.5 -10t53 -27t30.5 -40t10 -49q0 -24 -6.5 -44t-20 -38.5t-33 -36.5t-45.5 -39l-79 -65v-2h187v-86h-358v61l174 151q35 29 49 49t14 43q0 24 -14.5 38t-39.5 14q-27 0 -46.5 -16.5t-19.5 -59.5h-113z" />
    <glyph glyph-name="zero.den" horiz-adv-x="475" 
d="M40 213q0 113 54 169t142 56q96 0 147.5 -55t51.5 -170q0 -113 -52.5 -168t-146.5 -55q-96 0 -146 54.5t-50 168.5zM236 74q15 0 28.5 7t23 23.5t15 43t5.5 66.5t-6 67.5t-16 44t-23 23.5t-27 7q-15 0 -27.5 -7t-22 -23.5t-15 -44t-5.5 -67.5q0 -42 5 -69t14.5 -43
t22.5 -22t28 -6z" />
    <glyph glyph-name="zero.num" horiz-adv-x="475" 
d="M40 547q0 113 54 169t142 56q96 0 147.5 -55t51.5 -170q0 -113 -52.5 -168t-146.5 -55q-96 0 -146 54.5t-50 168.5zM236 408q15 0 28.5 7t23 23.5t15 43t5.5 66.5t-6 67.5t-16 44t-23 23.5t-27 7q-15 0 -27.5 -7t-22 -23.5t-15 -44t-5.5 -67.5q0 -42 5 -69t14.5 -43
t22.5 -22t28 -6z" />
    <glyph glyph-name="one.num" horiz-adv-x="305" 
d="M118 614h-94v76h14q20 0 36.5 4t29.5 13q24 18 24 58h105v-431h-115v280z" />
    <glyph glyph-name="two.num" horiz-adv-x="430" 
d="M34 614q2 72 47 114.5t133 42.5q45 0 77.5 -10t53 -27t30.5 -40t10 -49q0 -24 -6.5 -44t-20 -38.5t-33 -36.5t-45.5 -39l-79 -65v-2h187v-86h-358v61l174 151q35 29 49 49t14 43q0 24 -14.5 38t-39.5 14q-27 0 -46.5 -16.5t-19.5 -59.5h-113z" />
    <glyph glyph-name="three.num" horiz-adv-x="437" 
d="M168 517v71h41q25 0 43 13.5t18 38.5t-16.5 38t-40.5 13q-31 0 -44.5 -16t-14.5 -38h-113q1 24 10 48t30 43.5t55 32t84 12.5q81 0 123.5 -34t42.5 -83q0 -35 -21 -60.5t-64 -36.5v-2q96 -17 96 -103q0 -25 -11.5 -48.5t-34 -41.5t-56 -28.5t-78.5 -10.5q-51 0 -85 12
t-55 31t-30 43.5t-10 49.5h116q2 -26 20 -39.5t43 -13.5q31 0 48.5 16.5t17.5 39.5q0 25 -17 39t-47 14h-50z" />
    <glyph glyph-name="four.num" horiz-adv-x="450" 
d="M259 504v184h-3q-4 -9 -9 -20q-5 -9 -11.5 -20.5t-14.5 -22.5l-88 -121h126zM362 424v-90h-107v90h-226v76l196 265h137v-256h56v-85h-56z" />
    <glyph glyph-name="five.num" horiz-adv-x="433" 
d="M280 474q0 29 -18.5 47.5t-47.5 18.5q-40 0 -63 -29h-100l20 254h293v-88h-205l-9 -104h1q13 17 38 30.5t63 13.5q63 0 102 -34.5t39 -101.5q0 -32 -11 -60.5t-33.5 -49.5t-56.5 -33.5t-81 -12.5q-50 0 -83 11.5t-53 30.5t-29 43t-11 49h115q2 -26 19.5 -38.5t43.5 -12.5
q29 0 48 17t19 49z" />
    <glyph glyph-name="six.num" horiz-adv-x="451" 
d="M292 659q-4 17 -17 26.5t-35 9.5q-35 0 -57.5 -29.5t-24.5 -98.5h2q19 26 46 40.5t67 14.5q62 0 101.5 -35t39.5 -105q0 -31 -11.5 -59.5t-34 -50t-57 -34.5t-80.5 -13q-42 0 -77 12t-60 37.5t-39 65.5t-14 96q0 58 15 102t41.5 73t63.5 44t81 15q43 0 72.5 -8.5
t48.5 -23.5t29 -35t13 -44h-113zM234 403q26 0 47 17.5t21 55.5q0 35 -19 54t-49 19q-31 0 -50 -18t-19 -55q0 -38 21.5 -55.5t47.5 -17.5z" />
    <glyph glyph-name="seven.num" horiz-adv-x="390" 
d="M230 677h-202v88h337v-62l-183 -369h-121z" />
    <glyph glyph-name="eight.num" horiz-adv-x="440" 
d="M52 653q0 53 41.5 85.5t126.5 32.5t126.5 -32.5t41.5 -86.5q0 -38 -18.5 -60t-47.5 -33v-2q38 -10 60.5 -33.5t22.5 -68.5q0 -57 -47 -93.5t-138 -36.5q-96 0 -140 35.5t-44 94.5q0 42 22.5 66.5t59.5 35.5v2q-29 10 -47.5 33t-18.5 61zM220 700q-26 0 -42.5 -13.5
t-16.5 -42.5q0 -27 16.5 -41.5t42.5 -14.5t42.5 14.5t16.5 41.5q0 29 -16.5 42.5t-42.5 13.5zM220 397q30 0 50 15.5t20 46.5q0 32 -19.5 47.5t-50.5 15.5t-51 -15.5t-20 -47.5q0 -31 21 -46.5t50 -15.5z" />
    <glyph glyph-name="nine.num" horiz-adv-x="449" 
d="M219 691q-24 0 -46 -16t-22 -52q0 -35 20 -52.5t48 -17.5q29 0 48.5 17.5t19.5 52.5t-22 51.5t-46 16.5zM42 441h58q25 0 56 1q9 -40 58 -40q41 0 59.5 33.5t18.5 93.5h-2q-31 -49 -105 -49q-29 0 -55 8t-46.5 25t-32.5 43t-12 63q0 30 11.5 57.5t34.5 48.5t57.5 33
t80.5 12q89 0 139 -53.5t50 -157.5q0 -117 -53.5 -175.5t-150.5 -58.5q-76 0 -118.5 33t-47.5 83z" />
    <glyph glyph-name="minus.num" horiz-adv-x="408" 
d="M58 571h294v-59h-294v59z" />
    <glyph glyph-name="plus.num" horiz-adv-x="410" 
d="M236 400h-63v113h-119v57h119v112h63v-112h119v-57h-119v-113z" />
    <glyph glyph-name="minus.den" horiz-adv-x="420" 
d="M57 247h305v-78h-305v78z" />
    <glyph glyph-name="plus.den" horiz-adv-x="420" 
d="M255 54h-91v115h-118v78h118v114h91v-114h119v-78h-119v-115z" />
    <glyph glyph-name="parenleft.tab" horiz-adv-x="300" 
d="M213 -130q-26 37 -52 85t-47 105.5t-34 124.5t-13 144t13 144.5t34 125t47 104.5t52 85h114q-25 -46 -48.5 -97t-41.5 -108t-29 -120.5t-11 -133.5t11 -133.5t29 -120.5t41.5 -108t48.5 -97h-114z" />
    <glyph glyph-name="parenright.tab" horiz-adv-x="300" 
d="M-27 -130q25 46 48.5 97t41.5 108t29 120.5t11 133.5t-11 133t-29 120t-41.5 108.5t-48.5 97.5h114q26 -38 52.5 -85t47.5 -104.5t34 -125t13 -144.5t-13 -144.5t-34 -125t-47.5 -105t-52.5 -84.5h-114z" />
    <glyph glyph-name="bracketleft.tab" horiz-adv-x="300" 
d="M71 788h245v-96h-120v-726h120v-96h-245v918z" />
    <glyph glyph-name="bracketright.tab" horiz-adv-x="300" 
d="M229 -130h-245v96h120v726h-120v96h245v-918z" />
    <glyph glyph-name="braceleft.tab" horiz-adv-x="300" 
d="M18 273v109h22q35 0 48 15.5t12 52.5l-4 153q-2 55 7.5 91.5t35 58t69 30.5t109.5 9v-92q-40 0 -61.5 -6t-31 -19t-10 -34.5t0.5 -52.5l4 -128q1 -23 -3 -44t-13.5 -38t-26 -29.5t-40.5 -17.5v-4q49 -11 67 -47.5t16 -84.5l-4 -125q-1 -31 -0.5 -52.5t10 -34.5t31 -19
t61.5 -6v-92q-66 0 -109.5 8.5t-69 29.5t-35 56t-7.5 87l4 158q1 37 -12 52.5t-48 15.5h-22z" />
    <glyph glyph-name="braceright.tab" horiz-adv-x="300" 
d="M282 276h-22q-34 0 -47.5 -15.5t-12.5 -52.5l4 -153q2 -55 -7.5 -91.5t-35 -58t-69 -30.5t-109.5 -9v92q40 0 61.5 6t31 19t10 34.5t-0.5 52.5l-4 129q-1 22 3 43t13.5 38t26 29.5t40.5 17.5v4q-49 11 -67 47.5t-16 84.5l4 125q1 31 0.5 52.5t-10 34.5t-31 19t-61.5 6v92
q66 0 109.5 -8.5t69 -29.5t35 -56t7.5 -87l-4 -158q-1 -37 12.5 -52.5t47.5 -15.5h22v-109z" />
    <glyph glyph-name="eight.sub" horiz-adv-x="440" 
d="M52 259q0 53 41.5 85.5t126.5 32.5t126.5 -32.5t41.5 -86.5q0 -38 -18.5 -60t-47.5 -33v-2q38 -10 60.5 -33.5t22.5 -68.5q0 -57 -47 -93.5t-138 -36.5q-96 0 -140 35.5t-44 94.5q0 42 22.5 66.5t59.5 35.5v2q-29 10 -47.5 33t-18.5 61zM220 306q-26 0 -42.5 -13.5
t-16.5 -42.5q0 -27 16.5 -41.5t42.5 -14.5t42.5 14.5t16.5 41.5q0 29 -16.5 42.5t-42.5 13.5zM220 3q30 0 50 15.5t20 46.5q0 32 -19.5 47.5t-50.5 15.5t-51 -15.5t-20 -47.5q0 -31 21 -46.5t50 -15.5z" />
    <glyph glyph-name="eight.sup" horiz-adv-x="440" 
d="M52 703q0 53 41.5 85.5t126.5 32.5t126.5 -32.5t41.5 -86.5q0 -38 -18.5 -60t-47.5 -33v-2q38 -10 60.5 -33.5t22.5 -68.5q0 -57 -47 -93.5t-138 -36.5q-96 0 -140 35.5t-44 94.5q0 42 22.5 66.5t59.5 35.5v2q-29 10 -47.5 33t-18.5 61zM220 750q-26 0 -42.5 -13.5
t-16.5 -42.5q0 -27 16.5 -41.5t42.5 -14.5t42.5 14.5t16.5 41.5q0 29 -16.5 42.5t-42.5 13.5zM220 447q30 0 50 15.5t20 46.5q0 32 -19.5 47.5t-50.5 15.5t-51 -15.5t-20 -47.5q0 -31 21 -46.5t50 -15.5z" />
    <glyph glyph-name="five.sub" horiz-adv-x="433" 
d="M280 80q0 29 -18.5 47.5t-47.5 18.5q-40 0 -63 -29h-100l20 254h293v-88h-205l-9 -104h1q13 17 38 30.5t63 13.5q63 0 102 -34.5t39 -101.5q0 -32 -11 -60.5t-33.5 -49.5t-56.5 -33.5t-81 -12.5q-50 0 -83 11.5t-53 30.5t-29 43t-11 49h115q2 -26 19.5 -38.5t43.5 -12.5
q29 0 48 17t19 49z" />
    <glyph glyph-name="five.sup" horiz-adv-x="433" 
d="M280 524q0 29 -18.5 47.5t-47.5 18.5q-40 0 -63 -29h-100l20 254h293v-88h-205l-9 -104h1q13 17 38 30.5t63 13.5q63 0 102 -34.5t39 -101.5q0 -32 -11 -60.5t-33.5 -49.5t-56.5 -33.5t-81 -12.5q-50 0 -83 11.5t-53 30.5t-29 43t-11 49h115q2 -26 19.5 -38.5t43.5 -12.5
q29 0 48 17t19 49z" />
    <glyph glyph-name="four.sub" horiz-adv-x="450" 
d="M259 110v184h-3q-4 -9 -9 -20q-5 -9 -11.5 -20.5t-14.5 -22.5l-88 -121h126zM362 30v-90h-107v90h-226v76l196 265h137v-256h56v-85h-56z" />
    <glyph glyph-name="four.sup" horiz-adv-x="450" 
d="M259 554v184h-3q-4 -9 -9 -20q-5 -9 -11.5 -20.5t-14.5 -22.5l-88 -121h126zM362 474v-90h-107v90h-226v76l196 265h137v-256h56v-85h-56z" />
    <glyph glyph-name="minus.sub" horiz-adv-x="420" 
d="M57 187h305v-78h-305v78z" />
    <glyph glyph-name="minus.sup" horiz-adv-x="420" 
d="M57 631h305v-78h-305v78z" />
    <glyph glyph-name="nine.sub" horiz-adv-x="449" 
d="M219 297q-24 0 -46 -16t-22 -52q0 -35 20 -52.5t48 -17.5q29 0 48.5 17.5t19.5 52.5t-22 51.5t-46 16.5zM42 47h58q25 0 56 1q9 -40 58 -40q41 0 59.5 33.5t18.5 93.5h-2q-31 -49 -105 -49q-29 0 -55 8t-46.5 25t-32.5 43t-12 63q0 30 11.5 57.5t34.5 48.5t57.5 33
t80.5 12q89 0 139 -53.5t50 -157.5q0 -117 -53.5 -175.5t-150.5 -58.5q-76 0 -118.5 33t-47.5 83z" />
    <glyph glyph-name="nine.sup" horiz-adv-x="449" 
d="M219 741q-24 0 -46 -16t-22 -52q0 -35 20 -52.5t48 -17.5q29 0 48.5 17.5t19.5 52.5t-22 51.5t-46 16.5zM42 491h58q25 0 56 1q9 -40 58 -40q41 0 59.5 33.5t18.5 93.5h-2q-31 -49 -105 -49q-29 0 -55 8t-46.5 25t-32.5 43t-12 63q0 30 11.5 57.5t34.5 48.5t57.5 33
t80.5 12q89 0 139 -53.5t50 -157.5q0 -117 -53.5 -175.5t-150.5 -58.5q-76 0 -118.5 33t-47.5 83z" />
    <glyph glyph-name="one.sub" horiz-adv-x="305" 
d="M118 220h-94v76h14q20 0 36.5 4t29.5 13q24 18 24 58h105v-431h-115v280z" />
    <glyph glyph-name="one.sup" horiz-adv-x="305" 
d="M118 664h-94v76h14q20 0 36.5 4t29.5 13q24 18 24 58h105v-431h-115v280z" />
    <glyph glyph-name="plus.sub" horiz-adv-x="420" 
d="M255 -6h-91v115h-118v78h118v114h91v-114h119v-78h-119v-115z" />
    <glyph glyph-name="plus.sup" horiz-adv-x="420" 
d="M255 438h-91v115h-118v78h118v114h91v-114h119v-78h-119v-115z" />
    <glyph glyph-name="seven.sub" horiz-adv-x="390" 
d="M230 283h-202v88h337v-62l-183 -369h-121z" />
    <glyph glyph-name="seven.sup" horiz-adv-x="390" 
d="M230 727h-202v88h337v-62l-183 -369h-121z" />
    <glyph glyph-name="six.sub" horiz-adv-x="451" 
d="M292 265q-4 17 -17 26.5t-35 9.5q-35 0 -57.5 -29.5t-24.5 -98.5h2q19 26 46 40.5t67 14.5q62 0 101.5 -35t39.5 -105q0 -31 -11.5 -59.5t-34 -50t-57 -34.5t-80.5 -13q-42 0 -77 12t-60 37.5t-39 65.5t-14 96q0 58 15 102t41.5 73t63.5 44t81 15q43 0 72.5 -8.5
t48.5 -23.5t29 -35t13 -44h-113zM234 9q26 0 47 17.5t21 55.5q0 35 -19 54t-49 19q-31 0 -50 -18t-19 -55q0 -38 21.5 -55.5t47.5 -17.5z" />
    <glyph glyph-name="six.sup" horiz-adv-x="451" 
d="M292 709q-4 17 -17 26.5t-35 9.5q-35 0 -57.5 -29.5t-24.5 -98.5h2q19 26 46 40.5t67 14.5q62 0 101.5 -35t39.5 -105q0 -31 -11.5 -59.5t-34 -50t-57 -34.5t-80.5 -13q-42 0 -77 12t-60 37.5t-39 65.5t-14 96q0 58 15 102t41.5 73t63.5 44t81 15q43 0 72.5 -8.5
t48.5 -23.5t29 -35t13 -44h-113zM234 453q26 0 47 17.5t21 55.5q0 35 -19 54t-49 19q-31 0 -50 -18t-19 -55q0 -38 21.5 -55.5t47.5 -17.5z" />
    <glyph glyph-name="three.sub" horiz-adv-x="437" 
d="M168 123v71h41q25 0 43 13.5t18 38.5t-16.5 38t-40.5 13q-31 0 -44.5 -16t-14.5 -38h-113q1 24 10 48t30 43.5t55 32t84 12.5q81 0 123.5 -34t42.5 -83q0 -35 -21 -60.5t-64 -36.5v-2q96 -17 96 -103q0 -25 -11.5 -48.5t-34 -41.5t-56 -28.5t-78.5 -10.5q-51 0 -85 12
t-55 31t-30 43.5t-10 49.5h116q2 -26 20 -39.5t43 -13.5q31 0 48.5 16.5t17.5 39.5q0 25 -17 39t-47 14h-50z" />
    <glyph glyph-name="three.sup" horiz-adv-x="437" 
d="M168 567v71h41q25 0 43 13.5t18 38.5t-16.5 38t-40.5 13q-31 0 -44.5 -16t-14.5 -38h-113q1 24 10 48t30 43.5t55 32t84 12.5q81 0 123.5 -34t42.5 -83q0 -35 -21 -60.5t-64 -36.5v-2q96 -17 96 -103q0 -25 -11.5 -48.5t-34 -41.5t-56 -28.5t-78.5 -10.5q-51 0 -85 12
t-55 31t-30 43.5t-10 49.5h116q2 -26 20 -39.5t43 -13.5q31 0 48.5 16.5t17.5 39.5q0 25 -17 39t-47 14h-50z" />
    <glyph glyph-name="two.sub" horiz-adv-x="430" 
d="M34 220q2 72 47 114.5t133 42.5q45 0 77.5 -10t53 -27t30.5 -40t10 -49q0 -24 -6.5 -44t-20 -38.5t-33 -36.5t-45.5 -39l-79 -65v-2h187v-86h-358v61l174 151q35 29 49 49t14 43q0 24 -14.5 38t-39.5 14q-27 0 -46.5 -16.5t-19.5 -59.5h-113z" />
    <glyph glyph-name="two.sup" horiz-adv-x="430" 
d="M34 664q2 72 47 114.5t133 42.5q45 0 77.5 -10t53 -27t30.5 -40t10 -49q0 -24 -6.5 -44t-20 -38.5t-33 -36.5t-45.5 -39l-79 -65v-2h187v-86h-358v61l174 151q35 29 49 49t14 43q0 24 -14.5 38t-39.5 14q-27 0 -46.5 -16.5t-19.5 -59.5h-113z" />
    <glyph glyph-name="zero.sub" horiz-adv-x="475" 
d="M40 153q0 113 54 169t142 56q96 0 147.5 -55t51.5 -170q0 -113 -52.5 -168t-146.5 -55q-96 0 -146 54.5t-50 168.5zM236 14q15 0 28.5 7t23 23.5t15 43t5.5 66.5t-6 67.5t-16 44t-23 23.5t-27 7q-15 0 -27.5 -7t-22 -23.5t-15 -44t-5.5 -67.5q0 -42 5 -69t14.5 -43
t22.5 -22t28 -6z" />
    <glyph glyph-name="zero.sup" horiz-adv-x="475" 
d="M40 597q0 113 54 169t142 56q96 0 147.5 -55t51.5 -170q0 -113 -52.5 -168t-146.5 -55q-96 0 -146 54.5t-50 168.5zM236 458q15 0 28.5 7t23 23.5t15 43t5.5 66.5t-6 67.5t-16 44t-23 23.5t-27 7q-15 0 -27.5 -7t-22 -23.5t-15 -44t-5.5 -67.5q0 -42 5 -69t14.5 -43
t22.5 -22t28 -6z" />
    <glyph glyph-name="Q.old" horiz-adv-x="822" 
d="M521 0q-24 -8 -51 -12t-59 -4q-172 0 -266.5 102.5t-94.5 293.5q0 94 26.5 168t74 124.5t114 77t146.5 26.5q84 0 151 -26t113.5 -76.5t71.5 -124t25 -169.5q0 -118 -37.5 -199t-101.5 -127l62 -82l-98 -71zM228 380q0 -139 46 -209t137 -70q8 0 15.5 0.5t15.5 1.5
l-62 80l99 72l69 -90q23 34 35 87t12 128q0 69 -13.5 121t-38 87t-58.5 52.5t-74 17.5q-88 0 -135.5 -69t-47.5 -209z" />
    <glyph glyph-name="Q.scold" horiz-adv-x="742" 
d="M470 3q-23 -8 -47 -12t-52 -4q-155 0 -234.5 86.5t-79.5 246.5q0 78 22 140t63 105t99 65.5t130 22.5q151 0 232.5 -86.5t81.5 -246.5q0 -93 -32 -160t-89 -109l59 -80l-85 -60zM224 318q0 -113 36 -170t111 -57q17 0 32 3l-61 82l86 59l60 -81q31 57 31 164
q0 114 -41.5 171t-106.5 57q-72 0 -109.5 -56.5t-37.5 -171.5z" />
    <glyph glyph-name="Euro.tab" 
d="M577 215q-1 -47 -17 -89t-46 -73.5t-74 -49.5t-101 -18q-116 0 -176.5 66t-76.5 199h-71v77h65q-1 10 -1 19.5v20.5v21t1 20h-65v77h72q18 131 82 198.5t179 67.5q55 0 96.5 -17.5t70 -49t43.5 -74t18 -93.5h-130q-4 24 -11.5 45t-19.5 37t-29 25t-41 9q-46 0 -72 -35.5
t-36 -112.5h158v-77h-163q-1 -9 -1 -18.5v-20.5v-21.5t1 -20.5h164v-77h-158q11 -78 38.5 -111.5t69.5 -33.5q46 0 69 30t31 80h131z" />
    <glyph glyph-name="dollar.tab" 
d="M265 640q-47 -8 -67.5 -34t-20.5 -58q0 -44 24.5 -64t61.5 -28h2v184zM334 102q51 8 73 35.5t22 61.5q0 42 -24 64.5t-71 31.5l-4 1v-194h4zM264 -116v105q-108 8 -171 66t-71 160h144q5 -41 28 -72.5t73 -39.5v205l-23 5q-49 10 -87 26.5t-64.5 43t-40.5 63t-14 86.5
q0 43 14.5 80.5t43.5 66t71 46.5t98 22v81h66v-81q58 -4 99.5 -22t69 -46.5t42 -65t17.5 -78.5h-145q-3 36 -22 66t-64 38v-196l21 -4q117 -23 169.5 -75t52.5 -143q0 -102 -60 -163t-181 -69v-105h-66z" />
    <glyph glyph-name="dieresis.uc" horiz-adv-x="369" 
d="M224 965h136v-137h-136v137zM9 965h136v-137h-136v137z" />
    <glyph glyph-name="zero.tab" 
d="M34 368q0 94 18.5 166t53 120t83 72.5t109.5 24.5q131 0 199.5 -95.5t68.5 -287.5q0 -190 -70 -286.5t-198 -96.5q-131 0 -197.5 95.5t-66.5 287.5zM299 109q53 0 81.5 61.5t28.5 196.5q0 139 -28 199.5t-81 60.5t-81.5 -61.5t-28.5 -198.5q0 -70 7 -119t20.5 -80t34 -45
t47.5 -14z" />
    <glyph glyph-name="one.tab" 
d="M94 0v123h155v385h-153v102h16q35 0 64.5 6.5t49.5 23.5q39 30 41 102h138v-619h141v-123h-452z" />
    <glyph glyph-name="nine.tab" 
d="M291 631q-20 0 -38.5 -7t-33 -22.5t-23.5 -40t-9 -59.5q0 -64 30.5 -96.5t73.5 -32.5q47 0 76.5 32t29.5 97q0 33 -9 57.5t-23.5 40t-33.5 23.5t-40 8zM186 181q10 -36 35 -57t63 -21q64 0 94.5 59t32.5 178h-2q-20 -31 -59 -53t-96 -22q-44 0 -84 14.5t-71 44
t-49.5 73.5t-18.5 103q0 51 18 97t52 80.5t83.5 54.5t112.5 20q130 0 199 -88t69 -269q0 -206 -73.5 -308t-207.5 -102q-56 0 -98.5 14t-71.5 39.5t-46 62t-23 80.5h141z" />
    <glyph glyph-name="eight.tab" 
d="M51 550q0 42 16.5 79t48 64.5t78 43t106.5 15.5t106.5 -15.5t78 -43t48 -64.5t16.5 -79q0 -65 -31.5 -106.5t-79.5 -58.5v-3q58 -15 96.5 -59.5t38.5 -120.5q0 -47 -19.5 -86.5t-55.5 -69t-86.5 -46t-111.5 -16.5q-65 0 -115.5 16t-85.5 45t-53.5 69t-18.5 87
q0 76 39 121t96 60v3q-48 16 -79.5 58.5t-31.5 106.5zM300 641q-42 0 -71.5 -26t-29.5 -79q0 -51 29.5 -78.5t71.5 -27.5t71 27.5t29 78.5q0 53 -29 79t-71 26zM300 92q49 0 83.5 29.5t34.5 85.5q0 57 -34 85.5t-84 28.5q-49 0 -83 -28.5t-34 -85.5q0 -56 34.5 -85.5
t82.5 -29.5z" />
    <glyph glyph-name="seven.tab" 
d="M383 614h-348v127h528v-90l-301 -651h-163z" />
    <glyph glyph-name="six.tab" 
d="M406 563q-7 34 -31 53.5t-59 19.5q-63 0 -93.5 -59t-36.5 -179h3q26 39 66 62t100 23q45 0 83.5 -15.5t67.5 -45t45.5 -73.5t16.5 -101q0 -54 -16 -102t-48.5 -83.5t-82.5 -56.5t-117 -21q-59 0 -108.5 19t-85 61t-55.5 108.5t-20 161.5q0 208 73.5 312.5t212.5 104.5
q54 0 96 -15t71 -40.5t45.5 -60t20.5 -73.5h-148zM308 104q42 0 73.5 32t31.5 101q0 64 -30 97.5t-75 33.5q-47 0 -76.5 -32t-29.5 -99q0 -69 30.5 -101t75.5 -32z" />
    <glyph glyph-name="five.tab" 
d="M191 209q5 -55 34 -80t77 -25q23 0 44 8.5t36.5 25t25 42t9.5 60.5q0 66 -32.5 101t-81.5 35q-71 0 -105 -57h-134l22 422h439v-126h-310l-10 -183h2q22 24 56 41.5t88 17.5q46 0 85.5 -16t69 -47t46 -76t16.5 -103q0 -55 -16 -103t-49 -84t-83 -56.5t-118 -20.5
q-72 0 -121 19.5t-79.5 51t-44.5 71.5t-17 82h151z" />
    <glyph glyph-name="space_uni0326.alt" horiz-adv-x="369" 
d="M253 617h-157l79 165h105z" />
    <glyph glyph-name="four.tab" 
d="M352 284v320h-3q-4 -11 -10 -25q-5 -12 -13.5 -28.5t-20.5 -36.5l-142 -230h189zM493 164v-164h-145v164h-325v111l296 466h174v-455h85v-122h-85z" />
    <glyph glyph-name="three.tab" 
d="M238 319v113h47q48 0 77.5 27t29.5 75q0 44 -25.5 71t-72.5 27q-53 0 -80.5 -29t-30.5 -79h-145q1 42 16 83.5t46.5 73.5t80.5 52t117 20q60 0 106 -15.5t77 -43t46.5 -65t15.5 -80.5q0 -57 -30.5 -99.5t-87.5 -63.5v-2q60 -17 99 -60.5t39 -117.5q0 -45 -17 -85
t-50.5 -70t-83.5 -48t-115 -18q-72 0 -121.5 19t-81 51t-46.5 73t-18 85h153q5 -54 38 -80t78 -26q49 0 82 28.5t33 77.5q0 51 -31 78.5t-89 27.5h-56z" />
    <glyph glyph-name="uni021A.sc" horiz-adv-x="592" 
d="M564 524h-188v-524h-160v524h-188v120h536v-120zM220 -64h154l-73 -156h-105z" />
    <glyph glyph-name="two.tab" 
d="M46 497q2 121 71.5 188t192.5 67q64 0 110.5 -17t76.5 -45.5t44.5 -67t14.5 -80.5q0 -41 -9 -74.5t-28 -65t-49 -64t-71 -71.5l-148 -139v-1h305v-127h-524v92l251 249q31 30 53 55t36 47.5t20.5 44t6.5 44.5q0 48 -24.5 74t-69.5 26q-20 0 -39 -6t-34 -21.5t-24.5 -41.5
t-9.5 -66h-152z" />
    </font>
</defs>
</svg>
